999
DXF file: 40-484-03-8.dxf
999
Pro/ENGINEER 2009220 by Parametric Technology Corporation
  0
SECTION
  2
HEADER
  9
$ACADVER
  1
AC1021
  9
$DWGCODEPAGE
  3
ANSI_1252
  9
$EXTMAX
 10
297.0
 20
210.0
 30
0.0
  9
$EXTMIN
 10
0.0
 20
0.0
 30
0.0
  9
$LIMMIN
 10
0.0
 20
0.0
  9
$LIMMAX
 10
297.0
 20
210.0
  9
$VIEWCTR
 10
148.5
 20
105.0
  9
$VIEWSIZE
 40
210.0
  9
$CLAYER
  8
0
  9
$LTSCALE
 40
16.335
  9
$CELTYPE
  6
BYLAYER
  9
$DIMSCALE
 40
1.0
  9
$DIMASZ
 40
3.5
  9
$DIMEXO
 40
1.85625
  9
$DIMDLI
 40
11.286
  9
$DIMEXE
 40
5.346
  9
$DIMCEN
 40
2.673
  9
$DIMLFAC
 40
1.0
  9
$DIMBLK
  1
_FILLED
  9
$DIMTXT
 40
3.5
  9
$DIMTOL
 70
1
  9
$DIMLIM
 70
0
  9
$DIMTFAC
 40
1.0
  9
$DIMTP
 40
0.005
  9
$DIMTM
 40
0.005
  9
$PDMODE
 70
3
  9
$PDSIZE
 40
0.3125
  9
$HANDSEED
  5
32A
  9
$TILEMODE
 70
1
  9
$MEASUREMENT
 70
1
  9
$INSUNITS
 70
4
  0
ENDSEC
  0
SECTION
  2
CLASSES
  0
CLASS
  1
ACDBDICTIONARYWDFLT
  2
AcDbDictionaryWithDefault
  3
AutoCAD 2000
 90
0
 91
1
280
0
281
0
  0
CLASS
  1
ACDBPLACEHOLDER
  2
AcDbPlaceHolder
  3
AutoCAD 2000
 90
0
 91
1
280
0
281
0
  0
CLASS
  1
LAYOUT
  2
AcDbLayout
  3
AutoCAD 2000
 90
0
 91
0
280
0
281
0
  0
ENDSEC
  0
SECTION
  2
TABLES
  0
TABLE
  2
VPORT
  5
8
100
AcDbSymbolTable
 70
2
  0
VPORT
  5
1F4
100
AcDbSymbolTableRecord
100
AcDbViewportTableRecord
  2
*ACTIVE
 70
0
 10
0.0
 20
0.0
 11
1.0
 21
1.0
 12
148.5
 22
105.0
 13
0.0
 23
0.0
 14
1.0
 24
1.0
 15
0.0
 25
0.0
 16
0.0
 26
0.0
 36
1.0
 17
0.0
 27
0.0
 37
0.0
 40
210.0
 41
1.4142857143
 42
50.0
 43
0.0
 44
0.0
 50
0.0
 51
0.0
 71
0
 72
100
 73
1
 74
1
 75
0
 76
0
 77
0
 78
0
  0
ENDTAB
  0
TABLE
  2
LTYPE
  5
5
100
AcDbSymbolTable
 70
6
  0
LTYPE
  5
14
100
AcDbSymbolTableRecord
100
AcDbLinetypeTableRecord
  2
BYBLOCK
 70
0
  3

 72
65
 73
0
 40
0.0
  0
LTYPE
  5
15
100
AcDbSymbolTableRecord
100
AcDbLinetypeTableRecord
  2
BYLAYER
 70
0
  3

 72
65
 73
0
 40
0.0
  0
LTYPE
  5
16
100
AcDbSymbolTableRecord
100
AcDbLinetypeTableRecord
  2
CONTINUOUS
 70
64
  3
Solid line
 72
65
 73
0
 40
0.0
  0
LTYPE
  5
1F5
100
AcDbSymbolTableRecord
100
AcDbLinetypeTableRecord
  2
CENTER
 70
64
  3
____ _ ____ _ ____ _ ____ _ ____ _ ____ _ ____
 72
65
 73
4
 40
0.6
 49
0.375
 74
0
 49
-0.075
 74
0
 49
0.075
 74
0
 49
-0.075
 74
0
  0
LTYPE
  5
1F6
100
AcDbSymbolTableRecord
100
AcDbLinetypeTableRecord
  2
HIDDEN
 70
64
  3
- - - - - - - - - - - - - - - - - - - -
 72
65
 73
2
 40
0.2
 49
0.1
 74
0
 49
-0.1
 74
0
  0
LTYPE
  5
1F7
100
AcDbSymbolTableRecord
100
AcDbLinetypeTableRecord
  2
PHANTOM
 70
64
  3
_____ _ _ _____ _ _ _____ _ _ _____
 72
65
 73
6
 40
0.8
 49
0.45
 74
0
 49
-0.05
 74
0
 49
0.1
 74
0
 49
-0.05
 74
0
 49
0.1
 74
0
 49
-0.05
 74
0
  0
LTYPE
  5
1F8
100
AcDbSymbolTableRecord
100
AcDbLinetypeTableRecord
  2
DOT
 70
64
  3
. . . . . . . . . . . . . . . . . . . .
 72
65
 73
2
 40
0.2
 49
0.1
 74
0
 49
-0.1
 74
0
  0
LTYPE
  5
1F9
100
AcDbSymbolTableRecord
100
AcDbLinetypeTableRecord
  2
DASHED
 70
64
  3
- - - - - - - - - - - - - - - - - - - -
 72
65
 73
2
 40
0.2
 49
0.1
 74
0
 49
-0.1
 74
0
  0
ENDTAB
  0
TABLE
  2
LAYER
  5
2
100
AcDbSymbolTable
 70
36
  0
LAYER
  5
10
100
AcDbSymbolTableRecord
100
AcDbLayerTableRecord
  2
0
 70
0
 62
7
  6
CONTINUOUS
370
-3
390
F
  0
LAYER
  5
1FA
100
AcDbSymbolTableRecord
100
AcDbLayerTableRecord
  2
DEFAULT_1
 70
0
 62
7
  6
CENTER
370
-3
390
F
  0
LAYER
  5
1FB
100
AcDbSymbolTableRecord
100
AcDbLayerTableRecord
  2
DEFAULT_2
 70
0
 62
8
  6
HIDDEN
370
-3
390
F
  0
LAYER
  5
1FC
100
AcDbSymbolTableRecord
100
AcDbLayerTableRecord
  2
DEFAULT_3
 70
0
 62
7
  6
PHANTOM
370
-3
390
F
  0
LAYER
  5
1FD
100
AcDbSymbolTableRecord
100
AcDbLayerTableRecord
  2
ANALYSEN
 70
0
 62
7
  6
CONTINUOUS
370
-3
390
F
  0
LAYER
  5
1FE
100
AcDbSymbolTableRecord
100
AcDbLayerTableRecord
  2
AUSSENKONTUR
 70
0
 62
7
  6
CONTINUOUS
370
-3
390
F
  0
LAYER
  5
1FF
100
AcDbSymbolTableRecord
100
AcDbLayerTableRecord
  2
BEZUGSACHSEN
 70
0
 62
7
  6
CONTINUOUS
370
-3
390
F
  0
LAYER
  5
200
100
AcDbSymbolTableRecord
100
AcDbLayerTableRecord
  2
BEZUGSACHSENKENNZEICHEN
 70
0
 62
7
  6
CONTINUOUS
370
-3
390
F
  0
LAYER
  5
201
100
AcDbSymbolTableRecord
100
AcDbLayerTableRecord
  2
BEZUGSEBENEN
 70
0
 62
7
  6
CONTINUOUS
370
-3
390
F
  0
LAYER
  5
202
100
AcDbSymbolTableRecord
100
AcDbLayerTableRecord
  2
BEZUGSPUNKTE
 70
0
 62
7
  6
CONTINUOUS
370
-3
390
F
  0
LAYER
  5
203
100
AcDbSymbolTableRecord
100
AcDbLayerTableRecord
  2
BOHRUNGEN
 70
0
 62
7
  6
CONTINUOUS
370
-3
390
F
  0
LAYER
  5
204
100
AcDbSymbolTableRecord
100
AcDbLayerTableRecord
  2
FASEN
 70
0
 62
7
  6
CONTINUOUS
370
-3
390
F
  0
LAYER
  5
205
100
AcDbSymbolTableRecord
100
AcDbLayerTableRecord
  2
FLAECHEN
 70
0
 62
7
  6
CONTINUOUS
370
-3
390
F
  0
LAYER
  5
206
100
AcDbSymbolTableRecord
100
AcDbLayerTableRecord
  2
GEWINDE
 70
0
 62
7
  6
CONTINUOUS
370
-3
390
F
  0
LAYER
  5
207
100
AcDbSymbolTableRecord
100
AcDbLayerTableRecord
  2
HILFEN
 70
0
 62
7
  6
CONTINUOUS
370
-3
390
F
  0
LAYER
  5
208
100
AcDbSymbolTableRecord
100
AcDbLayerTableRecord
  2
INNENKONTUR
 70
0
 62
7
  6
CONTINUOUS
370
-3
390
F
  0
LAYER
  5
209
100
AcDbSymbolTableRecord
100
AcDbLayerTableRecord
  2
KURVEN
 70
0
 62
7
  6
CONTINUOUS
370
-3
390
F
  0
LAYER
  5
20A
100
AcDbSymbolTableRecord
100
AcDbLayerTableRecord
  2
MAKINO
 70
0
 62
7
  6
CONTINUOUS
370
-3
390
F
  0
LAYER
  5
20B
100
AcDbSymbolTableRecord
100
AcDbLayerTableRecord
  2
OELVERDR_RILLE
 70
0
 62
7
  6
CONTINUOUS
370
-3
390
F
  0
LAYER
  5
20C
100
AcDbSymbolTableRecord
100
AcDbLayerTableRecord
  2
PLATZIERUNG
 70
0
 62
7
  6
CONTINUOUS
370
-3
390
F
  0
LAYER
  5
20D
100
AcDbSymbolTableRecord
100
AcDbLayerTableRecord
  2
PUNKTE
 70
0
 62
7
  6
CONTINUOUS
370
-3
390
F
  0
LAYER
  5
20E
100
AcDbSymbolTableRecord
100
AcDbLayerTableRecord
  2
RUNDUNGEN
 70
0
 62
7
  6
CONTINUOUS
370
-3
390
F
  0
LAYER
  5
20F
100
AcDbSymbolTableRecord
100
AcDbLayerTableRecord
  2
TEIL_STARTBEZUEGE
 70
0
 62
7
  6
CONTINUOUS
370
-3
390
F
  0
LAYER
  5
210
100
AcDbSymbolTableRecord
100
AcDbLayerTableRecord
  2
VERERBUNG
 70
0
 62
7
  6
CONTINUOUS
370
-3
390
F
  0
LAYER
  5
211
100
AcDbSymbolTableRecord
100
AcDbLayerTableRecord
  2
VOLUMEN
 70
0
 62
7
  6
CONTINUOUS
370
-3
390
F
  0
LAYER
  5
212
100
AcDbSymbolTableRecord
100
AcDbLayerTableRecord
  2
ZEICHNUNG
 70
0
 62
7
  6
CONTINUOUS
370
-3
390
F
  0
LAYER
  5
213
100
AcDbSymbolTableRecord
100
AcDbLayerTableRecord
  2
ZEICHNUNGSBEMASSUNGEN
 70
0
 62
7
  6
CONTINUOUS
370
-3
390
F
  0
ENDTAB
  0
TABLE
  2
STYLE
  5
3
100
AcDbSymbolTable
 70
1
  0
STYLE
  5
11
100
AcDbSymbolTableRecord
100
AcDbTextStyleTableRecord
  2
STANDARD
 70
0
 40
0.0
 41
0.7
 50
0.0
 71
0
 42
0.2
  3
txt
  4

  0
STYLE
  5
214
100
AcDbSymbolTableRecord
100
AcDbTextStyleTableRecord
  2
TEXTSTYLE_1
 70
0
 40
0.0
 41
0.8
 50
0.0
 71
0
 42
0.2
  3
gdt
  4

  0
STYLE
  5
215
100
AcDbSymbolTableRecord
100
AcDbTextStyleTableRecord
  2
TEXTSTYLE_2
 70
0
 40
0.0
 41
0.7
 50
0.0
 71
0
 42
0.2
  3
gdt
  4

  0
ENDTAB
  0
TABLE
  2
VIEW
  5
6
100
AcDbSymbolTable
 70
0
  0
ENDTAB
  0
TABLE
  2
UCS
  5
7
100
AcDbSymbolTable
 70
0
  0
ENDTAB
  0
TABLE
  2
APPID
  5
9
100
AcDbSymbolTable
 70
1
  0
APPID
  5
216
100
AcDbSymbolTableRecord
100
AcDbRegAppTableRecord
  2
ACAD
 70
0
  0
ENDTAB
  0
TABLE
  2
BLOCK_RECORD
  5
1
100
AcDbSymbolTable
 70
0
  0
BLOCK_RECORD
  5
217
100
AcDbSymbolTableRecord
100
AcDbBlockTableRecord
  2
*Model_Space
  0
BLOCK_RECORD
  5
218
100
AcDbSymbolTableRecord
100
AcDbBlockTableRecord
  2
*Paper_Space
  0
BLOCK_RECORD
  5
219
100
AcDbSymbolTableRecord
100
AcDbBlockTableRecord
  2
_FILLED
  0
BLOCK_RECORD
  5
21A
100
AcDbSymbolTableRecord
100
AcDbBlockTableRecord
  2
*D0
  0
BLOCK_RECORD
  5
21B
100
AcDbSymbolTableRecord
100
AcDbBlockTableRecord
  2
*D1
  0
BLOCK_RECORD
  5
21C
100
AcDbSymbolTableRecord
100
AcDbBlockTableRecord
  2
*D2
  0
BLOCK_RECORD
  5
21D
100
AcDbSymbolTableRecord
100
AcDbBlockTableRecord
  2
*D3
  0
BLOCK_RECORD
  5
21E
100
AcDbSymbolTableRecord
100
AcDbBlockTableRecord
  2
*D4
  0
BLOCK_RECORD
  5
21F
100
AcDbSymbolTableRecord
100
AcDbBlockTableRecord
  2
*D5
  0
ENDTAB
  0
TABLE
  2
DIMSTYLE
  5
A
100
AcDbSymbolTable
 70
1
100
AcDbDimStyleTable
 71
0
  0
DIMSTYLE
105
220
100
AcDbSymbolTableRecord
100
AcDbDimStyleTableRecord
  2
STANDARD
 70
0
  3

  4

 40
1.0
 41
3.5
 42
0.0625
 43
0.38
 44
0.18
 45
0.0
 46
0.0
 47
0.005
 48
0.005
140
3.5
141
0.09
142
0.0
143
25.4
144
1.0
145
0.0
146
1.0
147
0.09
 71
1.0
 72
0.0
 73
0
 74
0
 75
0
 76
0
 77
1
 78
8
170
0
171
2
172
0
173
0
174
0
175
0
176
0
177
0
178
5
270
2
271
3
272
3
273
2
274
2
275
0
280
0
281
0
282
0
283
1
284
8
285
0
286
0
287
3
288
0
340
11
341
219
342
219
343
219
344
219
  0
DIMSTYLE
105
221
100
AcDbSymbolTableRecord
100
AcDbDimStyleTableRecord
  2
DIMSTYLE_1
 70
0
  3

  4

 40
1.0
 41
3.5
 42
0.0625
 43
0.38
 44
0.18
 45
0.0
 46
0.0
 47
0.5
 48
0.5
140
3.5
141
0.09
142
0.0
143
25.4
144
1.0
145
0.0
146
1.0
147
0.09
 71
0.0
 72
0.0
 73
0
 74
0
 75
0
 76
0
 77
1
 78
8
170
0
171
2
172
0
173
0
174
0
175
0
176
0
177
0
178
5
270
2
271
3
272
3
273
2
274
2
275
0
280
0
281
0
282
0
283
1
284
8
285
0
286
0
287
3
288
0
340
11
341
219
342
219
343
219
344
219
  0
DIMSTYLE
105
222
100
AcDbSymbolTableRecord
100
AcDbDimStyleTableRecord
  2
DIMSTYLE_2
 70
0
  3

  4

 40
1.0
 41
3.5
 42
0.0625
 43
0.38
 44
0.18
 45
0.0
 46
0.0
 47
0.5
 48
0.5
140
3.5
141
0.09
142
0.0
143
25.4
144
1.0
145
0.0
146
1.0
147
0.09
 71
0.0
 72
0.0
 73
0
 74
0
 75
0
 76
0
 77
1
 78
8
170
0
171
2
172
0
173
0
174
0
175
0
176
0
177
0
178
5
270
2
271
2
272
2
273
2
274
2
275
0
280
0
281
0
282
0
283
1
284
8
285
0
286
0
287
3
288
0
340
11
341
219
342
219
343
219
344
219
  0
DIMSTYLE
105
223
100
AcDbSymbolTableRecord
100
AcDbDimStyleTableRecord
  2
DIMSTYLE_3
 70
0
  3

  4

 40
1.0
 41
3.5
 42
0.0625
 43
0.38
 44
0.18
 45
0.0
 46
0.0
 47
0.3
 48
0.3
140
3.5
141
0.09
142
0.0
143
25.4
144
1.0
145
0.0
146
1.0
147
0.09
 71
0.0
 72
0.0
 73
0
 74
0
 75
0
 76
0
 77
1
 78
8
170
0
171
2
172
0
173
0
174
0
175
0
176
0
177
0
178
5
270
2
271
2
272
2
273
2
274
2
275
0
280
0
281
0
282
0
283
1
284
8
285
0
286
0
287
3
288
0
340
11
341
219
342
219
343
219
344
219
  0
DIMSTYLE
105
224
100
AcDbSymbolTableRecord
100
AcDbDimStyleTableRecord
  2
DIMSTYLE_4
 70
0
  3

  4

 40
1.0
 41
3.5
 42
0.0625
 43
0.38
 44
0.18
 45
0.0
 46
0.0
 47
0.1
 48
0.0
140
3.5
141
0.09
142
0.0
143
25.4
144
1.0
145
0.0
146
1.0
147
0.09
 71
0.0
 72
0.0
 73
0
 74
0
 75
0
 76
0
 77
1
 78
8
170
0
171
2
172
0
173
0
174
0
175
0
176
0
177
0
178
5
270
2
271
2
272
2
273
2
274
2
275
0
280
0
281
0
282
0
283
1
284
8
285
0
286
0
287
3
288
0
340
11
341
219
342
219
343
219
344
219
  0
DIMSTYLE
105
225
100
AcDbSymbolTableRecord
100
AcDbDimStyleTableRecord
  2
DIMSTYLE_5
 70
0
  3

  4

 40
1.0
 41
3.5
 42
0.0625
 43
0.38
 44
0.18
 45
0.0
 46
0.0
 47
0.0
 48
0.0
140
3.5
141
0.09
142
0.0
143
25.4
144
1.0
145
0.0
146
1.0
147
0.09
 71
0.0
 72
0.0
 73
0
 74
0
 75
0
 76
0
 77
1
 78
8
170
0
171
2
172
0
173
0
174
0
175
0
176
0
177
0
178
5
270
2
271
0
272
0
273
2
274
2
275
0
280
0
281
0
282
0
283
1
284
8
285
0
286
0
287
3
288
0
340
11
341
219
342
219
343
219
344
219
  0
DIMSTYLE
105
226
100
AcDbSymbolTableRecord
100
AcDbDimStyleTableRecord
  2
DIMSTYLE_6
 70
0
  3

  4

 40
1.0
 41
3.5
 42
0.0625
 43
0.38
 44
0.18
 45
0.0
 46
0.0
 47
0.1
 48
0.1
140
3.5
141
0.09
142
0.0
143
25.4
144
1.0
145
0.0
146
1.0
147
0.09
 71
0.0
 72
0.0
 73
0
 74
0
 75
0
 76
0
 77
1
 78
8
170
0
171
2
172
0
173
0
174
0
175
0
176
0
177
0
178
5
270
2
271
2
272
2
273
2
274
2
275
0
280
0
281
0
282
0
283
1
284
8
285
0
286
0
287
3
288
0
340
11
341
219
342
219
343
219
344
219
  0
ENDTAB
  0
ENDSEC
  0
SECTION
  2
BLOCKS
  0
BLOCK
  5
20
100
AcDbEntity
  8
0
100
AcDbBlockBegin
  2
*Model_Space
 70
0
 10
0.0
 20
0.0
 30
0.0
  3
*Model_Space
  1

  0
ENDBLK
  5
21
100
AcDbEntity
  8
0
100
AcDbBlockEnd
  0
BLOCK
  5
1C
100
AcDbEntity
  8
0
100
AcDbBlockBegin
  2
*Paper_Space
 70
0
 10
0.0
 20
0.0
 30
0.0
  3
*Paper_Space
  1

  0
ENDBLK
  5
1D
100
AcDbEntity
  8
0
100
AcDbBlockEnd
  0
BLOCK
  5
227
100
AcDbEntity
  8
0
100
AcDbBlockBegin
  2
_FILLED
 70
64
 10
0.0
 20
0.0
  3
_FILLED
  1

  0
SOLID
  5
228
100
AcDbEntity
  8
0
  6
BYBLOCK
 62
0
100
AcDbTrace
 10
0.0
 20
0.0
 11
-1.0
 21
0.125
 12
-1.0
 22
-0.125
 13
-1.0
 23
-0.125
  0
ENDBLK
  5
229
100
AcDbEntity
  8
0
  6
BYBLOCK
 62
0
100
AcDbBlockEnd
  0
BLOCK
  5
22A
100
AcDbEntity
  8
0
100
AcDbBlockBegin
 62
2
  6
CONTINUOUS
  2
*D0
 70
65
 10
0.0
 20
0.0
  3
*D0
  1

  0
MTEXT
  5
22B
100
AcDbEntity
  8
0
100
AcDbMText
 62
5
  6
CONTINUOUS
  7
STANDARD
 71
2
 72
1
 10
191.1496491539
 20
161.5275885483
 30
0.0
 11
1.0
 21
0.0
 31
0.0
 44
0.9
  1
130
 40
3.5
 41
8.490234375
  0
LINE
  5
22C
100
AcDbEntity
  8
0
100
AcDbLine
 62
2
  6
CONTINUOUS
 10
246.6037606934
 20
108.6061497996
 11
246.6037606934
 21
158.6525885483
  0
LINE
  5
22D
100
AcDbEntity
  8
0
100
AcDbLine
 62
2
  6
CONTINUOUS
 10
116.6037606934
 20
135.9022449539
 11
116.6037606934
 21
158.6525885483
  0
LINE
  5
22E
100
AcDbEntity
  8
0
100
AcDbLine
 62
2
  6
CONTINUOUS
 10
246.6037606934
 20
157.1525885483
 11
181.6037606934
 21
157.1525885483
  0
LINE
  5
22F
100
AcDbEntity
  8
0
100
AcDbLine
 62
2
  6
CONTINUOUS
 10
116.6037606934
 20
157.1525885483
 11
181.6037606934
 21
157.1525885483
  0
INSERT
  5
230
100
AcDbEntity
  8
0
100
AcDbBlockReference
 62
2
  6
CONTINUOUS
  2
_FILLED
 10
246.6037606934
 20
157.1525885483
 41
3.5
 42
3.5
 43
3.5
  0
INSERT
  5
231
100
AcDbEntity
  8
0
100
AcDbBlockReference
 62
2
  6
CONTINUOUS
  2
_FILLED
 10
116.6037606934
 20
157.1525885483
 41
3.5
 42
3.5
 43
3.5
 50
180.0
  0
ENDBLK
  5
232
100
AcDbEntity
  8
0
  6
BYBLOCK
 62
0
100
AcDbBlockEnd
  0
BLOCK
  5
233
100
AcDbEntity
  8
0
100
AcDbBlockBegin
 62
2
  6
CONTINUOUS
  2
*D1
 70
65
 10
0.0
 20
0.0
  3
*D1
  1

  0
MTEXT
  5
234
100
AcDbEntity
  8
0
100
AcDbMText
 62
5
  6
CONTINUOUS
  7
STANDARD
 71
2
 72
1
 10
162.9501207977
 20
168.2071699201
 30
0.0
 11
1.0
 21
0.0
 31
0.0
 44
0.9
  1
198.4
 40
3.5
 41
12.7421875
  0
LINE
  5
235
100
AcDbEntity
  8
0
100
AcDbLine
 62
2
  6
CONTINUOUS
 10
48.2037606934
 20
120.1388129298
 11
48.2037606934
 21
165.3321699201
  0
LINE
  5
236
100
AcDbEntity
  8
0
100
AcDbLine
 62
2
  6
CONTINUOUS
 10
246.6037606934
 20
111.1061497996
 11
246.6037606934
 21
165.3321699201
  0
LINE
  5
237
100
AcDbEntity
  8
0
100
AcDbLine
 62
2
  6
CONTINUOUS
 10
48.2037606934
 20
163.8321699201
 11
147.4037606934
 21
163.8321699201
  0
LINE
  5
238
100
AcDbEntity
  8
0
100
AcDbLine
 62
2
  6
CONTINUOUS
 10
246.6037606934
 20
163.8321699201
 11
147.4037606934
 21
163.8321699201
  0
INSERT
  5
239
100
AcDbEntity
  8
0
100
AcDbBlockReference
 62
2
  6
CONTINUOUS
  2
_FILLED
 10
48.2037606934
 20
163.8321699201
 41
3.5
 42
3.5
 43
3.5
 50
180.0
  0
INSERT
  5
23A
100
AcDbEntity
  8
0
100
AcDbBlockReference
 62
2
  6
CONTINUOUS
  2
_FILLED
 10
246.6037606934
 20
163.8321699201
 41
3.5
 42
3.5
 43
3.5
  0
ENDBLK
  5
23B
100
AcDbEntity
  8
0
  6
BYBLOCK
 62
0
100
AcDbBlockEnd
  0
BLOCK
  5
23C
100
AcDbEntity
  8
0
100
AcDbBlockBegin
 62
2
  6
CONTINUOUS
  2
*D2
 70
65
 10
0.0
 20
0.0
  3
*D2
  1

  0
MTEXT
  5
23D
100
AcDbEntity
  8
0
100
AcDbMText
 62
5
  6
CONTINUOUS
  7
STANDARD
 71
2
 72
1
 10
198.7026186709
 20
154.1027913778
 30
0.0
 11
1.0
 21
0.0
 31
0.0
 44
0.9
  1
110.9
 40
3.5
 41
12.7421875
  0
LINE
  5
23E
100
AcDbEntity
  8
0
100
AcDbLine
 62
2
  6
CONTINUOUS
 10
246.6037606934
 20
111.1061497996
 11
246.6037606934
 21
151.2277913778
  0
LINE
  5
23F
100
AcDbEntity
  8
0
100
AcDbLine
 62
2
  6
CONTINUOUS
 10
135.7037606934
 20
141.1694539008
 11
135.7037606934
 21
151.2277913778
  0
LINE
  5
240
100
AcDbEntity
  8
0
100
AcDbLine
 62
2
  6
CONTINUOUS
 10
246.6037606934
 20
149.7277913778
 11
191.1537606934
 21
149.7277913778
  0
LINE
  5
241
100
AcDbEntity
  8
0
100
AcDbLine
 62
2
  6
CONTINUOUS
 10
135.7037606934
 20
149.7277913778
 11
191.1537606934
 21
149.7277913778
  0
INSERT
  5
242
100
AcDbEntity
  8
0
100
AcDbBlockReference
 62
2
  6
CONTINUOUS
  2
_FILLED
 10
246.6037606934
 20
149.7277913778
 41
3.5
 42
3.5
 43
3.5
  0
INSERT
  5
243
100
AcDbEntity
  8
0
100
AcDbBlockReference
 62
2
  6
CONTINUOUS
  2
_FILLED
 10
135.7037606934
 20
149.7277913778
 41
3.5
 42
3.5
 43
3.5
 50
180.0
  0
ENDBLK
  5
244
100
AcDbEntity
  8
0
  6
BYBLOCK
 62
0
100
AcDbBlockEnd
  0
BLOCK
  5
245
100
AcDbEntity
  8
0
100
AcDbBlockBegin
 62
2
  6
CONTINUOUS
  2
*D3
 70
65
 10
0.0
 20
0.0
  3
*D3
  1

  0
MTEXT
  5
246
100
AcDbEntity
  8
0
100
AcDbMText
 62
5
  6
CONTINUOUS
  7
TEXTSTYLE_2
 71
1
 72
1
 10
261.1100673798
 20
117.8729300941
 30
0.0
 11
0.0
 21
1.0
 31
0.0
 44
0.9
  1
{\Fgdt;n}\Ftxt;9
 40
3.5
 41
7.4967447917
  0
LINE
  5
247
100
AcDbEntity
  8
0
100
AcDbLine
 62
2
  6
CONTINUOUS
 10
246.6037606934
 20
106.6061497996
 11
266.9850673798
 21
106.6061497996
  0
LINE
  5
248
100
AcDbEntity
  8
0
100
AcDbLine
 62
2
  6
CONTINUOUS
 10
246.6037606934
 20
115.6061497996
 11
266.9850673798
 21
115.6061497996
  0
LINE
  5
249
100
AcDbEntity
  8
0
100
AcDbLine
 62
2
  6
CONTINUOUS
 10
265.4850673798
 20
106.6061497996
 11
265.4850673798
 21
111.1061497996
  0
LINE
  5
24A
100
AcDbEntity
  8
0
100
AcDbLine
 62
2
  6
CONTINUOUS
 10
265.4850673798
 20
115.6061497996
 11
265.4850673798
 21
111.1061497996
  0
LINE
  5
24B
100
AcDbEntity
  8
0
100
AcDbLine
 62
2
  6
CONTINUOUS
 10
265.4850673798
 20
111.1061497996
 11
265.4850673798
 21
125.3696748858
  0
INSERT
  5
24C
100
AcDbEntity
  8
0
100
AcDbBlockReference
 62
2
  6
CONTINUOUS
  2
_FILLED
 10
265.4850673798
 20
106.6061497996
 41
3.5
 42
3.5
 43
3.5
 50
270.0
  0
INSERT
  5
24D
100
AcDbEntity
  8
0
100
AcDbBlockReference
 62
2
  6
CONTINUOUS
  2
_FILLED
 10
265.4850673798
 20
115.6061497996
 41
3.5
 42
3.5
 43
3.5
 50
90.0
  0
ENDBLK
  5
24E
100
AcDbEntity
  8
0
  6
BYBLOCK
 62
0
100
AcDbBlockEnd
  0
BLOCK
  5
24F
100
AcDbEntity
  8
0
100
AcDbBlockBegin
 62
2
  6
CONTINUOUS
  2
*D4
 70
65
 10
0.0
 20
0.0
  3
*D4
  1

  0
MTEXT
  5
250
100
AcDbEntity
  8
0
100
AcDbMText
 62
5
  6
CONTINUOUS
  7
STANDARD
 71
2
 72
1
 10
214.1455572332
 20
129.290331515
 30
0.0
 11
0.1518988273
 21
0.9883960473
 31
0.0
 44
0.9
  1
3\Fgdt;{\Fgdt;~}
 40
3.5
 41
5.1634114583
  0
LINE
  5
251
100
AcDbEntity
  8
0
100
AcDbLine
 62
2
  6
CONTINUOUS
 10
236.8828511026
 20
116.1156010839
 11
218.4129437521
 21
117.0835679117
  0
LINE
  5
252
100
AcDbEntity
  8
0
100
AcDbLine
 62
2
  6
CONTINUOUS
 10
236.5972526659
 20
111.1061497996
 11
218.2564195502
 21
111.1061497996
  0
ARC
  5
253
100
AcDbEntity
  8
0
100
AcDbCircle
 62
2
  6
CONTINUOUS
 10
332.4688757882
 20
111.1061497996
 40
112.7124562379
100
AcDbArc
 50
171.2630175566
 51
177.0
  0
ARC
  5
254
100
AcDbEntity
  8
0
100
AcDbCircle
 62
2
  6
CONTINUOUS
 10
332.4688757882
 20
111.1061497996
 40
112.7124562379
100
AcDbArc
 50
180.0
 51
183.0500149544
  0
ARC
  5
255
100
AcDbEntity
  8
0
100
AcDbCircle
 62
2
  6
CONTINUOUS
 10
332.4688757882
 20
111.1061497996
 40
112.7124562379
100
AcDbArc
 50
177.0
 51
180.0
  0
SOLID
  5
256
100
AcDbEntity
  8
0
100
AcDbTrace
 62
2
  6
CONTINUOUS
 10
219.7118147166
 20
120.5266795237
 11
219.9108880542
 21
117.0050639773
 12
220.5847992614
 22
120.46732479
 13
220.5847992614
 23
120.46732479
  0
SOLID
  5
257
100
AcDbEntity
  8
0
100
AcDbTrace
 62
2
  6
CONTINUOUS
 10
220.2482064552
 20
107.6133641076
 11
219.7564195502
 21
111.1061497996
 12
219.3733119185
 22
107.5997791985
 13
219.3733119185
 23
107.5997791985
  0
ENDBLK
  5
258
100
AcDbEntity
  8
0
  6
BYBLOCK
 62
0
100
AcDbBlockEnd
  0
BLOCK
  5
259
100
AcDbEntity
  8
0
100
AcDbBlockBegin
 62
2
  6
CONTINUOUS
  2
*D5
 70
65
 10
0.0
 20
0.0
  3
*D5
  1

  0
MTEXT
  5
25A
100
AcDbEntity
  8
0
100
AcDbMText
 62
5
  6
CONTINUOUS
  7
TEXTSTYLE_2
 71
1
 72
1
 10
251.8163466528
 20
118.5351050318
 30
0.0
 11
0.0
 21
1.0
 31
0.0
 44
0.9
  1
{\Fgdt;n}\Ftxt;3
 40
3.5
 41
7.4967447917
  0
LINE
  5
25B
100
AcDbEntity
  8
0
100
AcDbLine
 62
2
  6
CONTINUOUS
 10
246.6037606934
 20
109.6061497996
 11
257.6913466528
 21
109.6061497996
  0
LINE
  5
25C
100
AcDbEntity
  8
0
100
AcDbLine
 62
2
  6
CONTINUOUS
 10
246.6037606934
 20
112.6061497996
 11
257.6913466528
 21
112.6061497996
  0
LINE
  5
25D
100
AcDbEntity
  8
0
100
AcDbLine
 62
2
  6
CONTINUOUS
 10
256.1913466528
 20
109.6061497996
 11
256.1913466528
 21
103.6061497996
  0
LINE
  5
25E
100
AcDbEntity
  8
0
100
AcDbLine
 62
2
  6
CONTINUOUS
 10
256.1913466528
 20
103.6061497996
 11
256.1913466528
 21
111.1061497996
  0
LINE
  5
25F
100
AcDbEntity
  8
0
100
AcDbLine
 62
2
  6
CONTINUOUS
 10
256.1913466528
 20
112.6061497996
 11
256.1913466528
 21
126.0318498235
  0
LINE
  5
260
100
AcDbEntity
  8
0
100
AcDbLine
 62
2
  6
CONTINUOUS
 10
256.1913466528
 20
126.0318498235
 11
256.1913466528
 21
111.1061497996
  0
INSERT
  5
261
100
AcDbEntity
  8
0
100
AcDbBlockReference
 62
2
  6
CONTINUOUS
  2
_FILLED
 10
256.1913466528
 20
109.6061497996
 41
3.5
 42
3.5
 43
3.5
 50
90.0
  0
INSERT
  5
262
100
AcDbEntity
  8
0
100
AcDbBlockReference
 62
2
  6
CONTINUOUS
  2
_FILLED
 10
256.1913466528
 20
112.6061497996
 41
3.5
 42
3.5
 43
3.5
 50
270.0
  0
ENDBLK
  5
263
100
AcDbEntity
  8
0
  6
BYBLOCK
 62
0
100
AcDbBlockEnd
  0
ENDSEC
  0
SECTION
  2
ENTITIES
  0
DIMENSION
  5
264
100
AcDbEntity
  8
0
100
AcDbDimension
 62
2
  6
CONTINUOUS
  2
*D0
 10
116.6037606934
 20
157.1525885483
 11
186.9045319664
 21
159.7775885483
 70
160
 71
2
 42
130.0
  3
DIMSTYLE_1
100
AcDbAlignedDimension
 13
246.6037606934
 23
108.6061497996
 14
116.6037606934
 24
135.9022449539
 50
180.0
100
AcDbRotatedDimension
  0
DIMENSION
  5
265
100
AcDbEntity
  8
0
100
AcDbDimension
 62
2
  6
CONTINUOUS
  2
*D1
 10
246.6037606934
 20
163.8321699201
 11
156.5790270477
 21
166.4571699201
 70
160
 71
2
 42
198.4
  3
DIMSTYLE_2
100
AcDbAlignedDimension
 13
48.2037606934
 23
120.1388129298
 14
246.6037606934
 24
111.1061497996
100
AcDbRotatedDimension
  0
DIMENSION
  5
266
100
AcDbEntity
  8
0
100
AcDbDimension
 62
2
  6
CONTINUOUS
  2
*D2
 10
135.7037606934
 20
149.7277913778
 11
192.3315249209
 21
152.3527913778
 70
160
 71
2
 42
110.9
  3
DIMSTYLE_3
100
AcDbAlignedDimension
 13
246.6037606934
 23
111.1061497996
 14
135.7037606934
 24
141.1694539008
 50
180.0
100
AcDbRotatedDimension
  0
DIMENSION
  5
267
100
AcDbEntity
  8
0
100
AcDbDimension
 62
2
  6
CONTINUOUS
  2
*D3
 10
265.4850673798
 20
115.6061497996
 11
262.8600673798
 21
121.62130249
 70
160
 71
1
 42
9.0
  1
%%c<>
  3
DIMSTYLE_4
100
AcDbAlignedDimension
 13
246.6037606934
 23
106.6061497996
 14
246.6037606934
 24
115.6061497996
 50
90.0
100
AcDbRotatedDimension
  0
DIMENSION
  5
268
100
AcDbEntity
  8
0
100
AcDbDimension
 62
2
  6
CONTINUOUS
  2
*D4
 10
218.2564195502
 20
111.1061497996
 11
214.6957416856
 21
129.5489706812
 70
162
 71
2
 42
0.0523598776
  3
DIMSTYLE_5
100
AcDb2LineAngularDimension
 13
218.4129437521
 23
117.0835679117
 14
236.8828511026
 24
116.1156010839
 15
236.5972526659
 25
111.1061497996
 16
219.7950432939
 26
114.0566179402
  0
DIMENSION
  5
269
100
AcDbEntity
  8
0
100
AcDbDimension
 62
2
  6
CONTINUOUS
  2
*D5
 10
256.1913466528
 20
112.6061497996
 11
253.5663466528
 21
122.2834774276
 70
160
 71
1
 42
3.0
  1
%%c<>
  3
DIMSTYLE_6
100
AcDbAlignedDimension
 13
246.6037606934
 23
109.6061497996
 14
246.6037606934
 24
112.6061497996
 50
90.0
100
AcDbRotatedDimension
  0
MTEXT
  5
26A
100
AcDbEntity
  8
0
100
AcDbMText
 62
5
  6
CONTINUOUS
  7
STANDARD
 71
1
 72
1
 10
10.0475569658
 20
82.9442980795
 30
0.0
 11
1.0
 21
0.0
 31
0.0
 44
0.9
  3
Für diese Unterlage behalten wir das Ur-\Pheberrecht. Sie darf nur für den von uns \Pbestimmten Zweck benutzt und ohne unsere \PZustimmung weder vervielfältigt noch\PDritten zugänglich gemacht werden\P \PWe own the copyright of this document. It \Pde
  1
termined and may neither be copied or \Pmade accessible to outsiders without our\Ppermission.\P \PCe plan reste notre propriété. Il ne peut\Pêtre utilisé, copié ou reproduit sans notre\Paccord.\P 
 40
3.5
 41
99.162109375
  0
LINE
  5
26B
100
AcDbEntity
  8
0
100
AcDbLine
 62
7
  6
CONTINUOUS
 10
0.0
 20
0.0
 11
0.0
 21
210.0
  0
LINE
  5
26C
100
AcDbEntity
  8
0
100
AcDbLine
 62
7
  6
CONTINUOUS
 10
0.0
 20
0.0
 11
297.0
 21
0.0
  0
LINE
  5
26D
100
AcDbEntity
  8
0
100
AcDbLine
 62
7
  6
CONTINUOUS
 10
0.0
 20
210.0
 11
297.0
 21
210.0
  0
LINE
  5
26E
100
AcDbEntity
  8
0
100
AcDbLine
 62
7
  6
CONTINUOUS
 10
297.0
 20
0.0
 11
297.0
 21
210.0
  0
LINE
  5
26F
100
AcDbEntity
  8
BEZUGSACHSEN
100
AcDbLine
 62
7
  6
CONTINUOUS
 10
48.2037606934
 20
121.6258504741
 11
48.2037606934
 21
100.5864491251
  0
LINE
  5
270
100
AcDbEntity
  8
BEZUGSACHSEN
100
AcDbLine
 62
9
  6
CONTINUOUS
 10
49.915123355
 20
123.6049130014
 11
49.915123355
 21
98.6073865979
  0
LINE
  5
271
100
AcDbEntity
  8
BEZUGSACHSEN
100
AcDbLine
 62
7
  6
CONTINUOUS
 10
116.1464554309
 20
133.2644538908
 11
116.1464554309
 21
88.9478457084
  0
LINE
  5
272
100
AcDbEntity
  8
BEZUGSACHSEN
100
AcDbLine
 62
7
  6
CENTER
 10
116.6037606934
 20
81.7383006161
 11
116.6037606934
 21
137.2001002662
  0
LINE
  5
273
100
AcDbEntity
  8
BEZUGSACHSEN
100
AcDbLine
 62
7
  6
CONTINUOUS
 10
117.2037606934
 20
132.9811497996
 11
117.2037606934
 21
89.2311497996
  0
LINE
  5
274
100
AcDbEntity
  8
BEZUGSACHSEN
100
AcDbLine
 62
9
  6
CONTINUOUS
 10
118.8537606934
 20
132.9811497996
 11
118.8537606934
 21
89.2311497996
  0
LINE
  5
275
100
AcDbEntity
  8
BEZUGSACHSEN
100
AcDbLine
 62
7
  6
CONTINUOUS
 10
119.8537606934
 20
141.8632639504
 11
119.8537606934
 21
119.3061497996
  0
LINE
  5
276
100
AcDbEntity
  8
BEZUGSACHSEN
100
AcDbLine
 62
7
  6
CONTINUOUS
 10
119.8537606934
 20
102.9061497996
 11
119.8537606934
 21
92.6061497996
  0
LINE
  5
277
100
AcDbEntity
  8
BEZUGSACHSEN
100
AcDbLine
 62
7
  6
CONTINUOUS
 10
119.8537606934
 20
86.5124387132
 11
119.8537606934
 21
80.3331815835
  0
LINE
  5
278
100
AcDbEntity
  8
0
100
AcDbLine
 62
7
  6
CONTINUOUS
 10
119.8537606934
 20
80.3311523043
 11
119.8537606934
 21
86.5124387132
  0
LINE
  5
279
100
AcDbEntity
  8
FASEN
100
AcDbLine
 62
7
  6
CONTINUOUS
 10
119.8537606934
 20
86.5124387132
 11
119.8537606934
 21
92.6061497996
  0
LINE
  5
27A
100
AcDbEntity
  8
0
100
AcDbLine
 62
7
  6
CONTINUOUS
 10
119.8537606934
 20
92.6061497996
 11
119.8537606934
 21
102.9061497996
  0
LINE
  5
27B
100
AcDbEntity
  8
FASEN
100
AcDbLine
 62
7
  6
CONTINUOUS
 10
119.8537606934
 20
102.9061497996
 11
119.8537606934
 21
119.3061497996
  0
LINE
  5
27C
100
AcDbEntity
  8
0
100
AcDbLine
 62
7
  6
CONTINUOUS
 10
119.8537606934
 20
119.3061497996
 11
119.8537606934
 21
141.881149358
  0
LINE
  5
27D
100
AcDbEntity
  8
0
100
AcDbLine
 62
9
  6
CONTINUOUS
 10
120.8537606934
 20
142.8811497996
 11
120.8537606934
 21
119.3061497996
  0
LINE
  5
27E
100
AcDbEntity
  8
0
100
AcDbLine
 62
9
  6
CONTINUOUS
 10
120.8537606934
 20
102.9061497996
 11
120.8537606934
 21
92.6061497996
  0
LINE
  5
27F
100
AcDbEntity
  8
0
100
AcDbLine
 62
9
  6
CONTINUOUS
 10
120.8537606934
 20
85.2720516927
 11
120.8537606934
 21
79.3311497996
  0
LINE
  5
280
100
AcDbEntity
  8
BEZUGSACHSEN
100
AcDbLine
 62
7
  6
CONTINUOUS
 10
129.6537606934
 20
140.0037450638
 11
131.3150310922
 21
142.8811497996
  0
LINE
  5
281
100
AcDbEntity
  8
BEZUGSACHSEN
100
AcDbLine
 62
7
  6
CONTINUOUS
 10
120.8537606934
 20
79.3311497996
 11
124.2424902946
 21
79.3311497996
  0
LINE
  5
282
100
AcDbEntity
  8
BEZUGSACHSEN
100
AcDbLine
 62
7
  6
CONTINUOUS
 10
131.3150310922
 20
79.3311497996
 11
134.7037606934
 21
79.3311497996
  0
LINE
  5
283
100
AcDbEntity
  8
BEZUGSACHSEN
100
AcDbLine
 62
7
  6
CONTINUOUS
 10
129.6537606934
 20
82.2085545354
 11
131.3150310922
 21
79.3311497996
  0
LINE
  5
284
100
AcDbEntity
  8
0
100
AcDbLine
 62
7
  6
CONTINUOUS
 10
124.2424902946
 20
79.3311497996
 11
124.2424902946
 21
85.2720516927
  0
LINE
  5
285
100
AcDbEntity
  8
0
100
AcDbLine
 62
7
  6
CONTINUOUS
 10
124.2424902946
 20
92.6061497996
 11
124.2424902946
 21
102.9061497996
  0
LINE
  5
286
100
AcDbEntity
  8
0
100
AcDbLine
 62
7
  6
CONTINUOUS
 10
124.2424902946
 20
119.3061497996
 11
124.2424902946
 21
142.8811497996
  0
LINE
  5
287
100
AcDbEntity
  8
0
100
AcDbLine
 62
7
  6
CONTINUOUS
 10
125.9037606934
 20
140.0037446017
 11
125.9037606934
 21
138.4911661728
  0
LINE
  5
288
100
AcDbEntity
  8
BEZUGSACHSEN
100
AcDbLine
 62
7
  6
CONTINUOUS
 10
125.9037606934
 20
138.4911661728
 11
125.9037606934
 21
138.2349353839
  0
LINE
  5
289
100
AcDbEntity
  8
0
100
AcDbLine
 62
7
  6
CONTINUOUS
 10
125.9037606934
 20
138.0150942815
 11
125.9037606934
 21
119.3061497996
  0
LINE
  5
28A
100
AcDbEntity
  8
0
100
AcDbLine
 62
7
  6
CONTINUOUS
 10
125.9037606934
 20
102.9061497996
 11
125.9037606934
 21
92.6061497996
  0
LINE
  5
28B
100
AcDbEntity
  8
0
100
AcDbLine
 62
7
  6
CONTINUOUS
 10
125.9037606934
 20
82.208560576
 11
125.9037606934
 21
89.2626009808
  0
LINE
  5
28C
100
AcDbEntity
  8
0
100
AcDbLine
 62
9
  6
CONTINUOUS
 10
126.4037606934
 20
82.9811497996
 11
126.4037606934
 21
89.9220608412
  0
LINE
  5
28D
100
AcDbEntity
  8
0
100
AcDbLine
 62
9
  6
CONTINUOUS
 10
126.4037606934
 20
92.6061497996
 11
126.4037606934
 21
102.9061497996
  0
LINE
  5
28E
100
AcDbEntity
  8
0
100
AcDbLine
 62
9
  6
CONTINUOUS
 10
126.4037606934
 20
119.3061497996
 11
126.4037606934
 21
137.0030033926
  0
LINE
  5
28F
100
AcDbEntity
  8
0
100
AcDbLine
 62
9
  6
CONTINUOUS
 10
126.4037606934
 20
137.9964821319
 11
126.4037606934
 21
139.2311497996
  0
LINE
  5
290
100
AcDbEntity
  8
BEZUGSACHSEN
100
AcDbLine
 62
7
  6
CONTINUOUS
 10
158.1449836461
 20
88.6061497996
 11
166.5039590332
 21
90.2197246282
  0
LINE
  5
291
100
AcDbEntity
  8
BEZUGSACHSEN
100
AcDbLine
 62
7
  6
CONTINUOUS
 10
167.6819472909
 20
90.4471175936
 11
175.9178226902
 21
92.0369298158
  0
LINE
  5
292
100
AcDbEntity
  8
BEZUGSACHSEN
100
AcDbLine
 62
7
  6
CONTINUOUS
 10
126.4037606934
 20
82.9811497996
 11
129.1537606934
 21
82.9811497996
  0
LINE
  5
293
100
AcDbEntity
  8
0
100
AcDbLine
 62
7
  6
CONTINUOUS
 10
120.8537606934
 20
85.2720516927
 11
124.2424902946
 21
85.2720516927
  0
LINE
  5
294
100
AcDbEntity
  8
0
100
AcDbLine
 62
7
  6
CONTINUOUS
 10
131.3150310922
 20
85.2720516927
 11
134.7037606934
 21
85.2720516927
  0
LINE
  5
295
100
AcDbEntity
  8
BEZUGSACHSEN
100
AcDbLine
 62
7
  6
CONTINUOUS
 10
136.7037606934
 20
88.6061497996
 11
158.1449836461
 21
88.6061497996
  0
LINE
  5
296
100
AcDbEntity
  8
BEZUGSACHSEN
100
AcDbLine
 62
7
  6
CONTINUOUS
 10
117.2037606934
 20
89.2311497996
 11
118.8537606934
 21
89.2311497996
  0
LINE
  5
297
100
AcDbEntity
  8
BEZUGSACHSEN
100
AcDbLine
 62
7
  6
CONTINUOUS
 10
49.915123355
 20
98.6073865979
 11
116.1464554309
 21
88.9478457084
  0
LINE
  5
298
100
AcDbEntity
  8
0
100
AcDbLine
 62
9
  6
CONTINUOUS
 10
129.1537606934
 20
82.9811497996
 11
129.1537606934
 21
89.9220608412
  0
LINE
  5
299
100
AcDbEntity
  8
0
100
AcDbLine
 62
9
  6
CONTINUOUS
 10
129.1537606934
 20
92.6061497996
 11
129.1537606934
 21
102.9061497996
  0
LINE
  5
29A
100
AcDbEntity
  8
0
100
AcDbLine
 62
9
  6
CONTINUOUS
 10
129.1537606934
 20
119.3061497996
 11
129.1537606934
 21
137.0030033926
  0
LINE
  5
29B
100
AcDbEntity
  8
0
100
AcDbLine
 62
9
  6
CONTINUOUS
 10
129.1537606934
 20
137.9964821319
 11
129.1537606934
 21
139.2311497996
  0
LINE
  5
29C
100
AcDbEntity
  8
BEZUGSACHSEN
100
AcDbLine
 62
7
  6
CONTINUOUS
 10
129.6537606934
 20
138.4911661728
 11
129.6537606934
 21
138.2349353839
  0
LINE
  5
29D
100
AcDbEntity
  8
0
100
AcDbLine
 62
7
  6
CONTINUOUS
 10
129.6537606934
 20
138.0150942815
 11
129.6537606934
 21
119.3061497996
  0
LINE
  5
29E
100
AcDbEntity
  8
0
100
AcDbLine
 62
7
  6
CONTINUOUS
 10
129.6537606934
 20
82.208560576
 11
129.6537606934
 21
89.2626009808
  0
LINE
  5
29F
100
AcDbEntity
  8
0
100
AcDbLine
 62
7
  6
CONTINUOUS
 10
129.6537606934
 20
92.6061497996
 11
129.6537606934
 21
102.9061497996
  0
LINE
  5
2A0
100
AcDbEntity
  8
0
100
AcDbLine
 62
7
  6
CONTINUOUS
 10
129.6537606934
 20
138.4911661728
 11
129.6537606934
 21
140.0037446017
  0
LINE
  5
2A1
100
AcDbEntity
  8
0
100
AcDbLine
 62
7
  6
CONTINUOUS
 10
131.3150310922
 20
142.8811497996
 11
131.3150310922
 21
119.3061497996
  0
LINE
  5
2A2
100
AcDbEntity
  8
0
100
AcDbLine
 62
7
  6
CONTINUOUS
 10
131.3150310922
 20
102.9061497996
 11
131.3150310922
 21
92.6061497996
  0
LINE
  5
2A3
100
AcDbEntity
  8
0
100
AcDbLine
 62
7
  6
CONTINUOUS
 10
131.3150310922
 20
85.2720516927
 11
131.3150310922
 21
79.3311497996
  0
LINE
  5
2A4
100
AcDbEntity
  8
0
100
AcDbLine
 62
9
  6
CONTINUOUS
 10
134.7037606934
 20
79.3311497996
 11
134.7037606934
 21
85.2720516927
  0
LINE
  5
2A5
100
AcDbEntity
  8
0
100
AcDbLine
 62
9
  6
CONTINUOUS
 10
134.7037606934
 20
92.6061497996
 11
134.7037606934
 21
102.9061497996
  0
LINE
  5
2A6
100
AcDbEntity
  8
0
100
AcDbLine
 62
9
  6
CONTINUOUS
 10
134.7037606934
 20
119.3061497996
 11
134.7037606934
 21
142.8811497996
  0
LINE
  5
2A7
100
AcDbEntity
  8
0
100
AcDbLine
 62
7
  6
CONTINUOUS
 10
126.4037606934
 20
89.9220608412
 11
129.1537606934
 21
89.9220608412
  0
LINE
  5
2A8
100
AcDbEntity
  8
FASEN
100
AcDbLine
 62
7
  6
CONTINUOUS
 10
119.8537606934
 20
92.2061497996
 11
135.7037606934
 21
92.2061497996
  0
LINE
  5
2A9
100
AcDbEntity
  8
0
100
AcDbLine
 62
7
  6
CONTINUOUS
 10
119.8537606934
 20
92.6061497996
 11
135.7037606934
 21
92.6061497996
  0
LINE
  5
2AA
100
AcDbEntity
  8
BEZUGSACHSEN
100
AcDbLine
 62
7
  6
CONTINUOUS
 10
177.3156409087
 20
93.1061497996
 11
178.6037606934
 21
93.1061497996
  0
LINE
  5
2AB
100
AcDbEntity
  8
BEZUGSACHSEN
100
AcDbLine
 62
7
  6
CONTINUOUS
 10
183.6037606934
 20
93.1061497996
 11
185.3099360952
 21
93.1061497996
  0
LWPOLYLINE
  5
2AC
100
AcDbEntity
  8
0
100
AcDbPolyline
 62
7
  6
CONTINUOUS
 90
10
 70
0
 10
165.1543314446
 20
90.1810056567
 10
165.144940575
 20
90.1810153465
 10
165.138151541
 20
90.1811242508
 10
165.1379756142
 20
90.1811182129
 10
165.14482444
 20
90.1806882009
 10
165.1593049025
 20
90.1794211719
 10
165.1809680308
 20
90.1769148017
 10
165.2098463967
 20
90.1726730327
 10
165.2444904626
 20
90.1664106804
 10
165.2704622507
 20
90.1609436574
  0
LINE
  5
2AD
100
AcDbEntity
  8
BEZUGSACHSEN
100
AcDbLine
 62
7
  6
CONTINUOUS
 10
135.7037606934
 20
141.8632639504
 11
135.7037606934
 21
119.3061497996
  0
LINE
  5
2AE
100
AcDbEntity
  8
0
100
AcDbLine
 62
7
  6
CONTINUOUS
 10
135.7037606934
 20
141.881149358
 11
135.7037606934
 21
119.3061497996
  0
LINE
  5
2AF
100
AcDbEntity
  8
0
100
AcDbLine
 62
7
  6
CONTINUOUS
 10
135.7037606934
 20
102.9061497996
 11
135.7037606934
 21
92.6061497996
  0
LINE
  5
2B0
100
AcDbEntity
  8
BEZUGSACHSEN
100
AcDbLine
 62
7
  6
CONTINUOUS
 10
135.7037606934
 20
86.5124387132
 11
135.7037606934
 21
80.3331815835
  0
LINE
  5
2B1
100
AcDbEntity
  8
0
100
AcDbLine
 62
7
  6
CONTINUOUS
 10
135.7037606934
 20
86.5124387132
 11
135.7037606934
 21
80.3311523043
  0
LINE
  5
2B2
100
AcDbEntity
  8
FASEN
100
AcDbLine
 62
7
  6
CONTINUOUS
 10
135.7037606934
 20
86.5124387132
 11
135.7037606934
 21
92.6061497996
  0
LINE
  5
2B3
100
AcDbEntity
  8
FASEN
100
AcDbLine
 62
7
  6
CONTINUOUS
 10
135.7037606934
 20
102.9061497996
 11
135.7037606934
 21
119.3061497996
  0
LINE
  5
2B4
100
AcDbEntity
  8
RUNDUNGEN
100
AcDbLine
 62
9
  6
CONTINUOUS
 10
136.7037606934
 20
133.6061497996
 11
136.7037606934
 21
88.6061497996
  0
LINE
  5
2B5
100
AcDbEntity
  8
BEZUGSACHSEN
100
AcDbLine
 62
7
  6
CONTINUOUS
 10
116.1464554309
 20
88.9478457084
 11
117.2037606934
 21
89.2311497996
  0
LINE
  5
2B6
100
AcDbEntity
  8
BEZUGSACHSEN
100
AcDbLine
 62
7
  6
CONTINUOUS
 10
197.3704366188
 20
104.0259406181
 11
246.3194614802
 21
106.5912503092
  0
LINE
  5
2B7
100
AcDbEntity
  8
0
100
AcDbLine
 62
7
  6
CONTINUOUS
 10
119.8537606934
 20
102.9061497996
 11
135.7037606934
 21
102.9061497996
  0
LINE
  5
2B8
100
AcDbEntity
  8
FASEN
100
AcDbLine
 62
7
  6
CONTINUOUS
 10
135.7037606934
 20
103.3061497996
 11
119.8537606934
 21
103.3061497996
  0
LINE
  5
2B9
100
AcDbEntity
  8
BEZUGSACHSEN
100
AcDbLine
 62
7
  6
CONTINUOUS
 10
124.2424902946
 20
79.3311497996
 11
125.9037606934
 21
82.2085545354
  0
LINE
  5
2BA
100
AcDbEntity
  8
DEFAULT_2
100
AcDbLine
 62
8
  6
HIDDEN
 10
245.6037606934
 20
109.6061497996
 11
237.6041910029
 21
109.6061497996
  0
LINE
  5
2BB
100
AcDbEntity
  8
BEZUGSACHSEN
100
AcDbLine
 62
7
  6
CONTINUOUS
 10
124.2424902946
 20
142.8811497996
 11
125.9037606934
 21
140.0037450638
  0
LINE
  5
2BC
100
AcDbEntity
  8
DEFAULT_1
100
AcDbLine
 62
7
  6
CENTER
 10
181.1037606934
 20
111.1061497996
 11
167.6819472909
 21
111.1061497996
  0
LINE
  5
2BD
100
AcDbEntity
  8
DEFAULT_1
100
AcDbLine
 62
7
  6
CENTER
 10
166.5039590332
 20
111.1061497996
 11
162.5247047528
 21
111.1061497996
  0
LINE
  5
2BE
100
AcDbEntity
  8
BEZUGSACHSEN
100
AcDbLine
 62
7
  6
CENTER
 10
251.6037606934
 20
111.1061497996
 11
45.2037606934
 21
111.1061497996
  0
LINE
  5
2BF
100
AcDbEntity
  8
0
100
AcDbLine
 62
9
  6
CONTINUOUS
 10
166.5039590332
 20
111.1061497996
 11
167.6819472909
 21
111.1061497996
  0
LINE
  5
2C0
100
AcDbEntity
  8
DEFAULT_1
100
AcDbLine
 62
7
  6
CENTER
 10
181.1037606934
 20
111.1061497996
 11
199.6828166339
 21
111.1061497996
  0
LINE
  5
2C1
100
AcDbEntity
  8
DEFAULT_2
100
AcDbLine
 62
8
  6
HIDDEN
 10
245.6037606934
 20
112.6061497996
 11
237.6041910029
 21
112.6061497996
  0
LINE
  5
2C2
100
AcDbEntity
  8
BEZUGSACHSEN
100
AcDbLine
 62
7
  6
CONTINUOUS
 10
158.1449836461
 20
133.6061497996
 11
158.1449836461
 21
88.6061497996
  0
LINE
  5
2C3
100
AcDbEntity
  8
FASEN
100
AcDbLine
 62
7
  6
CONTINUOUS
 10
119.8537606934
 20
118.9061497996
 11
135.7037606934
 21
118.9061497996
  0
LINE
  5
2C4
100
AcDbEntity
  8
0
100
AcDbLine
 62
7
  6
CONTINUOUS
 10
119.8537606934
 20
119.3061497996
 11
135.7037606934
 21
119.3061497996
  0
LINE
  5
2C5
100
AcDbEntity
  8
BEZUGSACHSEN
100
AcDbLine
 62
7
  6
CONTINUOUS
 10
197.3704366188
 20
118.1863589811
 11
246.3194614802
 21
115.62104929
  0
LINE
  5
2C6
100
AcDbEntity
  8
BEZUGSACHSEN
100
AcDbLine
 62
7
  6
CONTINUOUS
 10
116.1464554309
 20
133.2644538908
 11
117.2037606934
 21
132.9811497996
  0
LINE
  5
2C7
100
AcDbEntity
  8
BEZUGSACHSEN
100
AcDbLine
 62
7
  6
CONTINUOUS
 10
177.3156409087
 20
129.1061497996
 11
178.6037606934
 21
129.1061497996
  0
LINE
  5
2C8
100
AcDbEntity
  8
BEZUGSACHSEN
100
AcDbLine
 62
7
  6
CONTINUOUS
 10
183.6037606934
 20
129.1061497996
 11
185.3099360952
 21
129.1061497996
  0
LINE
  5
2C9
100
AcDbEntity
  8
BEZUGSACHSEN
100
AcDbLine
 62
9
  6
CONTINUOUS
 10
175.9178226902
 20
130.1753697835
 11
175.9178226902
 21
92.0369298158
  0
LINE
  5
2CA
100
AcDbEntity
  8
BEZUGSACHSEN
100
AcDbLine
 62
9
  6
CONTINUOUS
 10
176.4590142091
 20
129.7898707664
 11
176.4590142091
 21
92.4224288328
  0
LINE
  5
2CB
100
AcDbEntity
  8
BEZUGSACHSEN
100
AcDbLine
 62
9
  6
CONTINUOUS
 10
176.6228205857
 20
129.5061497996
 11
176.6228205857
 21
92.7061497996
  0
LINE
  5
2CC
100
AcDbEntity
  8
BEZUGSACHSEN
100
AcDbLine
 62
9
  6
CONTINUOUS
 10
177.3156409087
 20
129.1061497996
 11
177.3156409087
 21
93.1061497996
  0
LINE
  5
2CD
100
AcDbEntity
  8
BEZUGSACHSEN
100
AcDbLine
 62
7
  6
CONTINUOUS
 10
49.915123355
 20
123.6049130014
 11
116.1464554309
 21
133.2644538908
  0
LINE
  5
2CE
100
AcDbEntity
  8
BEZUGSACHSEN
100
AcDbLine
 62
7
  6
CONTINUOUS
 10
117.2037606934
 20
132.9811497996
 11
118.8537606934
 21
132.9811497996
  0
LINE
  5
2CF
100
AcDbEntity
  8
BEZUGSACHSEN
100
AcDbLine
 62
7
  6
CONTINUOUS
 10
136.7037606934
 20
133.6061497996
 11
158.1449836461
 21
133.6061497996
  0
LINE
  5
2D0
100
AcDbEntity
  8
BEZUGSACHSEN
100
AcDbLine
 62
7
  6
CONTINUOUS
 10
158.1449836461
 20
133.6061497996
 11
166.5039590332
 21
131.9925749711
  0
LINE
  5
2D1
100
AcDbEntity
  8
BEZUGSACHSEN
100
AcDbLine
 62
7
  6
CONTINUOUS
 10
167.6819472909
 20
131.7651820057
 11
175.9178226902
 21
130.1753697835
  0
LWPOLYLINE
  5
2D2
100
AcDbEntity
  8
0
100
AcDbPolyline
 62
7
  6
CONTINUOUS
 90
10
 70
0
 10
169.0365333638
 20
131.2784036117
 10
169.04622867
 20
131.2745524085
 10
169.0531707321
 20
131.2716701811
 10
169.053558761
 20
131.2715141709
 10
169.0472186713
 20
131.2745113941
 10
169.0337969588
 20
131.2812800893
 10
169.0140536266
 20
131.291970969
 10
168.9883198842
 20
131.3069962079
 10
168.9582405844
 20
131.3259697798
 10
168.9408430738
 20
131.3376089216
  0
LINE
  5
2D3
100
AcDbEntity
  8
DEFAULT_1
100
AcDbLine
 62
7
  6
CENTER
 10
181.1037606934
 20
111.1061497996
 11
181.1037606934
 21
92.527093859
  0
LINE
  5
2D4
100
AcDbEntity
  8
DEFAULT_1
100
AcDbLine
 62
7
  6
CENTER
 10
181.1037606934
 20
111.1061497996
 11
181.1037606934
 21
129.6852057402
  0
LINE
  5
2D5
100
AcDbEntity
  8
BEZUGSACHSEN
100
AcDbLine
 62
7
  6
CONTINUOUS
 10
176.4590142091
 20
92.4224288328
 11
176.6228205857
 21
92.7061497996
  0
LINE
  5
2D6
100
AcDbEntity
  8
BEZUGSACHSEN
100
AcDbLine
 62
7
  6
CONTINUOUS
 10
126.4037606934
 20
139.2311497996
 11
129.1537606934
 21
139.2311497996
  0
LINE
  5
2D7
100
AcDbEntity
  8
BEZUGSACHSEN
100
AcDbLine
 62
7
  6
CONTINUOUS
 10
120.8537606934
 20
142.8811497996
 11
124.2424902946
 21
142.8811497996
  0
LINE
  5
2D8
100
AcDbEntity
  8
BEZUGSACHSEN
100
AcDbLine
 62
7
  6
CONTINUOUS
 10
131.3150310922
 20
142.8811497996
 11
134.7037606934
 21
142.8811497996
  0
LINE
  5
2D9
100
AcDbEntity
  8
BEZUGSACHSEN
100
AcDbLine
 62
7
  6
CONTINUOUS
 10
176.4590142091
 20
129.7898707664
 11
176.6228205857
 21
129.5061497996
  0
LINE
  5
2DA
100
AcDbEntity
  8
BEZUGSACHSEN
100
AcDbLine
 62
9
  6
CONTINUOUS
 10
185.3099360952
 20
129.1061497996
 11
185.3099360952
 21
93.1061497996
  0
LINE
  5
2DB
100
AcDbEntity
  8
BEZUGSACHSEN
100
AcDbLine
 62
9
  6
CONTINUOUS
 10
186.0170428763
 20
128.8132565808
 11
186.0170428763
 21
93.3990430184
  0
LINE
  5
2DC
100
AcDbEntity
  8
BEZUGSACHSEN
100
AcDbLine
 62
7
  6
CONTINUOUS
 10
186.0170428763
 20
93.3990430184
 11
196.0608949689
 21
103.442895111
  0
LINE
  5
2DD
100
AcDbEntity
  8
BEZUGSACHSEN
100
AcDbLine
 62
7
  6
CONTINUOUS
 10
186.0170428763
 20
128.8132565808
 11
196.0608949689
 21
118.7694044882
  0
LINE
  5
2DE
100
AcDbEntity
  8
BEZUGSACHSEN
100
AcDbLine
 62
9
  6
CONTINUOUS
 10
196.0608949689
 20
118.7694044882
 11
196.0608949689
 21
103.442895111
  0
LINE
  5
2DF
100
AcDbEntity
  8
BEZUGSACHSEN
100
AcDbLine
 62
9
  6
CONTINUOUS
 10
197.3704366188
 20
118.1863589811
 11
197.3704366188
 21
104.0259406181
  0
LINE
  5
2E0
100
AcDbEntity
  8
DEFAULT_2
100
AcDbLine
 62
8
  6
HIDDEN
 10
237.3037606934
 20
113.1061497996
 11
237.3037606934
 21
109.1061497996
  0
LINE
  5
2E1
100
AcDbEntity
  8
BEZUGSACHSEN
100
AcDbLine
 62
9
  6
CONTINUOUS
 10
246.3194614802
 20
115.62104929
 11
246.3194614802
 21
106.5912503092
  0
LINE
  5
2E2
100
AcDbEntity
  8
BEZUGSACHSEN
100
AcDbLine
 62
7
  6
CONTINUOUS
 10
246.6037606934
 20
115.3214604296
 11
246.6037606934
 21
106.8908391696
  0
CIRCLE
  5
2E3
100
AcDbEntity
  8
BEZUGSACHSEN
100
AcDbCircle
 62
7
  6
CONTINUOUS
 10
127.7037606934
 20
111.1061497996
 40
5.0
  0
CIRCLE
  5
2E4
100
AcDbEntity
  8
BEZUGSACHSEN
100
AcDbCircle
 62
7
  6
CONTINUOUS
 10
127.7037606934
 20
111.1061497996
 40
4.7
  0
CIRCLE
  5
2E5
100
AcDbEntity
  8
BEZUGSACHSEN
100
AcDbCircle
 62
7
  6
CONTINUOUS
 10
127.7037606934
 20
111.1061497996
 40
2.0
  0
ARC
  5
2E6
100
AcDbEntity
  8
BEZUGSACHSEN
100
AcDbCircle
 62
7
  6
CONTINUOUS
 10
50.2037606934
 20
100.5864491251
 40
2.0
100
AcDbArc
 50
180.0
 51
261.7021731718
  0
ARC
  5
2E7
100
AcDbEntity
  8
BEZUGSACHSEN
100
AcDbCircle
 62
7
  6
CONTINUOUS
 10
118.8537606934
 20
88.2311497996
 40
1.0
100
AcDbArc
 50
0.0
 51
90.0
  0
ARC
  5
2E8
100
AcDbEntity
  8
BEZUGSACHSEN
100
AcDbCircle
 62
7
  6
CONTINUOUS
 10
120.8537606934
 20
80.3311497996
 40
1.0
100
AcDbArc
 50
180.0
 51
270.0
  0
ARC
  5
2E9
100
AcDbEntity
  8
BEZUGSACHSEN
100
AcDbCircle
 62
7
  6
CONTINUOUS
 10
126.4037606934
 20
82.4811497996
 40
0.5
100
AcDbArc
 50
90.0
 51
180.0
  0
ARC
  5
2EA
100
AcDbEntity
  8
0
100
AcDbCircle
 62
7
  6
CONTINUOUS
 10
-47.7169459087
 20
166.0735772517
 40
189.9972240794
100
AcDbArc
 50
334.8317727047
 51
336.0368933894
  0
ARC
  5
2EB
100
AcDbEntity
  8
BEZUGSACHSEN
100
AcDbCircle
 62
7
  6
CONTINUOUS
 10
50.2037606934
 20
121.6258504741
 40
2.0
100
AcDbArc
 50
98.2978268282
 51
180.0
  0
ARC
  5
2EC
100
AcDbEntity
  8
BEZUGSACHSEN
100
AcDbCircle
 62
7
  6
CONTINUOUS
 10
118.8537606934
 20
133.9811497996
 40
1.0
100
AcDbArc
 50
270.0
 51
360.0
  0
ARC
  5
2ED
100
AcDbEntity
  8
BEZUGSACHSEN
100
AcDbCircle
 62
7
  6
CONTINUOUS
 10
120.8537606934
 20
141.8811497996
 40
1.0
100
AcDbArc
 50
90.0
 51
180.0
  0
ARC
  5
2EE
100
AcDbEntity
  8
BEZUGSACHSEN
100
AcDbCircle
 62
7
  6
CONTINUOUS
 10
126.4037606934
 20
139.7311497996
 40
0.5
100
AcDbArc
 50
180.0
 51
270.0
  0
ARC
  5
2EF
100
AcDbEntity
  8
0
100
AcDbCircle
 62
7
  6
CONTINUOUS
 10
160.6274271126
 20
120.6764064146
 40
31.0184311957
100
AcDbArc
 50
280.9208580218
 51
282.0320969303
  0
ARC
  5
2F0
100
AcDbEntity
  8
0
100
AcDbCircle
 62
7
  6
CONTINUOUS
 10
161.8909749579
 20
101.7926899773
 40
30.5268014425
100
AcDbArc
 50
79.064650298
 51
80.1874436348
  0
ARC
  5
2F1
100
AcDbEntity
  8
0
100
AcDbCircle
 62
7
  6
CONTINUOUS
 10
162.9537853118
 20
111.9369469858
 40
20.3599915168
100
AcDbArc
 50
76.34012504
 51
76.7467921644
  0
ARC
  5
2F2
100
AcDbEntity
  8
GEWINDE
100
AcDbCircle
 62
7
  6
CONTINUOUS
 10
181.1037625942
 20
75.2795471567
 40
18.0008522335
100
AcDbArc
 50
82.0169180759
 51
97.983093907
  0
ARC
  5
2F3
100
AcDbEntity
  8
0
100
AcDbCircle
 62
2
  6
CONTINUOUS
 10
181.1037606851
 20
111.1061497996
 40
2.9999999917
100
AcDbArc
 50
0.0
 51
359.8424034203
  0
CIRCLE
  5
2F4
100
AcDbEntity
  8
GEWINDE
100
AcDbCircle
 62
7
  6
CONTINUOUS
 10
181.1037606934
 20
111.1061497996
 40
2.5
  0
ARC
  5
2F5
100
AcDbEntity
  8
BEZUGSACHSEN
100
AcDbCircle
 62
7
  6
CONTINUOUS
 10
197.4751085313
 20
120.1836180506
 40
2.0
100
AcDbArc
 50
225.0
 51
267.0
  0
ARC
  5
2F6
100
AcDbEntity
  8
BEZUGSACHSEN
100
AcDbCircle
 62
7
  6
CONTINUOUS
 10
197.4751085313
 20
102.0286815486
 40
2.0
100
AcDbArc
 50
93.0
 51
135.0
  0
ARC
  5
2F7
100
AcDbEntity
  8
RUNDUNGEN
100
AcDbCircle
 62
7
  6
CONTINUOUS
 10
136.7037606934
 20
87.6061497996
 40
1.0
100
AcDbArc
 50
90.0
 51
180.0
  0
ARC
  5
2F8
100
AcDbEntity
  8
BEZUGSACHSEN
100
AcDbCircle
 62
7
  6
CONTINUOUS
 10
185.3099360952
 20
94.1061497996
 40
1.0
100
AcDbArc
 50
270.0
 51
315.0
  0
ARC
  5
2F9
100
AcDbEntity
  8
BEZUGSACHSEN
100
AcDbCircle
 62
7
  6
CONTINUOUS
 10
134.7037606934
 20
80.3311497996
 40
1.0
100
AcDbArc
 50
270.0
 51
360.0
  0
ARC
  5
2FA
100
AcDbEntity
  8
BEZUGSACHSEN
100
AcDbCircle
 62
7
  6
CONTINUOUS
 10
175.7661938861
 20
92.8224288328
 40
0.8
100
AcDbArc
 50
280.9257072364
 51
330.0
  0
ARC
  5
2FB
100
AcDbEntity
  8
BEZUGSACHSEN
100
AcDbCircle
 62
7
  6
CONTINUOUS
 10
177.3156409087
 20
92.3061497996
 40
0.8
100
AcDbArc
 50
90.0
 51
150.0
  0
ARC
  5
2FC
100
AcDbEntity
  8
BEZUGSACHSEN
100
AcDbCircle
 62
7
  6
CONTINUOUS
 10
129.1537606934
 20
82.4811497996
 40
0.5
100
AcDbArc
 50
0.0
 51
90.0
  0
ARC
  5
2FD
100
AcDbEntity
  8
0
100
AcDbCircle
 62
7
  6
CONTINUOUS
 10
165.3569344521
 20
90.5306372226
 40
0.379765412
100
AcDbArc
 50
252.2466018773
 51
256.853579657
  0
ARC
  5
2FE
100
AcDbEntity
  8
BEZUGSACHSEN
100
AcDbCircle
 62
7
  6
CONTINUOUS
 10
246.3037606934
 20
115.3214604296
 40
0.3
100
AcDbArc
 50
0.0
 51
87.0
  0
ARC
  5
2FF
100
AcDbEntity
  8
BEZUGSACHSEN
100
AcDbCircle
 62
7
  6
CONTINUOUS
 10
246.3037606934
 20
106.8908391696
 40
0.3
100
AcDbArc
 50
273.0
 51
360.0
  0
ARC
  5
300
100
AcDbEntity
  8
0
100
AcDbCircle
 62
7
  6
CONTINUOUS
 10
303.2744672952
 20
166.0735772506
 40
189.9972240794
100
AcDbArc
 50
203.9631066104
 51
205.168227295
  0
ARC
  5
301
100
AcDbEntity
  8
GEWINDE
100
AcDbCircle
 62
7
  6
CONTINUOUS
 10
181.103760693
 20
146.9328590861
 40
18.0009585021
100
AcDbArc
 50
262.0169592265
 51
277.9830407756
  0
ARC
  5
302
100
AcDbEntity
  8
RUNDUNGEN
100
AcDbCircle
 62
7
  6
CONTINUOUS
 10
136.7037606934
 20
134.6061497996
 40
1.0
100
AcDbArc
 50
180.0
 51
270.0
  0
ARC
  5
303
100
AcDbEntity
  8
BEZUGSACHSEN
100
AcDbCircle
 62
7
  6
CONTINUOUS
 10
185.3099360952
 20
128.1061497996
 40
1.0
100
AcDbArc
 50
45.0
 51
90.0
  0
ARC
  5
304
100
AcDbEntity
  8
BEZUGSACHSEN
100
AcDbCircle
 62
7
  6
CONTINUOUS
 10
134.7037606934
 20
141.8811497996
 40
1.0
100
AcDbArc
 50
0.0
 51
90.0
  0
ARC
  5
305
100
AcDbEntity
  8
BEZUGSACHSEN
100
AcDbCircle
 62
7
  6
CONTINUOUS
 10
175.7661938861
 20
129.3898707664
 40
0.8
100
AcDbArc
 50
30.0
 51
79.0742927636
  0
ARC
  5
306
100
AcDbEntity
  8
BEZUGSACHSEN
100
AcDbCircle
 62
7
  6
CONTINUOUS
 10
177.3156409087
 20
129.9061497996
 40
0.8
100
AcDbArc
 50
210.0
 51
270.0
  0
ARC
  5
307
100
AcDbEntity
  8
BEZUGSACHSEN
100
AcDbCircle
 62
7
  6
CONTINUOUS
 10
129.1537606934
 20
139.7311497996
 40
0.5
100
AcDbArc
 50
270.0
 51
360.0
  0
ARC
  5
308
100
AcDbEntity
  8
0
100
AcDbCircle
 62
7
  6
CONTINUOUS
 10
168.7323814849
 20
131.0382990594
 40
0.3648451031
100
AcDbArc
 50
50.0012668365
 51
55.158089571
  0
SPLINE
  5
309
100
AcDbEntity
  8
0
100
AcDbSpline
 62
2
  6
CONTINUOUS
 70
0
 71
3
 72
29
 73
25
 74
23
 42
0.0000001
 43
0.0000001
 44
0.0000000001
 12
-0.0253038713
 22
0.0042172968
 32
0.0
 13
-0.0257144819
 23
-0.0042857312
 33
0.0
 40
0.0
 40
0.0
 40
0.0
 40
0.0
 40
0.0454545455
 40
0.0909090909
 40
0.1363636364
 40
0.1818181818
 40
0.2272727273
 40
0.2727272727
 40
0.3181818182
 40
0.3636363636
 40
0.4090909091
 40
0.4545454545
 40
0.5
 40
0.5454545455
 40
0.5909090909
 40
0.6363636364
 40
0.6818181818
 40
0.7272727273
 40
0.7727272727
 40
0.8181818182
 40
0.8636363636
 40
0.9090909091
 40
0.9545454545
 40
1.0
 40
1.0
 40
1.0
 40
1.0
 10
184.103749702
 20
93.1061515695
 30
0.0
 10
184.10336631
 20
93.106215468
 30
0.0
 10
184.0825550323
 20
93.1097012973
 30
0.0
 10
183.9908173274
 20
93.1247547988
 30
0.0
 10
183.8412047684
 20
93.1483296308
 30
0.0
 10
183.6342645708
 20
93.1789084797
 30
0.0
 10
183.3771637495
 20
93.2136328532
 30
0.0
 10
183.070529839
 20
93.2502467418
 30
0.0
 10
182.7269958796
 20
93.2850539503
 30
0.0
 10
182.3478754071
 20
93.3157848402
 30
0.0
 10
181.9475895637
 20
93.3394383543
 30
0.0
 10
181.5290241963
 20
93.3545009907
 30
0.0
 10
181.1038217071
 20
93.3596144818
 30
0.0
 10
180.6786116214
 20
93.3545037832
 30
0.0
 10
180.2600472346
 20
93.3394437906
 30
0.0
 10
179.8597610646
 20
93.3157930056
 30
0.0
 10
179.4806209824
 20
93.2850626541
 30
0.0
 10
179.1370957946
 20
93.2502583207
 30
0.0
 10
178.8304253417
 20
93.2136415351
 30
0.0
 10
178.5733355969
 20
93.1789196291
 30
0.0
 10
178.3663577901
 20
93.1483360043
 30
0.0
 10
178.2167429867
 20
93.1247610553
 30
0.0
 10
178.1249794011
 20
93.1097034931
 30
0.0
 10
178.10416166
 20
93.1062165631
 30
0.0
 10
178.1037720467
 20
93.1061516278
 30
0.0
 11
184.103749702
 21
93.1061515695
 31
0.0
 11
184.0724682342
 21
93.1113387569
 31
0.0
 11
183.9811715184
 21
93.1261750205
 31
0.0
 11
183.831650162
 21
93.1494969669
 31
0.0
 11
183.6259044669
 21
93.1795994004
 31
0.0
 11
183.3689082347
 21
93.2139477724
 31
0.0
 11
183.0643798309
 21
93.2499456284
 31
0.0
 11
182.7210647941
 21
93.2843745638
 31
0.0
 11
182.3443478453
 21
93.3146052775
 31
0.0
 11
181.9445429764
 21
93.3380065413
 31
0.0
 11
181.5279180094
 21
93.3528427998
 31
0.0
 11
181.1038204411
 21
93.3579104502
 31
0.0
 11
180.6797192379
 21
93.3528455676
 31
0.0
 11
180.2630936041
 21
93.3380119919
 31
0.0
 11
179.8632854126
 21
93.3146130778
 31
0.0
 11
179.4865567982
 21
93.2843836571
 31
0.0
 11
179.1432382505
 21
93.2499562453
 31
0.0
 11
178.8386887931
 21
93.2139573483
 31
0.0
 11
178.5816875866
 21
93.1796093426
 31
0.0
 11
178.3759182906
 21
93.1495041169
 31
0.0
 11
178.2263848563
 21
93.1261806198
 31
0.0
 11
178.1350688967
 21
93.1113413543
 31
0.0
 11
178.1037720467
 21
93.1061516278
 31
0.0
  0
SPLINE
  5
30A
100
AcDbEntity
  8
0
100
AcDbSpline
 62
2
  6
CONTINUOUS
 70
0
 71
3
 72
29
 73
25
 74
23
 42
0.0000001
 43
0.0000001
 44
0.0000000001
 12
0.0256930562
 22
-0.0042821603
 32
0.0
 13
0.0256959066
 23
0.0042826353
 33
0.0
 40
0.0
 40
0.0
 40
0.0
 40
0.0
 40
0.0454545455
 40
0.0909090909
 40
0.1363636364
 40
0.1818181818
 40
0.2272727273
 40
0.2727272727
 40
0.3181818182
 40
0.3636363636
 40
0.4090909091
 40
0.4545454545
 40
0.5
 40
0.5454545455
 40
0.5909090909
 40
0.6363636364
 40
0.6818181818
 40
0.7272727273
 40
0.7727272727
 40
0.8181818182
 40
0.8636363636
 40
0.9090909091
 40
0.9545454545
 40
1.0
 40
1.0
 40
1.0
 40
1.0
 10
178.1037720281
 20
129.1061479744
 30
0.0
 10
178.1041613168
 20
129.1060830932
 30
0.0
 10
178.1249793899
 20
129.1025961317
 30
0.0
 10
178.2167255155
 20
129.0875413425
 30
0.0
 10
178.36634244
 20
129.0639660172
 30
0.0
 10
178.5732826123
 20
129.0333875134
 30
0.0
 10
178.8303820278
 20
128.9986635402
 30
0.0
 10
179.137035865
 20
128.9620480594
 30
0.0
 10
179.480544335
 20
128.9272438375
 30
0.0
 10
179.8596983434
 20
128.8965111951
 30
0.0
 10
180.2599409865
 20
128.8728607557
 30
0.0
 10
180.6785500398
 20
128.8577974165
 30
0.0
 10
181.1036969503
 20
128.8526851705
 30
0.0
 10
181.5289551616
 20
128.8577967953
 30
0.0
 10
181.9474815626
 20
128.8728562875
 30
0.0
 10
182.3477928736
 20
128.8965087892
 30
0.0
 10
182.7269113821
 20
128.9272380445
 30
0.0
 10
183.0704450969
 20
128.9620433942
 30
0.0
 10
183.3771050738
 20
128.9986592652
 30
0.0
 10
183.6341944817
 20
129.033381192
 30
0.0
 10
183.8411684433
 20
129.0639643498
 30
0.0
 10
183.9907809643
 20
129.0875389575
 30
0.0
 10
184.0825430394
 20
129.1025962825
 30
0.0
 10
184.1033600245
 20
129.1060830856
 30
0.0
 10
184.1037493564
 20
129.1061479741
 30
0.0
 11
178.1037720281
 21
129.1061479744
 31
0.0
 11
178.1350658926
 21
129.1009587405
 31
0.0
 11
178.2263706486
 21
129.0861212531
 31
0.0
 11
178.3758963146
 21
129.0627988208
 31
0.0
 11
178.5816424862
 21
129.0326966018
 31
0.0
 11
178.8386410981
 21
128.9983482889
 31
0.0
 11
179.1431783038
 21
128.9623499359
 31
0.0
 11
179.486485258
 21
128.9279224341
 31
0.0
 11
179.8632131158
 21
128.8976915623
 31
0.0
 11
180.2630020549
 21
128.8742919391
 31
0.0
 11
180.6796396827
 21
128.859455932
 31
0.0
 11
181.1037155004
 21
128.854389149
 31
0.0
 11
181.5278331933
 21
128.8594547732
 31
0.0
 11
181.9444457143
 21
128.8742884558
 31
0.0
 11
182.3442607399
 21
128.8976882481
 31
0.0
 11
182.7209805831
 21
128.9279173935
 31
0.0
 11
183.0642994739
 21
128.9623451477
 31
0.0
 11
183.3688433123
 21
128.9983436078
 31
0.0
 11
183.6258419073
 21
129.0326913972
 31
0.0
 11
183.8316082032
 21
129.0627962581
 31
0.0
 11
183.9811392233
 21
129.0861194104
 31
0.0
 11
184.0724536065
 21
129.1009584291
 31
0.0
 11
184.1037493564
 21
129.1061479741
 31
0.0
  0
SPLINE
  5
30B
100
AcDbEntity
  8
BEZUGSACHSEN
100
AcDbSpline
 62
7
  6
CONTINUOUS
 70
0
 71
3
 72
19
 73
15
 74
13
 42
0.0000001
 43
0.0000001
 44
0.0000000001
 12
-0.8939002816
 22
0.3305664543
 32
0.0
 13
-0.0
 23
0.9530644753
 33
0.0
 40
0.0
 40
0.0
 40
0.0
 40
0.0
 40
0.1217181457
 40
0.2412117709
 40
0.3499481467
 40
0.4477039725
 40
0.5373829645
 40
0.6199208207
 40
0.6964779373
 40
0.7678297527
 40
0.8343908613
 40
0.8961956983
 40
0.9521075556
 40
1.0
 40
1.0
 40
1.0
 40
1.0
 10
126.4037606934
 20
137.0030033926
 30
0.0
 10
126.3674927318
 20
137.0164153712
 30
0.0
 10
126.2984849292
 20
137.0511927189
 30
0.0
 10
126.2095499708
 20
137.1186504482
 30
0.0
 10
126.1366546176
 20
137.1926146826
 30
0.0
 10
126.0785649512
 20
137.2668360551
 30
0.0
 10
126.0322295676
 20
137.3391382362
 30
0.0
 10
125.9951027272
 20
137.4089944157
 30
0.0
 10
125.9655326235
 20
137.4760327278
 30
0.0
 10
125.9423445313
 20
137.5401547689
 30
0.0
 10
125.9248019919
 20
137.6011792173
 30
0.0
 10
125.9125520231
 20
137.6584788962
 30
0.0
 10
125.9054480704
 20
137.7106616197
 30
0.0
 10
125.9037606934
 20
137.7436486301
 30
0.0
 10
125.9037606934
 20
137.7588634925
 30
0.0
 11
126.4037606934
 21
137.0030033926
 31
0.0
 11
126.2998109312
 21
137.0544976914
 31
0.0
 11
126.2087257213
 21
137.1228592829
 31
0.0
 11
126.1357726672
 21
137.1964636601
 31
0.0
 11
126.0782301913
 21
137.2697375713
 31
0.0
 11
126.0320495518
 21
137.3416572887
 31
0.0
 11
125.995106089
 21
137.4111064752
 31
0.0
 11
125.9656650698
 21
137.4778668859
 31
0.0
 11
125.9425752625
 21
137.5418297858
 31
0.0
 11
125.9251214671
 21
137.602818486
 31
0.0
 11
125.9129254301
 21
137.6604460597
 31
0.0
 11
125.9059063678
 21
137.7132693653
 31
0.0
 11
125.9037606934
 21
137.7588634925
 31
0.0
  0
SPLINE
  5
30C
100
AcDbEntity
  8
0
100
AcDbSpline
 62
7
  6
CONTINUOUS
 70
0
 71
3
 72
13
 73
9
 74
7
 42
0.0000001
 43
0.0000001
 44
0.0000000001
 12
1.2107181352
 22
-0.2831925888
 32
0.0
 13
1.2005878055
 23
0.1738747728
 33
0.0
 40
0.0
 40
0.0
 40
0.0
 40
0.0
 40
0.0730343256
 40
0.2273501936
 40
0.4321734394
 40
0.6597502842
 40
0.8877623045
 40
1.0
 40
1.0
 40
1.0
 40
1.0
 10
165.270560479
 20
90.1608246959
 30
0.0
 10
165.3000351399
 20
90.153930436
 30
0.0
 10
165.3877592665
 20
90.1446413622
 30
0.0
 10
165.5656039117
 20
90.1433206006
 30
0.0
 10
165.8012379574
 20
90.1587471777
 30
0.0
 10
166.0673172315
 20
90.1859225285
 30
0.0
 10
166.2949882974
 20
90.2151002977
 30
0.0
 10
166.4312223622
 20
90.2343131205
 30
0.0
 10
166.4761394317
 20
90.2408182218
 30
0.0
 11
165.270560479
 21
90.1608246959
 31
0.0
 11
165.3569983755
 21
90.1488492587
 31
0.0
 11
165.5441632697
 21
90.145421008
 31
0.0
 11
165.7922243086
 21
90.159590281
 31
0.0
 11
166.0669205575
 21
90.1870682383
 31
0.0
 11
166.3413230456
 21
90.2218258548
 31
0.0
 11
166.4761394317
 21
90.2408182218
 31
0.0
  0
LINE
  5
30D
100
AcDbEntity
  8
0
100
AcDbLine
 62
7
  6
CONTINUOUS
 10
166.4761394317
 20
90.2408182218
 11
166.5003040268
 21
90.2443341972
  0
SPLINE
  5
30E
100
AcDbEntity
  8
0
100
AcDbSpline
 62
7
  6
CONTINUOUS
 70
0
 71
3
 72
12
 73
8
 74
6
 42
0.0000001
 43
0.0000001
 44
0.0000000001
 12
1.1864539559
 22
0.1734272289
 32
0.0
 13
1.1772725468
 23
0.2272548081
 33
0.0
 40
0.0
 40
0.0
 40
0.0
 40
0.0
 40
0.0924240366
 40
0.317081568
 40
0.5424503503
 40
0.7696672278
 40
1.0
 40
1.0
 40
1.0
 40
1.0
 10
166.5003040268
 20
90.2443341972
 30
0.0
 10
166.5368563148
 20
90.2496771454
 30
0.0
 10
166.6622059295
 20
90.2683793212
 30
0.0
 10
166.8763303081
 20
90.3023321547
 30
0.0
 10
167.1431993728
 20
90.3475892471
 30
0.0
 10
167.4118549744
 20
90.3957835196
 30
0.0
 10
167.5915591412
 20
90.4296695169
 30
0.0
 10
167.6819472909
 20
90.4471175936
 30
0.0
 11
166.5003040268
 21
90.2443341972
 31
0.0
 11
166.6099151699
 21
90.2606771325
 31
0.0
 11
166.8759729085
 21
90.3027624701
 31
0.0
 11
167.1423972108
 21
90.3478860928
 31
0.0
 11
167.4105569847
 21
90.3959572702
 31
0.0
 11
167.6819472909
 21
90.4471175936
 31
0.0
  0
SPLINE
  5
30F
100
AcDbEntity
  8
BEZUGSACHSEN
100
AcDbSpline
 62
7
  6
CONTINUOUS
 70
0
 71
3
 72
18
 73
14
 74
12
 42
0.0000001
 43
0.0000001
 44
0.0000000001
 12
-2.6242089124
 22
-0.9704387092
 32
0.0
 13
-2.6242089124
 23
0.9704387092
 33
0.0
 40
0.0
 40
0.0
 40
0.0
 40
0.0
 40
0.0799679098
 40
0.1663286595
 40
0.257944786
 40
0.3532485422
 40
0.4508026001
 40
0.549197501
 40
0.6467509057
 40
0.7420528253
 40
0.8336699519
 40
0.920031171
 40
1.0
 40
1.0
 40
1.0
 40
1.0
 10
129.1537606934
 20
137.0030033926
 30
0.0
 10
129.0838098595
 20
136.9771354075
 30
0.0
 10
128.9359215988
 20
136.9296904876
 30
0.0
 10
128.7019976661
 20
136.8728243485
 30
0.0
 10
128.4507966919
 20
136.8287426766
 30
0.0
 10
128.1870463421
 20
136.7986622823
 30
0.0
 10
127.9156973965
 20
136.7834089338
 30
0.0
 10
127.6418243173
 20
136.7834089417
 30
0.0
 10
127.3704776907
 20
136.7986621248
 30
0.0
 10
127.1067287033
 20
136.8287421286
 30
0.0
 10
126.8555280052
 20
136.8728234152
 30
0.0
 10
126.6216018538
 20
136.9296898655
 30
0.0
 10
126.4737123313
 20
136.9771351102
 30
0.0
 10
126.4037606934
 20
137.0030033926
 30
0.0
 11
129.1537606934
 21
137.0030033926
 31
0.0
 11
128.9409235053
 21
136.9340050033
 31
0.0
 11
128.7062469821
 21
136.8764617697
 31
0.0
 11
128.4538295706
 21
136.8318326254
 31
0.0
 11
128.1889202939
 21
136.8014136846
 31
0.0
 11
127.9164099168
 21
136.7859965369
 31
0.0
 11
127.6411111877
 21
136.7859965448
 31
0.0
 11
127.3686026331
 21
136.8014135531
 31
0.0
 11
127.1036984336
 21
136.8318316643
 31
0.0
 11
126.8512782091
 21
136.8764609705
 31
0.0
 11
126.6166003575
 21
136.9340043023
 31
0.0
 11
126.4037606934
 21
137.0030033926
 31
0.0
  0
SPLINE
  5
310
100
AcDbEntity
  8
0
100
AcDbSpline
 62
7
  6
CONTINUOUS
 70
0
 71
3
 72
20
 73
16
 74
14
 42
0.0000001
 43
0.0000001
 44
0.0000000001
 12
3.7484533319
 22
2.6123228608
 32
0.0
 13
3.9027271697
 23
2.4827860844
 33
0.0
 40
0.0
 40
0.0
 40
0.0
 40
0.0
 40
0.0056212224
 40
0.0490764313
 40
0.1065669502
 40
0.1760493256
 40
0.2561081331
 40
0.3454554486
 40
0.4422596782
 40
0.5440825842
 40
0.64848169
 40
0.7529662164
 40
0.8542685351
 40
0.9469956455
 40
1.0
 40
1.0
 40
1.0
 40
1.0
 10
164.1468443691
 20
90.1526632479
 30
0.0
 10
164.153867999
 20
90.1575580638
 30
0.0
 10
164.2156148423
 20
90.1996427731
 30
0.0
 10
164.3603562012
 20
90.2804340929
 30
0.0
 10
164.5941692485
 20
90.39884877
 30
0.0
 10
164.8836651291
 20
90.5338903572
 30
0.0
 10
165.2198407409
 20
90.6840641167
 30
0.0
 10
165.596265177
 20
90.8476155454
 30
0.0
 10
166.0039348322
 20
91.0233457962
 30
0.0
 10
166.4323686627
 20
91.2095530807
 30
0.0
 10
166.8699457574
 20
91.4043938888
 30
0.0
 10
167.3036583327
 20
91.6058409783
 30
0.0
 10
167.7162214547
 20
91.809866273
 30
0.0
 10
168.0513369087
 20
91.9910269174
 30
0.0
 10
168.2439299336
 20
92.1069015321
 30
0.0
 10
168.3128837784
 20
92.15076769
 30
0.0
 11
164.1468443691
 21
90.1526632479
 31
0.0
 11
164.168077399
 21
90.1671348391
 31
0.0
 11
164.3415493706
 21
90.2686090338
 31
0.0
 11
164.5784046484
 21
90.3894096071
 31
0.0
 11
164.8691643013
 21
90.5262284345
 31
0.0
 11
165.2070253424
 21
90.6776852755
 31
0.0
 11
165.5857910876
 21
90.8428566843
 31
0.0
 11
165.9967454977
 21
91.020484412
 31
0.0
 11
166.4284487114
 21
91.208603357
 31
0.0
 11
166.8692987125
 21
91.4055065189
 31
0.0
 11
167.3072495748
 21
91.6097129319
 31
0.0
 11
167.7267242302
 21
91.8183649764
 31
0.0
 11
168.103158287
 21
92.0238024698
 31
0.0
 11
168.3128837784
 21
92.15076769
 31
0.0
  0
SPLINE
  5
311
100
AcDbEntity
  8
0
100
AcDbSpline
 62
7
  6
CONTINUOUS
 70
0
 71
3
 72
13
 73
9
 74
7
 42
0.0000001
 43
0.0000001
 44
0.0000000001
 12
-1.0389642949
 22
0.7241147507
 32
0.0
 13
-1.2091406516
 23
0.2939640189
 33
0.0
 40
0.0
 40
0.0
 40
0.0
 40
0.0
 40
0.0660319935
 40
0.2136263011
 40
0.4155056659
 40
0.6469987808
 40
0.8831068506
 40
1.0
 40
1.0
 40
1.0
 40
1.0
 10
168.9408226238
 20
131.3377389379
 30
0.0
 10
168.9179543293
 20
131.3536771847
 30
0.0
 10
168.8426555097
 20
131.394121498
 30
0.0
 10
168.6807442236
 20
131.460871281
 30
0.0
 10
168.4528743646
 20
131.5360429291
 30
0.0
 10
168.1857103887
 20
131.6132504917
 30
0.0
 10
167.9512056025
 20
131.6744650966
 30
0.0
 10
167.8090674702
 20
131.7095967798
 30
0.0
 10
167.7619540506
 20
131.7210509065
 30
0.0
 11
168.9408226238
 21
131.3377389379
 31
0.0
 11
168.8706453828
 21
131.3780946142
 31
0.0
 11
168.7017385362
 21
131.4502022024
 31
0.0
 11
168.4638467239
 21
131.530888388
 31
0.0
 11
168.1873058601
 21
131.6115041913
 31
0.0
 11
167.9031469825
 21
131.6861281105
 31
0.0
 11
167.7619540506
 21
131.7210509065
 31
0.0
  0
SPLINE
  5
312
100
AcDbEntity
  8
0
100
AcDbSpline
 62
7
  6
CONTINUOUS
 70
0
 71
3
 72
11
 73
7
 74
5
 42
0.0000001
 43
0.0000001
 44
0.0000000001
 12
-1.1121624586
 22
0.2620406644
 32
0.0
 13
-1.1218570253
 23
0.2165576729
 33
0.0
 40
0.0
 40
0.0
 40
0.0
 40
0.0
 40
0.2504892163
 40
0.4992650531
 40
0.7482744562
 40
1.0
 40
1.0
 40
1.0
 40
1.0
 10
167.6214128751
 20
131.7546791339
 30
0.0
 10
167.5285513076
 20
131.7765585875
 30
0.0
 10
167.3431901039
 20
131.8189533988
 30
0.0
 10
167.0646996161
 20
131.8794777054
 30
0.0
 10
166.7851805608
 20
131.9374077478
 30
0.0
 10
166.5980923897
 20
131.9744039384
 30
0.0
 10
166.5039590332
 20
131.9925749711
 30
0.0
 11
167.6214128751
 21
131.7546791339
 31
0.0
 11
167.3424397684
 21
131.8185925136
 31
0.0
 11
167.0646922516
 21
131.8790118862
 31
0.0
 11
166.7861078387
 21
131.9367759675
 31
0.0
 11
166.5039590332
 21
131.9925749711
 31
0.0
  0
SPLINE
  5
313
100
AcDbEntity
  8
0
100
AcDbSpline
 62
7
  6
CONTINUOUS
 70
0
 71
3
 72
19
 73
15
 74
13
 42
0.0000001
 43
0.0000001
 44
0.0000000001
 12
-3.6848726656
 22
-0.857356039
 32
0.0
 13
-3.7548800415
 23
-0.7835282978
 33
0.0
 40
0.0
 40
0.0
 40
0.0
 40
0.0
 40
0.0025866877
 40
0.0518310313
 40
0.1160589259
 40
0.1930506972
 40
0.2816429896
 40
0.380842953
 40
0.4887540649
 40
0.6024789448
 40
0.7191177393
 40
0.8356435495
 40
0.9474804692
 40
1.0
 40
1.0
 40
1.0
 40
1.0
 10
169.9896648818
 20
130.9306334941
 30
0.0
 10
169.9864876768
 20
130.9298942566
 30
0.0
 10
169.9227258313
 20
130.9153429002
 30
0.0
 10
169.7744022872
 20
130.8939333427
 30
0.0
 10
169.5329298073
 20
130.8686022133
 30
0.0
 10
169.2396919553
 20
130.8466368865
 30
0.0
 10
168.9019194696
 20
130.8260175164
 30
0.0
 10
168.5244326737
 20
130.8056152737
 30
0.0
 10
168.1149318733
 20
130.7829072343
 30
0.0
 10
167.6833661628
 20
130.7553816277
 30
0.0
 10
167.2413004495
 20
130.7201068756
 30
0.0
 10
166.8026193209
 20
130.6739890539
 30
0.0
 10
166.4470735727
 20
130.6230115327
 30
0.0
 10
166.240505137
 20
130.5841416679
 30
0.0
 10
166.1747702909
 20
130.5704248217
 30
0.0
 11
169.9896648818
 21
130.9306334941
 31
0.0
 11
169.9801172865
 21
130.9284542802
 31
0.0
 11
169.793769075
 21
130.8977974372
 31
0.0
 11
169.5488730842
 21
130.8713927831
 31
0.0
 11
169.2545061944
 21
130.8483795565
 31
0.0
 11
168.9154127356
 21
130.8272145573
 31
0.0
 11
168.5355633889
 21
130.8061316312
 31
0.0
 11
168.1223823231
 21
130.7827621699
 31
0.0
 11
167.6871630752
 21
130.7544780074
 31
0.0
 11
167.2413219734
 21
130.7182291061
 31
0.0
 11
166.796997115
 21
130.6705191419
 31
0.0
 11
166.3726723878
 21
130.6080599823
 31
0.0
 11
166.1747702909
 21
130.5704248217
 31
0.0
  0
SPLINE
  5
314
100
AcDbEntity
  8
BEZUGSACHSEN
100
AcDbSpline
 62
7
  6
CONTINUOUS
 70
0
 71
3
 72
11
 73
7
 74
5
 42
0.0000001
 43
0.0000001
 44
0.0000000001
 12
0.0
 22
-0.4680658555
 32
0.0
 13
-0.1674374283
 23
-0.437093071
 33
0.0
 40
0.0
 40
0.0
 40
0.0
 40
0.0
 40
0.1445461367
 40
0.3576974325
 40
0.6432572252
 40
1.0
 40
1.0
 40
1.0
 40
1.0
 10
129.7787606934
 20
138.4644562482
 30
0.0
 10
129.7787606934
 20
138.4419038778
 30
0.0
 10
129.7716620781
 20
138.3862253892
 30
0.0
 10
129.748212326
 20
138.2886090959
 30
0.0
 10
129.7081170751
 20
138.1611970995
 30
0.0
 10
129.673671391
 20
138.0670708798
 30
0.0
 10
129.6537606934
 20
138.0150942815
 30
0.0
 11
129.7787606934
 21
138.4644562482
 31
0.0
 11
129.7720533914
 21
138.3971324278
 31
0.0
 11
129.7499030906
 21
138.2998535178
 31
0.0
 11
129.7105954244
 21
138.172103317
 31
0.0
 11
129.6537606934
 21
138.0150942815
 31
0.0
  0
SPLINE
  5
315
100
AcDbEntity
  8
BEZUGSACHSEN
100
AcDbSpline
 62
7
  6
CONTINUOUS
 70
0
 71
3
 72
12
 73
8
 74
6
 42
0.0000001
 43
0.0000001
 44
0.0000000001
 12
-0.1674556245
 22
0.4371405719
 32
0.0
 13
0.0
 23
0.4681167224
 33
0.0
 40
0.0
 40
0.0
 40
0.0
 40
0.0
 40
0.2995620764
 40
0.5419687552
 40
0.7353081792
 40
0.886011903
 40
1.0
 40
1.0
 40
1.0
 40
1.0
 10
125.9037606934
 20
138.0150942815
 30
0.0
 10
125.8870395752
 20
138.0587445273
 30
0.0
 10
125.8577893744
 20
138.1381124751
 30
0.0
 10
125.8219787024
 20
138.2471429172
 30
0.0
 10
125.7975281216
 20
138.3353879302
 30
0.0
 10
125.7830588484
 20
138.405414104
 30
0.0
 10
125.7787606934
 20
138.44666967
 30
0.0
 10
125.7787606934
 20
138.4644562482
 30
0.0
 11
125.9037606934
 21
138.0150942815
 31
0.0
 11
125.8555770546
 21
138.1467863265
 31
0.0
 11
125.8205342295
 21
138.2547144961
 31
0.0
 11
125.7968481514
 21
138.3420655138
 31
0.0
 11
125.7832162426
 21
138.4112828588
 31
0.0
 11
125.7787606934
 21
138.4644562482
 31
0.0
  0
SPLINE
  5
316
100
AcDbEntity
  8
BEZUGSACHSEN
100
AcDbSpline
 62
7
  6
CONTINUOUS
 70
0
 71
3
 72
19
 73
15
 74
13
 42
0.0000001
 43
0.0000001
 44
0.0000000001
 12
0.0
 22
-0.9530644332
 32
0.0
 13
-0.8939002421
 23
-0.3305664397
 33
0.0
 40
0.0
 40
0.0
 40
0.0
 40
0.0
 40
0.0479048512
 40
0.1038186277
 40
0.1656371908
 40
0.2321998811
 40
0.3035488221
 40
0.3800991219
 40
0.4626240486
 40
0.5522943159
 40
0.6500533187
 40
0.7587572076
 40
0.8782694549
 40
1.0
 40
1.0
 40
1.0
 40
1.0
 10
129.6537606934
 20
137.7588634925
 30
0.0
 10
129.6537606934
 20
137.7436446892
 30
0.0
 10
129.6520726564
 20
137.7106531238
 30
0.0
 10
129.6449665058
 20
137.6584617098
 30
0.0
 10
129.6327139413
 20
137.6011569637
 30
0.0
 10
129.615168529
 20
137.5401292373
 30
0.0
 10
129.5919796179
 20
137.4760102427
 30
0.0
 10
129.56241099
 20
137.4089791559
 30
0.0
 10
129.5252875325
 20
137.3391314611
 30
0.0
 10
129.4789551445
 20
137.2668343798
 30
0.0
 10
129.4208729337
 20
137.1926224981
 30
0.0
 10
129.3479813282
 20
137.1186596807
 30
0.0
 10
129.2590487247
 20
137.0511993884
 30
0.0
 10
129.1900323479
 20
137.0164167369
 30
0.0
 10
129.1537606934
 20
137.0030033926
 30
0.0
 11
129.6537606934
 21
137.7588634925
 31
0.0
 11
129.6516139559
 21
137.7132575797
 31
0.0
 11
129.6445936315
 21
137.6604325991
 31
0.0
 11
129.6323934585
 21
137.6027925318
 31
0.0
 11
129.6149374444
 21
137.5418029015
 31
0.0
 11
129.5918468559
 21
137.4778431994
 31
0.0
 11
129.5624070222
 21
137.4110893699
 31
0.0
 11
129.5254684788
 21
137.3416515282
 31
0.0
 11
129.4792921531
 21
137.2697389271
 31
0.0
 11
129.4217478196
 21
137.19646263
 31
0.0
 11
129.3488178878
 21
137.1228789352
 31
0.0
 11
129.2577205208
 21
137.0545039834
 31
0.0
 11
129.1537606934
 21
137.0030033926
 31
0.0
  0
SPLINE
  5
317
100
AcDbEntity
  8
0
100
AcDbSpline
 62
7
  6
CONTINUOUS
 70
0
 71
3
 72
18
 73
14
 74
12
 42
0.0000001
 43
0.0000001
 44
0.0000000001
 12
-1.7642179932
 22
0.0
 32
0.0
 13
0.0
 23
1.7642179932
 33
0.0
 40
0.0
 40
0.0
 40
0.0
 40
0.0
 40
0.0884356734
 40
0.1769592452
 40
0.264385139
 40
0.3507913626
 40
0.4389518107
 40
0.5291184745
 40
0.6208295728
 40
0.7142209758
 40
0.8094445939
 40
0.905156071
 40
1.0
 40
1.0
 40
1.0
 40
1.0
 10
120.8537606934
 20
85.2720516927
 30
0.0
 10
120.8017540913
 20
85.2720516927
 30
0.0
 10
120.6974188647
 20
85.2821294926
 30
0.0
 10
120.547433932
 20
85.3262127026
 30
0.0
 10
120.4088165061
 20
85.3956893228
 30
0.0
 10
120.2837048908
 20
85.4866702147
 30
0.0
 10
120.1726366528
 20
85.5965528305
 30
0.0
 10
120.0762945893
 20
85.7234125905
 30
0.0
 10
119.9959806021
 20
85.8644685603
 30
0.0
 10
119.9325952618
 20
86.0170797322
 30
0.0
 10
119.8869822383
 20
86.1783353281
 30
0.0
 10
119.8597498103
 20
86.3445089445
 30
0.0
 10
119.8537606934
 20
86.4566635912
 30
0.0
 10
119.8537606934
 20
86.5124387132
 30
0.0
 11
120.8537606934
 21
85.2720516927
 31
0.0
 11
120.6984563979
 21
85.2869766975
 31
0.0
 11
120.5485455418
 21
85.3307639987
 31
0.0
 11
120.4105121935
 21
85.3995844808
 31
0.0
 11
120.2870228241
 21
85.4889609357
 31
0.0
 11
120.176214389
 21
85.5981048465
 31
0.0
 11
120.0797514314
 21
85.7245932815
 31
0.0
 11
119.9994540562
 21
85.8650605161
 31
0.0
 11
119.9360471025
 21
86.0171339732
 31
0.0
 11
119.8901536746
 21
86.1787390082
 31
0.0
 11
119.8627372225
 21
86.3453543033
 31
0.0
 11
119.8537606934
 21
86.5124387132
 31
0.0
  0
SPLINE
  5
318
100
AcDbEntity
  8
0
100
AcDbSpline
 62
7
  6
CONTINUOUS
 70
0
 71
3
 72
93
 73
89
 74
87
 42
0.0000001
 43
0.0000001
 44
0.0000000001
 12
-24.8249906324
 22
-20.5143437502
 32
0.0
 13
33.2870792576
 23
-10.6626616261
 33
0.0
 40
0.0
 40
0.0
 40
0.0
 40
0.0
 40
0.0187534294
 40
0.0383419932
 40
0.0572727594
 40
0.0745366943
 40
0.0895576331
 40
0.1025018962
 40
0.1138848487
 40
0.1241235572
 40
0.1337300534
 40
0.1433718882
 40
0.153454167
 40
0.1643298573
 40
0.1765150588
 40
0.1902429933
 40
0.2054591062
 40
0.2216866337
 40
0.2385867728
 40
0.2560583751
 40
0.2738336885
 40
0.2912935088
 40
0.3077775662
 40
0.3226010738
 40
0.3353734836
 40
0.3465716775
 40
0.3563821501
 40
0.3651402741
 40
0.3733259298
 40
0.3815114646
 40
0.3900957084
 40
0.3993386647
 40
0.4097025906
 40
0.4215600596
 40
0.4350571182
 40
0.4499185018
 40
0.4657400211
 40
0.4824898565
 40
0.5002503438
 40
0.5187767937
 40
0.5375687114
 40
0.5555289219
 40
0.5713328638
 40
0.5847375207
 40
0.5961403702
 40
0.6058451555
 40
0.6139869501
 40
0.6209891945
 40
0.6274839631
 40
0.6341566601
 40
0.6415959386
 40
0.6502612715
 40
0.6605010246
 40
0.6722770131
 40
0.6850939331
 40
0.6987504877
 40
0.7132122143
 40
0.7280493522
 40
0.742520148
 40
0.7560751131
 40
0.7683622921
 40
0.7792218876
 40
0.7886706767
 40
0.7967615895
 40
0.8033578937
 40
0.8085873168
 40
0.8129652993
 40
0.8171701739
 40
0.8219400989
 40
0.8278836567
 40
0.8353880183
 40
0.8447624225
 40
0.8561058753
 40
0.8691291569
 40
0.883180256
 40
0.8976280025
 40
0.9120978508
 40
0.9263025672
 40
0.9399569717
 40
0.9527624546
 40
0.9644053272
 40
0.974569039
 40
0.9830073733
 40
0.9894431687
 40
0.993858004
 40
0.9965197652
 40
0.9980299954
 40
1.0
 40
1.0
 40
1.0
 40
1.0
 10
167.6819472909
 20
111.1061497996
 30
0.0
 10
167.5267627216
 20
110.9779117008
 30
0.0
 10
167.2100656469
 20
110.7150069834
 30
0.0
 10
166.7454904359
 20
110.3121782066
 30
0.0
 10
166.3098629729
 20
109.9008655819
 30
0.0
 10
165.9365768879
 20
109.496419982
 30
0.0
 10
165.6405694709
 20
109.1105111421
 30
0.0
 10
165.4221785467
 20
108.7477295777
 30
0.0
 10
165.2752901772
 20
108.405433844
 30
0.0
 10
165.1950137867
 20
108.078269993
 30
0.0
 10
165.1740132232
 20
107.7608133694
 30
0.0
 10
165.2090301801
 20
107.4462784327
 30
0.0
 10
165.3018367276
 20
107.1295090644
 30
0.0
 10
165.4571844626
 20
106.8078840612
 30
0.0
 10
165.6774300971
 20
106.4788376059
 30
0.0
 10
165.9631790575
 20
106.1413007699
 30
0.0
 10
166.3085694853
 20
105.8002314841
 30
0.0
 10
166.7022333585
 20
105.4616406682
 30
0.0
 10
167.1303031693
 20
105.1270995861
 30
0.0
 10
167.5807551462
 20
104.7947029525
 30
0.0
 10
168.039616765
 20
104.463696444
 30
0.0
 10
168.4878203362
 20
104.1360199901
 30
0.0
 10
168.9029304315
 20
103.8168968235
 30
0.0
 10
169.265049641
 20
103.5119174687
 30
0.0
 10
169.5645708886
 20
103.2219273561
 30
0.0
 10
169.8006472899
 20
102.945779385
 30
0.0
 10
169.9787922518
 20
102.6794180569
 30
0.0
 10
170.1026116775
 20
102.4189197403
 30
0.0
 10
170.1739431294
 20
102.157034473
 30
0.0
 10
170.1901568707
 20
101.8876542137
 30
0.0
 10
170.148415718
 20
101.6095916925
 30
0.0
 10
170.0463342297
 20
101.3230282795
 30
0.0
 10
169.8829119592
 20
101.026081394
 30
0.0
 10
169.6551495256
 20
100.7165936846
 30
0.0
 10
169.3662867441
 20
100.3951169495
 30
0.0
 10
169.0251120108
 20
100.0652932807
 30
0.0
 10
168.6417840984
 20
99.7299322064
 30
0.0
 10
168.2232924475
 20
99.3880953522
 30
0.0
 10
167.7758220523
 20
99.0360643936
 30
0.0
 10
167.3093801464
 20
98.6727241957
 30
0.0
 10
166.8448998267
 20
98.3033768299
 30
0.0
 10
166.4125798765
 20
97.9407186676
 30
0.0
 10
166.0388787501
 20
97.5987247586
 30
0.0
 10
165.7361238031
 20
97.2844761409
 30
0.0
 10
165.5033505027
 20
96.9954578027
 30
0.0
 10
165.3356046774
 20
96.7289216071
 30
0.0
 10
165.2291907496
 20
96.4829199503
 30
0.0
 10
165.1785664901
 20
96.2544740795
 30
0.0
 10
165.1815558866
 20
96.0358042103
 30
0.0
 10
165.2411998466
 20
95.8202926538
 30
0.0
 10
165.3635284901
 20
95.6059975344
 30
0.0
 10
165.5545750681
 20
95.395018298
 30
0.0
 10
165.8158695432
 20
95.1924699684
 30
0.0
 10
166.1385668576
 20
95.0022577244
 30
0.0
 10
166.5091455549
 20
94.8246747667
 30
0.0
 10
166.9161823321
 20
94.6586136224
 30
0.0
 10
167.3500692491
 20
94.5022566694
 30
0.0
 10
167.7960549581
 20
94.3543227137
 30
0.0
 10
168.234331758
 20
94.2142324479
 30
0.0
 10
168.6461150876
 20
94.0811412282
 30
0.0
 10
169.0187888265
 20
93.9532078815
 30
0.0
 10
169.3459535621
 20
93.8288310091
 30
0.0
 10
169.6249084584
 20
93.7053549318
 30
0.0
 10
169.8524226435
 20
93.5802582259
 30
0.0
 10
170.0236427481
 20
93.4503695855
 30
0.0
 10
170.1365537265
 20
93.3150816287
 30
0.0
 10
170.1885339777
 20
93.1719458078
 30
0.0
 10
170.1758925567
 20
93.025054413
 30
0.0
 10
170.1043002883
 20
92.8791072975
 30
0.0
 10
169.9786231595
 20
92.7278703291
 30
0.0
 10
169.7939096574
 20
92.5658966999
 30
0.0
 10
169.5460443786
 20
92.391055126
 30
0.0
 10
169.2352037731
 20
92.2046767041
 30
0.0
 10
168.8711140646
 20
92.0107400459
 30
0.0
 10
168.4707430519
 20
91.8147040146
 30
0.0
 10
168.0518732227
 20
91.6214873161
 30
0.0
 10
167.6286062361
 20
91.4340347966
 30
0.0
 10
167.2115258973
 20
91.2537032678
 30
0.0
 10
166.8102886739
 20
91.0817783962
 30
0.0
 10
166.4346624008
 20
90.9198472345
 30
0.0
 10
166.094909147
 20
90.7695652359
 30
0.0
 10
165.7998525915
 20
90.6336421163
 30
0.0
 10
165.559670529
 20
90.5138713118
 30
0.0
 10
165.376813887
 20
90.4142775965
 30
0.0
 10
165.2604619083
 20
90.3301174163
 30
0.0
 10
165.1867477489
 20
90.2695168235
 30
0.0
 10
165.1789274734
 20
90.1927671423
 30
0.0
 10
165.2192775182
 20
90.1759589375
 30
0.0
 10
165.2411360851
 20
90.1689571066
 30
0.0
 11
167.6819472909
 21
111.1061497996
 31
0.0
 11
167.2183227814
 21
110.7191127744
 31
0.0
 11
166.743166401
 21
110.3041657393
 31
0.0
 11
166.3020024858
 21
109.8833919347
 31
0.0
 11
165.9270962105
 21
109.4728415147
 31
0.0
 11
165.6350014121
 21
109.0872455894
 31
0.0
 11
165.4224715583
 21
108.728631099
 31
0.0
 11
165.2804886354
 21
108.3906637124
 31
0.0
 11
165.2032057238
 21
108.0701178113
 31
0.0
 11
165.1831768961
 21
107.7613961199
 31
0.0
 11
165.2171722415
 21
107.452753912
 31
0.0
 11
165.3074540233
 21
107.1408649495
 31
0.0
 11
165.4577121872
 21
106.8244893538
 31
0.0
 11
165.6736995849
 21
106.4968616718
 31
0.0
 11
165.9573884611
 21
106.1577864446
 31
0.0
 11
166.3044942711
 21
105.8118938498
 31
0.0
 11
166.6992760381
 21
105.4694693929
 31
0.0
 11
167.1269486067
 21
105.1328502439
 31
0.0
 11
167.5787190933
 21
104.7974534915
 31
0.0
 11
168.0420061652
 21
104.4612171625
 31
0.0
 11
168.4948928506
 21
104.1279689598
 31
0.0
 11
168.9144874451
 21
103.8027759331
 31
0.0
 11
169.2779639088
 21
103.4932965063
 31
0.0
 11
169.57174086
 21
103.2053992101
 31
0.0
 11
169.804354044
 21
102.9298174765
 31
0.0
 11
169.9780583424
 21
102.6659147114
 31
0.0
 11
170.0971601994
 21
102.4102456947
 31
0.0
 11
170.1649847486
 21
102.1555067895
 31
0.0
 11
170.1808906577
 21
101.8923774867
 31
0.0
 11
170.1411378389
 21
101.6188008341
 31
0.0
 11
170.0435400644
 21
101.3375926736
 31
0.0
 11
169.8849523828
 21
101.043912853
 31
0.0
 11
169.6611339142
 21
100.7345203781
 31
0.0
 11
169.3726201789
 21
100.4094168458
 31
0.0
 11
169.0299415538
 21
100.0753059492
 31
0.0
 11
168.6474945008
 21
99.7386366202
 31
0.0
 11
168.2307011322
 21
99.3962127361
 31
0.0
 11
167.7820094585
 21
99.0415027872
 31
0.0
 11
167.3122360775
 21
98.6736951434
 31
0.0
 11
166.8396087998
 21
98.2957169737
 31
0.0
 11
166.3977397817
 21
97.922495591
 31
0.0
 11
166.0238695657
 21
97.5771602202
 31
0.0
 11
165.7263450776
 21
97.2643765422
 31
0.0
 11
165.498117114
 21
96.9766904265
 31
0.0
 11
165.3343065844
 21
96.7105233912
 31
0.0
 11
165.2328153625
 21
96.4687613404
 31
0.0
 11
165.1864165538
 21
96.2480838632
 31
0.0
 11
165.1903269061
 21
96.0389607892
 31
0.0
 11
165.2467938985
 21
95.8316227584
 31
0.0
 11
165.3634086708
 21
95.6223427985
 31
0.0
 11
165.5481802282
 21
95.4132145721
 31
0.0
 11
165.8063474661
 21
95.2080458916
 31
0.0
 11
166.131315702
 21
95.0125544307
 31
0.0
 11
166.5025929466
 21
94.8322096951
 31
0.0
 11
166.9092203052
 21
94.6646438249
 31
0.0
 11
167.3469091069
 21
94.5054801889
 31
0.0
 11
167.8000559482
 21
94.3539220115
 31
0.0
 11
168.2436183757
 21
94.2109917569
 31
0.0
 11
168.6586345762
 21
94.0756452864
 31
0.0
 11
169.0325213961
 21
93.9460792242
 31
0.0
 11
169.3588683833
 21
93.8203578271
 31
0.0
 11
169.6362293168
 21
93.6952001251
 31
0.0
 11
169.8628141274
 21
93.5665452639
 31
0.0
 11
170.0294013105
 21
93.4347309611
 31
0.0
 11
170.1333642581
 21
93.3022407951
 31
0.0
 11
170.1786672089
 21
93.1687274485
 31
0.0
 11
170.1688383826
 21
93.0336694814
 31
0.0
 11
170.1054734909
 21
92.8937352064
 31
0.0
 11
169.9862514482
 21
92.7439913408
 31
0.0
 11
169.8067458243
 21
92.5821781231
 31
0.0
 11
169.561514362
 21
92.4061016234
 31
0.0
 11
169.2492819845
 21
92.2164676557
 31
0.0
 11
168.8798195865
 21
92.0179760738
 31
0.0
 11
168.4738339963
 21
91.818132363
 31
0.0
 11
168.0516032954
 21
91.6226672106
 31
0.0
 11
167.6257277623
 21
91.4335157534
 31
0.0
 11
167.2060044088
 21
91.2515932078
 31
0.0
 11
166.801974002
 21
91.0780343945
 31
0.0
 11
166.4234842084
 21
90.9142889644
 31
0.0
 11
166.0807654915
 21
90.762196843
 31
0.0
 11
165.7839246736
 21
90.6242804194
 31
0.0
 11
165.5410011469
 21
90.5024744892
 31
0.0
 11
165.3609730231
 21
90.3997770513
 31
0.0
 11
165.2454387602
 21
90.3169152846
 31
0.0
 11
165.1892786062
 21
90.252154241
 31
0.0
 11
165.187945554
 21
90.2035365715
 31
0.0
 11
165.2411360851
 21
90.1689571066
 31
0.0
  0
SPLINE
  5
319
100
AcDbEntity
  8
0
100
AcDbSpline
 62
7
  6
CONTINUOUS
 70
0
 71
3
 72
93
 73
89
 74
87
 42
0.0000001
 43
0.0000001
 44
0.0000000001
 12
24.6724236485
 22
20.6126814006
 32
0.0
 13
-26.5395068262
 23
22.2833022426
 33
0.0
 40
0.0
 40
0.0
 40
0.0
 40
0.0
 40
0.0182687444
 40
0.0371432817
 40
0.0553188321
 40
0.071880036
 40
0.0862647572
 40
0.0986588424
 40
0.1095460738
 40
0.1193838902
 40
0.1286472084
 40
0.1380015499
 40
0.1479179519
 40
0.1587387465
 40
0.1709540021
 40
0.1847888487
 40
0.2002066865
 40
0.2167632952
 40
0.2341198608
 40
0.2523624753
 40
0.2714658798
 40
0.2908196198
 40
0.3096096537
 40
0.3267447904
 40
0.3414465903
 40
0.3542920143
 40
0.3655273395
 40
0.3754449883
 40
0.3845044199
 40
0.3932496237
 40
0.4020453573
 40
0.4111571419
 40
0.4211060039
 40
0.4323610688
 40
0.4451570928
 40
0.4592244249
 40
0.474125301
 40
0.4897150545
 40
0.5058421319
 40
0.5219291422
 40
0.5372400606
 40
0.5514046714
 40
0.5642473956
 40
0.5757345162
 40
0.5859352837
 40
0.5949770272
 40
0.6028050284
 40
0.6095780783
 40
0.6158690968
 40
0.6224204166
 40
0.6298810782
 40
0.6387365601
 40
0.649229265
 40
0.6614867196
 40
0.6750749586
 40
0.6896289172
 40
0.7052511677
 40
0.7219060665
 40
0.7388361254
 40
0.7551922822
 40
0.7704022898
 40
0.7840549463
 40
0.7960984882
 40
0.806625581
 40
0.8155488866
 40
0.8227077439
 40
0.8283468676
 40
0.8329497733
 40
0.8371856936
 40
0.841886223
 40
0.8477212861
 40
0.8552026644
 40
0.8647073609
 40
0.8762871656
 40
0.8893172268
 40
0.9029276268
 40
0.9165893905
 40
0.9299943112
 40
0.942858173
 40
0.954885981
 40
0.9658082096
 40
0.9753844435
 40
0.9834233304
 40
0.9896602618
 40
0.9939735204
 40
0.9965713439
 40
0.9980692142
 40
1.0
 40
1.0
 40
1.0
 40
1.0
 10
166.503959033
 20
111.1061497995
 30
0.0
 10
166.6542037669
 20
111.2316724022
 30
0.0
 10
166.9601332952
 20
111.4863294525
 30
0.0
 10
167.4111814112
 20
111.8710986083
 30
0.0
 10
167.8363958085
 20
112.2577200716
 30
0.0
 10
168.2054693647
 20
112.6336914799
 30
0.0
 10
168.5026090868
 20
112.9915568396
 30
0.0
 10
168.7268591148
 20
113.3282757413
 30
0.0
 10
168.8838485103
 20
113.6480028671
 30
0.0
 10
168.9776858005
 20
113.9570382331
 30
0.0
 10
169.0128354218
 20
114.2616570653
 30
0.0
 10
168.9911232064
 20
114.5684224509
 30
0.0
 10
168.9101434633
 20
114.8822456961
 30
0.0
 10
168.7670638842
 20
115.2065624154
 30
0.0
 10
168.5585495191
 20
115.5433652481
 30
0.0
 10
168.2854050805
 20
115.8946903363
 30
0.0
 10
167.9536573973
 20
116.2570875378
 30
0.0
 10
167.5741907947
 20
116.6254672341
 30
0.0
 10
167.1582030439
 20
116.9988906245
 30
0.0
 10
166.7139366965
 20
117.3813856514
 30
0.0
 10
166.2512392453
 20
117.7752386546
 30
0.0
 10
165.7881681929
 20
118.1777042086
 30
0.0
 10
165.3514026565
 20
118.5780965981
 30
0.0
 10
164.9678386544
 20
118.9621827034
 30
0.0
 10
164.6515240153
 20
119.322250718
 30
0.0
 10
164.4040532772
 20
119.6569015692
 30
0.0
 10
164.2184557218
 20
119.971374217
 30
0.0
 10
164.0904777538
 20
120.2699058702
 30
0.0
 10
164.0158561667
 20
120.5588927698
 30
0.0
 10
163.9958076663
 20
120.8450179574
 30
0.0
 10
164.0325083968
 20
121.1301882547
 30
0.0
 10
164.1282484599
 20
121.4148300605
 30
0.0
 10
164.286926819
 20
121.7002155392
 30
0.0
 10
164.5145395125
 20
121.9864503216
 30
0.0
 10
164.8086513247
 20
122.2711689695
 30
0.0
 10
165.1591200634
 20
122.5503452947
 30
0.0
 10
165.5527995821
 20
122.8210798119
 30
0.0
 10
165.978248905
 20
123.0832045692
 30
0.0
 10
166.4225563705
 20
123.3383032595
 30
0.0
 10
166.8676951981
 20
123.5857770333
 30
0.0
 10
167.293713374
 20
123.8243752005
 30
0.0
 10
167.6850114112
 20
124.0537305807
 30
0.0
 10
168.0332932603
 20
124.2750772242
 30
0.0
 10
168.3340670679
 20
124.4911459772
 30
0.0
 10
168.5843908544
 20
124.7060588502
 30
0.0
 10
168.7792752118
 20
124.9223915278
 30
0.0
 10
168.9151658615
 20
125.1381297882
 30
0.0
 10
168.9917517845
 20
125.3506749578
 30
0.0
 10
169.0124277959
 20
125.5621463504
 30
0.0
 10
168.9776522196
 20
125.7790935638
 30
0.0
 10
168.8852077441
 20
126.0078860315
 30
0.0
 10
168.7297340195
 20
126.2509758254
 30
0.0
 10
168.5086448186
 20
126.5086357873
 30
0.0
 10
168.2252892957
 20
126.7764947981
 30
0.0
 10
167.889911576
 20
127.0506708723
 30
0.0
 10
167.5127102536
 20
127.329598415
 30
0.0
 10
167.0994383806
 20
127.6144503383
 30
0.0
 10
166.658861081
 20
127.904268454
 30
0.0
 10
166.2088968556
 20
128.1940438036
 30
0.0
 10
165.772333372
 20
128.4760339499
 30
0.0
 10
165.368699366
 20
128.7442433092
 30
0.0
 10
165.0097160649
 20
128.9959649781
 30
0.0
 10
164.7003351063
 20
129.2306432765
 30
0.0
 10
164.4429446153
 20
129.4493481771
 30
0.0
 10
164.2419294925
 20
129.6523595862
 30
0.0
 10
164.1006843508
 20
129.8385865329
 30
0.0
 10
164.0184034353
 20
130.0078858328
 30
0.0
 10
163.994433287
 20
130.1645822383
 30
0.0
 10
164.0324004712
 20
130.3090155007
 30
0.0
 10
164.1321953152
 20
130.4361338111
 30
0.0
 10
164.2906467958
 20
130.5492086385
 30
0.0
 10
164.5138052262
 20
130.6516522284
 30
0.0
 10
164.8068059484
 20
130.7423185458
 30
0.0
 10
165.1646716537
 20
130.8186435971
 30
0.0
 10
165.5697129717
 20
130.8805120562
 30
0.0
 10
165.9989737791
 20
130.9288809611
 30
0.0
 10
166.433321374
 20
130.9662456366
 30
0.0
 10
166.8602466956
 20
130.9955991408
 30
0.0
 10
167.2699361292
 20
131.0198522611
 30
0.0
 10
167.6531472115
 20
131.0414509178
 30
0.0
 10
168.0010058595
 20
131.062969111
 30
0.0
 10
168.3061601836
 20
131.0856323204
 30
0.0
 10
168.5600614145
 20
131.1116321539
 30
0.0
 10
168.758555819
 20
131.1388523965
 30
0.0
 10
168.893247706
 20
131.1746063336
 30
0.0
 10
168.9815898021
 20
131.2056233044
 30
0.0
 10
169.0140300263
 20
131.2733946905
 30
0.0
 10
168.983973918
 20
131.3034503805
 30
0.0
 10
168.9668932169
 20
131.3177918084
 30
0.0
 11
166.503959033
 21
111.1061497995
 31
0.0
 11
166.9543991587
 21
111.4830693236
 31
0.0
 11
167.4147443932
 21
111.8784227418
 31
0.0
 11
167.8452251675
 21
112.2735687786
 31
0.0
 11
168.2159951636
 21
112.6556966661
 31
0.0
 11
168.5092842575
 21
113.0132669834
 31
0.0
 11
168.727823553
 21
113.3464591844
 31
0.0
 11
168.8796090606
 21
113.6618588588
 31
0.0
 11
168.9698874992
 21
113.9649849179
 31
0.0
 11
169.0035225972
 21
114.260893491
 31
0.0
 11
168.9827863699
 21
114.5609181737
 31
0.0
 11
168.9047488383
 21
114.870030327
 31
0.0
 11
168.7664435094
 21
115.1892430244
 31
0.0
 11
168.5623724566
 21
115.5247764386
 31
0.0
 11
168.2915460222
 21
115.8776068386
 31
0.0
 11
167.9585564321
 21
116.2447816567
 31
0.0
 11
167.5780517823
 21
116.6170060893
 31
0.0
 11
167.164037792
 21
116.9911292638
 31
0.0
 11
166.7205800929
 21
117.3749570884
 31
0.0
 11
166.2539606776
 21
117.7742970788
 31
0.0
 11
165.7854530701
 21
118.1837570903
 31
0.0
 11
165.3415196308
 21
118.5934586895
 31
0.0
 11
164.9539874205
 21
118.98499458
 31
0.0
 11
164.6438606687
 21
119.3416865005
 31
0.0
 11
164.400096764
 21
119.6750482789
 31
0.0
 11
164.2185612964
 21
119.9873305633
 31
0.0
 11
164.0948460406
 21
120.28120175
 31
0.0
 11
164.0239441481
 21
120.5636991812
 31
0.0
 11
164.0051355712
 21
120.8442261098
 31
0.0
 11
164.0409725593
 21
121.1247273789
 31
0.0
 11
164.1332001042
 21
121.4027727862
 31
0.0
 11
164.2869065971
 21
121.6832741117
 31
0.0
 11
164.5096024012
 21
121.9684772045
 31
0.0
 11
164.8029617658
 21
122.2568899984
 31
0.0
 11
165.1551558033
 21
122.5406160818
 31
0.0
 11
165.5488331873
 21
122.8135943032
 31
0.0
 11
165.974632781
 21
123.0779879185
 31
0.0
 11
166.4235102642
 21
123.3374745244
 31
0.0
 11
166.8748306401
 21
123.5900613497
 31
0.0
 11
167.3036073701
 21
123.8318339704
 31
0.0
 11
167.6957561701
 21
124.0633488186
 31
0.0
 11
168.0432720537
 21
124.286310579
 31
0.0
 11
168.3418380507
 21
124.5036752581
 31
0.0
 11
168.5887119919
 21
124.7195602796
 31
0.0
 11
168.7809790268
 21
124.9375839667
 31
0.0
 11
168.9124921924
 21
125.1521567939
 31
0.0
 11
168.9843478158
 21
125.3577117947
 31
0.0
 11
169.0036265164
 21
125.5590460183
 31
0.0
 11
168.9720734355
 21
125.7672929324
 31
0.0
 11
168.8848535251
 21
125.9907319706
 31
0.0
 11
168.7343817666
 21
126.2324209827
 31
0.0
 11
168.5171063377
 21
126.4904688891
 31
0.0
 11
168.232737601
 21
126.7632866399
 31
0.0
 11
167.8958460577
 21
127.0414058444
 31
0.0
 11
167.5204729469
 21
127.3207482332
 31
0.0
 11
167.1075774757
 21
127.6067115102
 31
0.0
 11
166.6608590407
 21
127.9019259018
 31
0.0
 11
166.2037939609
 21
128.1974800568
 31
0.0
 11
165.762657885
 21
128.4836873344
 31
0.0
 11
165.3560041695
 21
128.7552620575
 31
0.0
 11
164.9972982334
 21
129.008224556
 31
0.0
 11
164.6897496538
 21
129.2434605268
 31
0.0
 11
164.43336053
 21
129.4643882845
 31
0.0
 11
164.2338074864
 21
129.6704956939
 31
0.0
 11
164.0979063216
 21
129.8562445988
 31
0.0
 11
164.0230444978
 21
130.0213634882
 31
0.0
 11
164.0045159701
 21
130.1681815565
 31
0.0
 11
164.0390319968
 21
130.2999189834
 31
0.0
 11
164.1288059665
 21
130.4214848002
 31
0.0
 11
164.2786841333
 21
130.5343071677
 31
0.0
 11
164.4955965266
 21
130.6382363907
 31
0.0
 11
164.7865202671
 21
130.7317192059
 31
0.0
 11
165.1500436933
 21
130.812028448
 31
0.0
 11
165.5639037045
 21
130.8769049888
 31
0.0
 11
165.998609406
 21
130.9269066732
 31
0.0
 11
166.4361587751
 21
130.9652165192
 31
0.0
 11
166.8660733078
 21
130.9953004012
 31
0.0
 11
167.2788951051
 21
131.0201808513
 31
0.0
 11
167.6649431475
 21
131.0424863265
 31
0.0
 11
168.0153918898
 21
131.0646312425
 31
0.0
 11
168.3223477322
 21
131.0883936028
 31
0.0
 11
168.5793931156
 21
131.1152906021
 31
0.0
 11
168.7774976043
 21
131.1462966343
 31
0.0
 11
168.911524886
 21
131.1818802776
 31
0.0
 11
168.984704545
 21
131.2221326731
 31
0.0
 11
169.0024408971
 21
131.2669037319
 31
0.0
 11
168.9668932169
 21
131.3177918084
 31
0.0
  0
SPLINE
  5
31A
100
AcDbEntity
  8
0
100
AcDbSpline
 62
7
  6
CONTINUOUS
 70
0
 71
3
 72
21
 73
17
 74
15
 42
0.0000001
 43
0.0000001
 44
0.0000000001
 12
-2.71318535
 22
-0.5237397388
 32
0.0
 13
2.239666309
 23
1.5608388265
 33
0.0
 40
0.0
 40
0.0
 40
0.0
 40
0.0
 40
0.0995268006
 40
0.1979912767
 40
0.2954303519
 40
0.3919354237
 40
0.4884603944
 40
0.5864628749
 40
0.6845807935
 40
0.7742997891
 40
0.8437112067
 40
0.8886808408
 40
0.9134609193
 40
0.9307930163
 40
0.9601100581
 40
1.0
 40
1.0
 40
1.0
 40
1.0
 10
166.5039590332
 20
90.2197246282
 30
0.0
 10
166.4139474807
 20
90.202349248
 30
0.0
 10
166.2347339029
 20
90.1685611886
 30
0.0
 10
165.9668833302
 20
90.1205392582
 30
0.0
 10
165.7013254683
 20
90.0755519525
 30
0.0
 10
165.4370705619
 20
90.0337081286
 30
0.0
 10
165.1717481277
 20
89.9951928021
 30
0.0
 10
164.9044688631
 20
89.9609192212
 30
0.0
 10
164.6421776749
 20
89.9337502242
 30
0.0
 10
164.4068492448
 20
89.9181252203
 30
0.0
 10
164.2156001902
 20
89.9174241989
 30
0.0
 10
164.0939815525
 20
89.9318019652
 30
0.0
 10
164.0064310405
 20
89.9611509245
 30
0.0
 10
164.0030662075
 20
90.0376273782
 30
0.0
 10
164.0669215147
 20
90.0935809859
 30
0.0
 10
164.1170643161
 20
90.1319093245
 30
0.0
 10
164.1468443691
 20
90.1526632479
 30
0.0
 11
166.5039590332
 21
90.2197246282
 31
0.0
 11
166.2336979625
 21
90.1687854052
 31
0.0
 11
165.9658780133
 21
90.1208030564
 31
0.0
 11
165.7003999657
 21
90.0758877516
 31
0.0
 11
165.4369966619
 21
90.0342762507
 31
0.0
 11
165.1730154956
 21
89.9961174965
 31
0.0
 11
164.9043639098
 21
89.9620133933
 31
0.0
 11
164.6346155409
 21
89.9347104286
 31
0.0
 11
164.3871468136
 21
89.9197904553
 31
0.0
 11
164.1953550297
 21
89.9218368478
 31
0.0
 11
164.0725261675
 21
89.9406639016
 31
0.0
 11
164.0129159142
 21
89.9743584601
 31
0.0
 11
164.0086857743
 21
90.0220645993
 31
0.0
 11
164.0589542755
 21
90.0855930073
 31
0.0
 11
164.1468443691
 21
90.1526632479
 31
0.0
  0
SPLINE
  5
31B
100
AcDbEntity
  8
0
100
AcDbSpline
 62
7
  6
CONTINUOUS
 70
0
 71
3
 72
78
 73
74
 74
72
 42
0.0000001
 43
0.0000001
 44
0.0000000001
 12
23.1569236193
 22
14.7316697322
 32
0.0
 13
21.0590363177
 23
17.5938615683
 33
0.0
 40
0.0
 40
0.0
 40
0.0
 40
0.0
 40
0.0043786654
 40
0.0151715863
 40
0.0237851474
 40
0.0306439004
 40
0.0361939498
 40
0.0411701608
 40
0.046436432
 40
0.0527720146
 40
0.0607591941
 40
0.0705272189
 40
0.0819182219
 40
0.0948397896
 40
0.1091013356
 40
0.1244859771
 40
0.1407063882
 40
0.1574059482
 40
0.1741438112
 40
0.190472554
 40
0.2059285215
 40
0.2200300901
 40
0.2322173188
 40
0.2424889076
 40
0.2512878867
 40
0.2591841427
 40
0.2668900992
 40
0.2752160065
 40
0.2848953017
 40
0.2964228676
 40
0.3099654507
 40
0.3258949625
 40
0.3446598868
 40
0.3658975625
 40
0.3879662335
 40
0.4096520706
 40
0.4306203114
 40
0.4506754589
 40
0.4697129255
 40
0.4875031808
 40
0.5034892872
 40
0.5173750709
 40
0.5294456878
 40
0.5402760881
 40
0.5503975513
 40
0.56009608
 40
0.5698539113
 40
0.5803469016
 40
0.5921357673
 40
0.6056024732
 40
0.6209574383
 40
0.6383694709
 40
0.6572809509
 40
0.6770700698
 40
0.6973898813
 40
0.7179910487
 40
0.7383875718
 40
0.7579737513
 40
0.7761626711
 40
0.7923921791
 40
0.806685606
 40
0.8194450721
 40
0.8313430974
 40
0.8427672801
 40
0.8541841212
 40
0.8663981725
 40
0.8800365419
 40
0.895628911
 40
0.9135904306
 40
0.933903116
 40
0.9558238832
 40
0.9782829132
 40
1.0
 40
1.0
 40
1.0
 40
1.0
 10
168.3128837784
 20
92.15076769
 30
0.0
 10
168.3466825853
 20
92.1722693743
 30
0.0
 10
168.4628804016
 20
92.2482031032
 30
0.0
 10
168.6391677201
 20
92.3762056684
 30
0.0
 10
168.8173097951
 20
92.5384808378
 30
0.0
 10
168.9370447105
 20
92.69044404
 30
0.0
 10
169.0025676447
 20
92.8382426957
 30
0.0
 10
169.0078480617
 20
92.9867707518
 30
0.0
 10
168.9487113916
 20
93.1305332823
 30
0.0
 10
168.8292110929
 20
93.2668264347
 30
0.0
 10
168.6510083183
 20
93.3982375973
 30
0.0
 10
168.4161103679
 20
93.5253883518
 30
0.0
 10
168.1305793214
 20
93.6509706331
 30
0.0
 10
167.8007168417
 20
93.7764820312
 30
0.0
 10
167.4327291392
 20
93.9038357383
 30
0.0
 10
167.034055827
 20
94.0345390095
 30
0.0
 10
166.6138752315
 20
94.1712011766
 30
0.0
 10
166.183412156
 20
94.3162558771
 30
0.0
 10
165.7556438045
 20
94.4721584588
 30
0.0
 10
165.3450144582
 20
94.6410913335
 30
0.0
 10
164.9668191828
 20
94.8239402273
 30
0.0
 10
164.6382288984
 20
95.0198239782
 30
0.0
 10
164.3743252121
 20
95.227353179
 30
0.0
 10
164.1830339932
 20
95.4423630274
 30
0.0
 10
164.061623697
 20
95.6596622145
 30
0.0
 10
164.0030629839
 20
95.8775022768
 30
0.0
 10
164.0009869713
 20
96.098505418
 30
0.0
 10
164.0525320558
 20
96.3296940402
 30
0.0
 10
164.1601347386
 20
96.5788715897
 30
0.0
 10
164.3294382131
 20
96.848998668
 30
0.0
 10
164.5643306536
 20
97.1421498142
 30
0.0
 10
164.8698357446
 20
97.4610730582
 30
0.0
 10
165.2463211738
 20
97.8078270589
 30
0.0
 10
165.6800932227
 20
98.1743397125
 30
0.0
 10
166.143931824
 20
98.5462311604
 30
0.0
 10
166.6093353697
 20
98.9121428167
 30
0.0
 10
167.0584357688
 20
99.2689989917
 30
0.0
 10
167.4820395007
 20
99.6189302874
 30
0.0
 10
167.871329419
 20
99.964394324
 30
0.0
 10
168.2156543003
 20
100.3036820119
 30
0.0
 10
168.5031624734
 20
100.6321334824
 30
0.0
 10
168.7256639517
 20
100.9457718433
 30
0.0
 10
168.8823682961
 20
101.2449222636
 30
0.0
 10
168.9777706754
 20
101.5332108493
 30
0.0
 10
169.0131473685
 20
101.813285562
 30
0.0
 10
168.9909182875
 20
102.084869513
 30
0.0
 10
168.9137894096
 20
102.3494174799
 30
0.0
 10
168.7841475272
 20
102.6135683299
 30
0.0
 10
168.5995008257
 20
102.8845082941
 30
0.0
 10
168.3560848681
 20
103.1659767512
 30
0.0
 10
168.0509588207
 20
103.4594291169
 30
0.0
 10
167.6893344331
 20
103.7641981485
 30
0.0
 10
167.2833994749
 20
104.0784297737
 30
0.0
 10
166.849252958
 20
104.3993446893
 30
0.0
 10
166.4007714068
 20
104.7268247546
 30
0.0
 10
165.951289158
 20
105.0623565382
 30
0.0
 10
165.5165169604
 20
105.4061778226
 30
0.0
 10
165.1154278886
 20
105.7563134905
 30
0.0
 10
164.7669147709
 20
106.1071707841
 30
0.0
 10
164.4826396306
 20
106.4512816662
 30
0.0
 10
164.2664108093
 20
106.7841957111
 30
0.0
 10
164.1156715185
 20
107.1085640275
 30
0.0
 10
164.0269525151
 20
107.4281097893
 30
0.0
 10
163.9956815458
 20
107.7459409078
 30
0.0
 10
164.0204346227
 20
108.067240235
 30
0.0
 10
164.1050191757
 20
108.3991634925
 30
0.0
 10
164.2572853528
 20
108.7478779318
 30
0.0
 10
164.4821129005
 20
109.1176100538
 30
0.0
 10
164.7835281631
 20
109.5084170126
 30
0.0
 10
165.1574944226
 20
109.9132996012
 30
0.0
 10
165.5869227461
 20
110.3208270401
 30
0.0
 10
166.0419708118
 20
110.719027958
 30
0.0
 10
166.3515120596
 20
110.9787873264
 30
0.0
 10
166.503959033
 20
111.1061497995
 30
0.0
 11
168.3128837784
 21
92.15076769
 31
0.0
 11
168.4134417333
 21
92.216575726
 31
0.0
 11
168.651543457
 21
92.3927163778
 31
0.0
 11
168.8240000408
 21
92.5543591458
 31
0.0
 11
168.9371944598
 21
92.7047296544
 31
0.0
 11
168.9946798019
 21
92.8457649726
 31
0.0
 11
168.9983185771
 21
92.9822703673
 31
0.0
 11
168.9464703124
 21
93.1171626028
 31
0.0
 11
168.8356522467
 21
93.2511236535
 31
0.0
 11
168.661802294
 21
93.38459866
 31
0.0
 11
168.4277527718
 21
93.5152522847
 31
0.0
 11
168.1424777649
 21
93.6430300126
 31
0.0
 11
167.8116020914
 21
93.7705128598
 31
0.0
 11
167.4421137473
 21
93.8995004443
 31
0.0
 11
167.0412713574
 21
94.0320041053
 31
0.0
 11
166.6182827191
 21
94.1705801377
 31
0.0
 11
166.1843531713
 21
94.3179089336
 31
0.0
 11
165.7532533477
 21
94.4763955591
 31
0.0
 11
165.3394792653
 21
94.648351852
 31
0.0
 11
164.9586514305
 21
94.8350560654
 31
0.0
 11
164.62810066
 21
95.036249485
 31
0.0
 11
164.3677623715
 21
95.2461779878
 31
0.0
 11
164.1829710005
 21
95.4590175152
 31
0.0
 11
164.067308587
 21
95.6709681813
 31
0.0
 11
164.0118502909
 21
95.8804347796
 31
0.0
 11
164.0087877712
 21
96.0918743518
 31
0.0
 11
164.0561279793
 21
96.3153900933
 31
0.0
 11
164.158828417
 21
96.5603447406
 31
0.0
 11
164.3241634088
 21
96.8300300418
 31
0.0
 11
164.5544160197
 21
97.1217320396
 31
0.0
 11
164.8547865998
 21
97.4393129227
 31
0.0
 11
165.2319405903
 21
97.7899017438
 31
0.0
 11
165.67583311
 21
98.1675310131
 31
0.0
 11
166.1472638805
 21
98.5476585236
 31
0.0
 11
166.6141746395
 21
98.9166090712
 31
0.0
 11
167.0638097684
 21
99.2756486985
 31
0.0
 11
167.4870647548
 21
99.6274005975
 31
0.0
 11
167.8766753372
 21
99.9754228637
 31
0.0
 11
168.2228497019
 21
100.3196483901
 31
0.0
 11
168.5096100092
 21
100.6516254762
 31
0.0
 11
168.7275296861
 21
100.9642049081
 31
0.0
 11
168.8789302238
 21
101.2588127008
 31
0.0
 11
168.9701065735
 21
101.541682119
 31
0.0
 11
169.0037852501
 21
101.8173791551
 31
0.0
 11
168.9821458936
 21
102.0826385632
 31
0.0
 11
168.9087664219
 21
102.3401557882
 31
0.0
 11
168.7838623166
 21
102.5995962969
 31
0.0
 11
168.6036065851
 21
102.8682253487
 31
0.0
 11
168.3635915173
 21
103.1492161715
 31
0.0
 11
168.0616713833
 21
103.4431364539
 31
0.0
 11
167.6978512383
 21
103.7528730811
 31
0.0
 11
167.2886249877
 21
104.0720117816
 31
0.0
 11
166.8528501474
 21
104.3960374
 31
0.0
 11
166.4034235529
 21
104.7260928673
 31
0.0
 11
165.9513836346
 21
105.0655787457
 31
0.0
 11
165.5136300281
 21
105.4143547082
 31
0.0
 11
165.1102777734
 21
105.7695757398
 31
0.0
 11
164.7602058738
 21
106.1253547481
 31
0.0
 11
164.4785904308
 21
106.4703732045
 31
0.0
 11
164.2672493848
 21
106.8007970544
 31
0.0
 11
164.1216549902
 21
107.1192276708
 31
0.0
 11
164.0352483568
 21
107.4340842344
 31
0.0
 11
164.0048531462
 21
107.7461021038
 31
0.0
 11
164.0284953459
 21
108.058502152
 31
0.0
 11
164.1098907885
 21
108.3836384974
 31
0.0
 11
164.2570432849
 21
108.7277504182
 31
0.0
 11
164.4768509934
 21
109.0948498273
 31
0.0
 11
164.7755726838
 21
109.4869008988
 31
0.0
 11
165.1516601912
 21
109.898314347
 31
0.0
 11
165.5860194572
 21
110.3144592465
 31
0.0
 11
166.0484765739
 21
110.7218488203
 31
0.0
 11
166.503959033
 21
111.1061497995
 31
0.0
  0
SPLINE
  5
31C
100
AcDbEntity
  8
0
100
AcDbSpline
 62
7
  6
CONTINUOUS
 70
0
 71
3
 72
15
 73
11
 74
9
 42
0.0000001
 43
0.0000001
 44
0.0000000001
 12
-0.9130901403
 22
0.0
 32
0.0
 13
-0.0
 23
-0.9130901403
 33
0.0
 40
0.0
 40
0.0
 40
0.0
 40
0.0
 40
0.095594498
 40
0.1995281968
 40
0.3092175201
 40
0.4273815356
 40
0.5557358605
 40
0.6930947067
 40
0.8403493616
 40
1.0
 40
1.0
 40
1.0
 40
1.0
 10
126.4037606934
 20
89.9220608412
 30
0.0
 10
126.3746652289
 20
89.9220608412
 30
0.0
 10
126.3137186566
 20
89.9149203965
 30
0.0
 10
126.224598223
 20
89.8821543453
 30
0.0
 10
126.1393933421
 20
89.8264755941
 30
0.0
 10
126.0623323574
 20
89.7492058762
 30
0.0
 10
125.9966214104
 20
89.6518076378
 30
0.0
 10
125.9454029132
 20
89.5363525766
 30
0.0
 10
125.9116871894
 20
89.4048088951
 30
0.0
 10
125.9037606934
 20
89.3111927887
 30
0.0
 10
125.9037606934
 20
89.2626009808
 30
0.0
 11
126.4037606934
 21
89.9220608412
 31
0.0
 11
126.3170555098
 21
89.9120047163
 31
0.0
 11
126.2278452069
 21
89.8796366693
 31
0.0
 11
126.1437066341
 21
89.825304608
 31
0.0
 11
126.0670947651
 21
89.7493320962
 31
0.0
 11
126.0010862866
 21
89.6524894278
 31
0.0
 11
125.9498211344
 21
89.5380240904
 31
0.0
 11
125.9161651315
 21
89.4078476816
 31
0.0
 11
125.9037606934
 21
89.2626009808
 31
0.0
  0
SPLINE
  5
31D
100
AcDbEntity
  8
0
100
AcDbSpline
 62
7
  6
CONTINUOUS
 70
0
 71
3
 72
18
 73
14
 74
12
 42
0.0000001
 43
0.0000001
 44
0.0000000001
 12
0.0
 22
-1.7642178701
 32
0.0
 13
-1.7642178701
 23
-0.0
 33
0.0
 40
0.0
 40
0.0
 40
0.0
 40
0.0
 40
0.0948691176
 40
0.1905791476
 40
0.2857584804
 40
0.3791181802
 40
0.470813814
 40
0.5609692284
 40
0.649130721
 40
0.7355549077
 40
0.8230391447
 40
0.9115892404
 40
1.0
 40
1.0
 40
1.0
 40
1.0
 10
135.7037606934
 20
86.5124387132
 30
0.0
 10
135.7037606934
 20
86.4566487824
 30
0.0
 10
135.6977692394
 20
86.3444801092
 30
0.0
 10
135.6705340366
 20
86.1783192193
 30
0.0
 10
135.6249331133
 20
86.0171080332
 30
0.0
 10
135.5615756464
 20
85.8645439916
 30
0.0
 10
135.4812905238
 20
85.7235114552
 30
0.0
 10
135.384971811
 20
85.5966532519
 30
0.0
 10
135.2739146848
 20
85.486753015
 30
0.0
 10
135.1487775127
 20
85.3957294391
 30
0.0
 10
135.0101091876
 20
85.3262164054
 30
0.0
 10
134.8600885926
 20
85.282126661
 30
0.0
 10
134.7557526407
 20
85.2720516927
 30
0.0
 10
134.7037606934
 20
85.2720516927
 30
0.0
 11
135.7037606934
 21
86.5124387132
 31
0.0
 11
135.6947793834
 21
86.3453100695
 31
0.0
 11
135.6673585956
 21
86.1786980874
 31
0.0
 11
135.6214862421
 21
86.017168298
 31
0.0
 11
135.5581080325
 21
85.865143467
 31
0.0
 11
135.4778359943
 21
85.7246931881
 31
0.0
 11
135.3813991937
 21
85.5982097797
 31
0.0
 11
135.2706036813
 21
85.4890501406
 31
0.0
 11
135.1470998091
 21
85.3996396922
 31
0.0
 11
135.0089784702
 21
85.3307650344
 31
0.0
 11
134.8590216278
 21
85.2869683125
 31
0.0
 11
134.7037606934
 21
85.2720516927
 31
0.0
  0
SPLINE
  5
31E
100
AcDbEntity
  8
BEZUGSACHSEN
100
AcDbSpline
 62
7
  6
CONTINUOUS
 70
0
 71
3
 72
11
 73
7
 74
5
 42
0.0000001
 43
0.0000001
 44
0.0000000001
 12
0.0
 22
0.1830126193
 32
0.0
 13
0.1451726273
 23
-0.1114384454
 33
0.0
 40
0.0
 40
0.0
 40
0.0
 40
0.0
 40
0.2465776366
 40
0.4184562595
 40
0.6350985973
 40
1.0
 40
1.0
 40
1.0
 40
1.0
 10
125.7787606934
 20
138.4644562482
 30
0.0
 10
125.7787606934
 20
138.4794985212
 30
0.0
 10
125.778733179
 20
138.5059117834
 30
0.0
 10
125.8081512213
 20
138.5392463156
 30
0.0
 10
125.8583139875
 20
138.5244915878
 30
0.0
 10
125.8861027949
 20
138.5047208545
 30
0.0
 10
125.9037606934
 20
138.4911661728
 30
0.0
 11
125.7787606934
 21
138.4644562482
 31
0.0
 11
125.7854680511
 21
138.5090818143
 31
0.0
 11
125.807618229
 21
138.5314166941
 31
0.0
 11
125.8469260277
 21
138.5262317932
 31
0.0
 11
125.9037606934
 21
138.4911661728
 31
0.0
  0
SPLINE
  5
31F
100
AcDbEntity
  8
0
100
AcDbSpline
 62
7
  6
CONTINUOUS
 70
0
 71
3
 72
15
 73
11
 74
9
 42
0.0000001
 43
0.0000001
 44
0.0000000001
 12
0.0
 22
0.9130899958
 32
0.0
 13
-0.9130899958
 23
0.0
 33
0.0
 40
0.0
 40
0.0
 40
0.0
 40
0.0
 40
0.1598406322
 40
0.3070906132
 40
0.4443104261
 40
0.5725485626
 40
0.6906434484
 40
0.8001389346
 40
0.9041997491
 40
1.0
 40
1.0
 40
1.0
 40
1.0
 10
129.6537606934
 20
89.2626009808
 30
0.0
 10
129.6537606934
 20
89.3112506082
 30
0.0
 10
129.6458199695
 20
89.4049238615
 30
0.0
 10
129.612073066
 20
89.5364741528
 30
0.0
 10
129.5608700769
 20
89.6518479005
 30
0.0
 10
129.495216474
 20
89.7491634412
 30
0.0
 10
129.4182510318
 20
89.8263634449
 30
0.0
 10
129.3331096452
 20
89.8820558515
 30
0.0
 10
129.2439679537
 20
89.9148926122
 30
0.0
 10
129.1829187769
 20
89.9220608412
 30
0.0
 10
129.1537606934
 20
89.9220608412
 30
0.0
 11
129.6537606934
 21
89.2626009808
 31
0.0
 11
129.6413266031
 21
89.4080192383
 31
0.0
 11
129.6076440612
 21
89.5381843526
 31
0.0
 11
129.5564144436
 21
89.652526481
 31
0.0
 11
129.4904675838
 21
89.7492827358
 31
0.0
 11
129.4139140842
 21
89.8252244376
 31
0.0
 11
129.3299498197
 21
89.8795001166
 31
0.0
 11
129.2406499942
 21
89.911961637
 31
0.0
 11
129.1537606934
 21
89.9220608412
 31
0.0
  0
SPLINE
  5
320
100
AcDbEntity
  8
BEZUGSACHSEN
100
AcDbSpline
 62
7
  6
CONTINUOUS
 70
0
 71
3
 72
12
 73
8
 74
6
 42
0.0000001
 43
0.0000001
 44
0.0000000001
 12
0.1458774432
 22
0.1119794812
 32
0.0
 13
-0.0
 23
-0.1839011491
 33
0.0
 40
0.0
 40
0.0
 40
0.0
 40
0.0
 40
0.3119503866
 40
0.5109744676
 40
0.6456308384
 40
0.7914381086
 40
1.0
 40
1.0
 40
1.0
 40
1.0
 10
129.6537606934
 20
138.4911661728
 30
0.0
 10
129.668929535
 20
138.502810187
 30
0.0
 10
129.6947847414
 20
138.520266611
 30
0.0
 10
129.7323540543
 20
138.5361441975
 30
0.0
 10
129.7638403061
 20
138.5283038114
 30
0.0
 10
129.7775350737
 20
138.4987923401
 30
0.0
 10
129.7787606934
 20
138.477241172
 30
0.0
 10
129.7787606934
 20
138.4644562482
 30
0.0
 11
129.6537606934
 21
138.4911661728
 31
0.0
 11
129.7019443291
 21
138.5223018219
 31
0.0
 11
129.736987121
 21
138.5328667714
 31
0.0
 11
129.7606731534
 21
138.5256417532
 31
0.0
 11
129.7743051103
 21
138.5025513433
 31
0.0
 11
129.7787606934
 21
138.4644562482
 31
0.0
  0
SPLINE
  5
321
100
AcDbEntity
  8
BEZUGSACHSEN
100
AcDbSpline
 62
7
  6
CONTINUOUS
 70
0
 71
3
 72
16
 73
12
 74
10
 42
0.0000001
 43
0.0000001
 44
0.0000000001
 12
0.4973714463
 22
-0.1381690781
 32
0.0
 13
0.2447633051
 23
0.4552915049
 33
0.0
 40
0.0
 40
0.0
 40
0.0
 40
0.0
 40
0.2054084362
 40
0.3821123936
 40
0.5239763358
 40
0.6383788277
 40
0.7345406286
 40
0.8178119434
 40
0.8930732946
 40
0.9645140243
 40
1.0
 40
1.0
 40
1.0
 40
1.0
 10
129.1537606934
 20
137.9964821319
 30
0.0
 10
129.187815457
 20
137.9870217672
 30
0.0
 10
129.25249751
 20
137.9737869136
 30
0.0
 10
129.3427816024
 20
137.9683444937
 30
0.0
 10
129.4172884747
 20
137.9742984654
 30
0.0
 10
129.476659348
 20
137.9876154608
 30
0.0
 10
129.5240033842
 20
138.005920412
 30
0.0
 10
129.5619816343
 20
138.0282008273
 30
0.0
 10
129.5922419454
 20
138.0540361401
 30
0.0
 10
129.6120078619
 20
138.078605435
 30
0.0
 10
129.6214497335
 20
138.094445689
 30
0.0
 10
129.6243449551
 20
138.0998311767
 30
0.0
 11
129.1537606934
 21
137.9964821319
 31
0.0
 11
129.25769111
 21
137.9754702932
 31
0.0
 11
129.3487629162
 21
137.9703485152
 31
0.0
 11
129.421729776
 21
137.9765636376
 31
0.0
 11
129.4792761081
 21
137.9898281762
 31
0.0
 11
129.5254613534
 21
138.008021222
 31
0.0
 11
129.5624092215
 21
138.0299889538
 31
0.0
 11
129.5918531501
 21
138.0553347222
 31
0.0
 11
129.6149449802
 21
138.0840882649
 31
0.0
 11
129.6243449551
 21
138.0998311767
 31
0.0
  0
SPLINE
  5
322
100
AcDbEntity
  8
BEZUGSACHSEN
100
AcDbSpline
 62
7
  6
CONTINUOUS
 70
0
 71
3
 72
11
 73
7
 74
5
 42
0.0000001
 43
0.0000001
 44
0.0000000001
 12
0.0661784389
 22
0.1231004829
 32
0.0
 13
-0.0
 23
0.1395704877
 33
0.0
 40
0.0
 40
0.0
 40
0.0
 40
0.0
 40
0.1327767541
 40
0.408761515
 40
0.7011191023
 40
1.0
 40
1.0
 40
1.0
 40
1.0
 10
129.6243449551
 20
138.0998311767
 30
0.0
 10
129.6272739412
 20
138.1052794709
 30
0.0
 10
129.6355402668
 20
138.1224574228
 30
0.0
 10
129.6457462012
 20
138.1535907573
 30
0.0
 10
129.6524712476
 20
138.1934951125
 30
0.0
 10
129.6537606934
 20
138.2210303996
 30
0.0
 10
129.6537606934
 20
138.2349353839
 30
0.0
 11
129.6243449551
 21
138.0998311767
 31
0.0
 11
129.6323998106
 21
138.1165418774
 31
0.0
 11
129.644596291
 21
138.1530793167
 31
0.0
 11
129.6516148846
 21
138.1932756578
 31
0.0
 11
129.6537606934
 21
138.2349353839
 31
0.0
  0
SPLINE
  5
323
100
AcDbEntity
  8
BEZUGSACHSEN
100
AcDbSpline
 62
7
  6
CONTINUOUS
 70
0
 71
3
 72
11
 73
7
 74
5
 42
0.0000001
 43
0.0000001
 44
0.0000000001
 12
0.0
 22
-0.1395867963
 32
0.0
 13
0.0661959442
 23
-0.1231095805
 33
0.0
 40
0.0
 40
0.0
 40
0.0
 40
0.0
 40
0.2989089425
 40
0.5912641764
 40
0.8672480948
 40
1.0
 40
1.0
 40
1.0
 40
1.0
 10
125.9037606934
 20
138.2349353839
 30
0.0
 10
125.9037606934
 20
138.22102747
 30
0.0
 10
125.9050506139
 20
138.1934877506
 30
0.0
 10
125.9117780621
 20
138.153577789
 30
0.0
 10
125.9219868049
 20
138.1224426569
 30
0.0
 10
125.9302549633
 20
138.1052644498
 30
0.0
 10
125.9331841758
 20
138.0998167726
 30
0.0
 11
125.9037606934
 21
138.2349353839
 31
0.0
 11
125.9059074472
 21
138.1932669058
 31
0.0
 11
125.9129282985
 21
138.1530664523
 31
0.0
 11
125.9251285451
 21
138.1165256492
 31
0.0
 11
125.9331841758
 21
138.0998167726
 31
0.0
  0
SPLINE
  5
324
100
AcDbEntity
  8
BEZUGSACHSEN
100
AcDbSpline
 62
7
  6
CONTINUOUS
 70
0
 71
3
 72
16
 73
12
 74
10
 42
0.0000001
 43
0.0000001
 44
0.0000000001
 12
0.244791693
 22
-0.4552575388
 32
0.0
 13
0.497355697
 23
0.1381647029
 33
0.0
 40
0.0
 40
0.0
 40
0.0
 40
0.0
 40
0.0354819688
 40
0.1069116572
 40
0.1821577292
 40
0.2654043123
 40
0.3615453499
 40
0.4759438992
 40
0.6177190239
 40
0.7944984177
 40
1.0
 40
1.0
 40
1.0
 40
1.0
 10
125.9331841758
 20
138.0998167726
 30
0.0
 10
125.9360794062
 20
138.0944322947
 30
0.0
 10
125.9455208321
 20
138.0785954855
 30
0.0
 10
125.9652840629
 20
138.0540321434
 30
0.0
 10
125.9955368461
 20
138.0282037228
 30
0.0
 10
126.0335038443
 20
138.0059278864
 30
0.0
 10
126.0808370515
 20
137.9876232124
 30
0.0
 10
126.1401859885
 20
137.974306526
 30
0.0
 10
126.2146865511
 20
137.9683447031
 30
0.0
 10
126.304982441
 20
137.9737793192
 30
0.0
 10
126.3696915658
 20
137.9870177769
 30
0.0
 10
126.4037606934
 20
137.9964821319
 30
0.0
 11
125.9331841758
 21
138.0998167726
 31
0.0
 11
125.9425839597
 21
138.0840768379
 31
0.0
 11
125.9656729631
 21
138.0553298327
 31
0.0
 11
125.9951102533
 21
138.0299903275
 31
0.0
 11
126.0320451918
 21
138.008028493
 31
0.0
 11
126.0782177353
 21
137.9898367341
 31
0.0
 11
126.135759273
 21
137.976568783
 31
0.0
 11
126.2086774748
 21
137.9703499321
 31
0.0
 11
126.2997857844
 21
137.9754646743
 31
0.0
 11
126.4037606934
 21
137.9964821319
 31
0.0
  0
SPLINE
  5
325
100
AcDbEntity
  8
0
100
AcDbSpline
 62
7
  6
CONTINUOUS
 70
0
 71
3
 72
80
 73
76
 74
74
 42
0.0000001
 43
0.0000001
 44
0.0000000001
 12
-27.2789357759
 22
-5.6922772174
 32
0.0
 13
-21.4770219339
 23
-17.7477211253
 33
0.0
 40
0.0
 40
0.0
 40
0.0
 40
0.0
 40
0.0064567233
 40
0.0176224487
 40
0.026364786
 40
0.0331956434
 40
0.0386806199
 40
0.0435101223
 40
0.0486170617
 40
0.0547909574
 40
0.0625973491
 40
0.0724052452
 40
0.0841435328
 40
0.0976284697
 40
0.112767217
 40
0.1293632588
 40
0.1470923965
 40
0.1655316363
 40
0.1841539408
 40
0.2023657903
 40
0.21973989
 40
0.2359823906
 40
0.2507147283
 40
0.2634354074
 40
0.2741587381
 40
0.283148236
 40
0.2908717642
 40
0.298004887
 40
0.3053646851
 40
0.3136883952
 40
0.3233740164
 40
0.3344529221
 40
0.3469464753
 40
0.3608140355
 40
0.3759502143
 40
0.3922263486
 40
0.4094795955
 40
0.427382258
 40
0.4455101635
 40
0.4633516449
 40
0.4803422159
 40
0.4960106129
 40
0.5099050926
 40
0.5220496718
 40
0.5328581885
 40
0.5430083539
 40
0.5529305821
 40
0.5629069598
 40
0.5734485018
 40
0.5851586817
 40
0.5985242736
 40
0.6137896847
 40
0.6313097436
 40
0.6509799759
 40
0.671870413
 40
0.6931607405
 40
0.7144487103
 40
0.7353886158
 40
0.7555887039
 40
0.7746412685
 40
0.7920420082
 40
0.8074208586
 40
0.8208991387
 40
0.8329083132
 40
0.8440018579
 40
0.8545325893
 40
0.8650689368
 40
0.8763757143
 40
0.8889915218
 40
0.9034420635
 40
0.9200186326
 40
0.9386754913
 40
0.95878305
 40
0.9795324677
 40
1.0
 40
1.0
 40
1.0
 40
1.0
 10
166.1747702909
 20
130.5704248217
 30
0.0
 10
166.1160594443
 20
130.5581736687
 30
0.0
 10
165.9564140947
 20
130.5219144689
 30
0.0
 10
165.7209737806
 20
130.4531831893
 30
0.0
 10
165.4921585949
 20
130.3544108772
 30
0.0
 10
165.3279953056
 20
130.2456236083
 30
0.0
 10
165.2211214986
 20
130.1236012336
 30
0.0
 10
165.1741361654
 20
129.9838844063
 30
0.0
 10
165.1889617675
 20
129.831410002
 30
0.0
 10
165.261415457
 20
129.6675294513
 30
0.0
 10
165.3914111193
 20
129.4876528149
 30
0.0
 10
165.5806321997
 20
129.2906206364
 30
0.0
 10
165.8269628783
 20
129.0776637557
 30
0.0
 10
166.1246625084
 20
128.849659393
 30
0.0
 10
166.4680179724
 20
128.6077229897
 30
0.0
 10
166.8504460591
 20
128.3531604554
 30
0.0
 10
167.2624657384
 20
128.0878845454
 30
0.0
 10
167.6914637451
 20
127.8142404434
 30
0.0
 10
168.1226733474
 20
127.5357228041
 30
0.0
 10
168.5409838771
 20
127.2555389455
 30
0.0
 10
168.9332029961
 20
126.976362848
 30
0.0
 10
169.2877610925
 20
126.7005477301
 30
0.0
 10
169.5921920128
 20
126.4316264254
 30
0.0
 10
169.8355871887
 20
126.1729006654
 30
0.0
 10
170.0135579856
 20
125.9285784203
 30
0.0
 10
170.1277473741
 20
125.6991215467
 30
0.0
 10
170.1834263979
 20
125.4827669472
 30
0.0
 10
170.1843340446
 20
125.2742130875
 30
0.0
 10
170.1308097605
 20
125.0669792511
 30
0.0
 10
170.0204068631
 20
124.8568679202
 30
0.0
 10
169.8511104795
 20
124.6447444175
 30
0.0
 10
169.6250561279
 20
124.4331431596
 30
0.0
 10
169.3477478635
 20
124.2227256214
 30
0.0
 10
169.0257099579
 20
124.010711004
 30
0.0
 10
168.664683077
 20
123.7949321587
 30
0.0
 10
168.270853417
 20
123.5731537048
 30
0.0
 10
167.8520127997
 20
123.3435390396
 30
0.0
 10
167.4191008739
 20
123.1038088844
 30
0.0
 10
166.9862364621
 20
122.8527998716
 30
0.0
 10
166.5703494658
 20
122.5898784734
 30
0.0
 10
166.1888856677
 20
122.316395629
 30
0.0
 10
165.8585334768
 20
122.0365249323
 30
0.0
 10
165.5912928667
 20
121.7547064775
 30
0.0
 10
165.3934193526
 20
121.4737130776
 30
0.0
 10
165.2614675654
 20
121.1941871709
 30
0.0
 10
165.1896016835
 20
120.9146650576
 30
0.0
 10
165.1749295389
 20
120.6341147366
 30
0.0
 10
165.2155289537
 20
120.3527230471
 30
0.0
 10
165.3085838577
 20
120.0669858216
 30
0.0
 10
165.4550874284
 20
119.7693890459
 30
0.0
 10
165.6596594143
 20
119.4546719072
 30
0.0
 10
165.9268194605
 20
119.1188503525
 30
0.0
 10
166.2588021769
 20
118.7618329568
 30
0.0
 10
166.6476711993
 20
118.3877582867
 30
0.0
 10
167.0763045441
 20
118.0052469266
 30
0.0
 10
167.5244665995
 20
117.6223555336
 30
0.0
 10
167.9755865741
 20
117.2422691551
 30
0.0
 10
168.4159312579
 20
116.8651053407
 30
0.0
 10
168.8317621279
 20
116.4913527046
 30
0.0
 10
169.2074244295
 20
116.1226173025
 30
0.0
 10
169.5290473377
 20
115.7638683965
 30
0.0
 10
169.7876646692
 20
115.4199807265
 30
0.0
 10
169.9806569876
 20
115.0919634565
 30
0.0
 10
170.1094247436
 20
114.7760989858
 30
0.0
 10
170.1778889105
 20
114.4696485158
 30
0.0
 10
170.1883323229
 20
114.1694274129
 30
0.0
 10
170.143032778
 20
113.870530007
 30
0.0
 10
170.0392205473
 20
113.5662021306
 30
0.0
 10
169.8725033292
 20
113.249902042
 30
0.0
 10
169.6392932314
 20
112.9173632371
 30
0.0
 10
169.3373411537
 20
112.567655702
 30
0.0
 10
168.9719232924
 20
112.2057329511
 30
0.0
 10
168.5595820122
 20
111.83748162
 30
0.0
 10
168.123976907
 20
111.4705468819
 30
0.0
 10
167.8284745041
 20
111.2272338179
 30
0.0
 10
167.6819472909
 20
111.1061497996
 30
0.0
 11
166.1747702909
 21
130.5704248217
 31
0.0
 11
165.99937931
 21
130.5303038536
 31
0.0
 11
165.701666826
 21
130.4400581684
 31
0.0
 11
165.4795394131
 21
130.3401254293
 31
0.0
 11
165.3234222551
 21
130.2312793996
 31
0.0
 11
165.2263303782
 21
130.1132690416
 31
0.0
 11
165.1842933298
 21
129.9854485569
 31
0.0
 11
165.1946283316
 21
129.8435391588
 31
0.0
 11
165.259768549
 21
129.6843385367
 31
0.0
 11
165.3838700879
 21
129.5057246261
 31
0.0
 11
165.5708009722
 21
129.3064070182
 31
0.0
 11
165.8165599044
 21
129.0906312183
 31
0.0
 11
166.1138449142
 21
128.8608996766
 31
0.0
 11
166.4579522213
 21
128.6169917542
 31
0.0
 11
166.8423051273
 21
128.3599457166
 31
0.0
 11
167.257104133
 21
128.0917431312
 31
0.0
 11
167.6897701546
 21
127.8147459822
 31
0.0
 11
168.1250783641
 21
127.5324330013
 31
0.0
 11
168.546059004
 21
127.2491781553
 31
0.0
 11
168.9396624255
 21
126.9674107451
 31
0.0
 11
169.2957164283
 21
126.6881020512
 31
0.0
 11
169.6015306928
 21
126.4143228915
 31
0.0
 11
169.8421901534
 21
126.1541470224
 31
0.0
 11
170.0153412884
 21
125.910674534
 31
0.0
 11
170.1241821458
 21
125.6851024064
 31
0.0
 11
170.1755937199
 21
125.4761477449
 31
0.0
 11
170.1759456081
 21
125.2774110003
 31
0.0
 11
170.1261427122
 21
125.0784984673
 31
0.0
 11
170.0206852148
 21
124.8719551869
 31
0.0
 11
169.854806134
 21
124.6591065003
 31
0.0
 11
169.63149643
 21
124.4460087671
 31
0.0
 11
169.3558303173
 21
124.2334734588
 31
0.0
 11
169.0341442121
 21
124.0194712445
 31
0.0
 11
168.6729017815
 21
123.8018834315
 31
0.0
 11
168.2783578343
 21
123.5783395405
 31
0.0
 11
167.857461659
 21
123.3461445835
 31
0.0
 11
167.4217278809
 21
123.1033969073
 31
0.0
 11
166.985599532
 21
122.8486771861
 31
0.0
 11
166.5664015489
 21
122.5815332783
 31
0.0
 11
166.1829421594
 21
122.3039640976
 31
0.0
 11
165.8516644968
 21
122.0196720011
 31
0.0
 11
165.5877721255
 21
121.7364409435
 31
0.0
 11
165.3951377883
 21
121.4582667637
 31
0.0
 11
165.2680899111
 21
121.1852414883
 31
0.0
 11
165.1985098631
 21
120.9111396304
 31
0.0
 11
165.1839706462
 21
120.6350774715
 31
0.0
 11
165.222311542
 21
120.3597811149
 31
0.0
 11
165.3113315624
 21
120.0798974503
 31
0.0
 11
165.4535159359
 21
119.7862503076
 31
0.0
 11
165.654503774
 21
119.472767628
 31
0.0
 11
165.9176059573
 21
119.1386006739
 31
0.0
 11
166.2482190387
 21
118.7794836697
 31
0.0
 11
166.6417411299
 21
118.3980610703
 31
0.0
 11
167.074889143
 21
118.0092889559
 31
0.0
 11
167.5249204559
 21
117.6228614525
 31
0.0
 11
167.9775373533
 21
117.2395672881
 31
0.0
 11
168.4196010124
 21
116.8588482993
 31
0.0
 11
168.8368053777
 21
116.4811157066
 31
0.0
 11
169.2141373662
 21
116.1077561759
 31
0.0
 11
169.535918939
 21
115.7451375622
 31
0.0
 11
169.7911743094
 21
115.4009959695
 31
0.0
 11
169.9790242648
 21
115.0758375082
 31
0.0
 11
170.1033808943
 21
114.765216257
 31
0.0
 11
170.1692977705
 21
114.4632480666
 31
0.0
 11
170.1792554822
 21
114.1700187326
 31
0.0
 11
170.1359110695
 21
113.8796815094
 31
0.0
 11
170.0360459276
 21
113.5809098682
 31
0.0
 11
169.8746003775
 21
113.2686899876
 31
0.0
 11
169.6457148536
 21
112.9374721256
 31
0.0
 11
169.3458851486
 21
112.5861879859
 31
0.0
 11
168.9785797922
 21
112.2183829353
 31
0.0
 11
168.562299489
 21
111.8434736255
 31
0.0
 11
168.1212835142
 21
111.4696986356
 31
0.0
 11
167.6819472909
 21
111.1061497996
 31
0.0
  0
SPLINE
  5
326
100
AcDbEntity
  8
BEZUGSACHSEN
100
AcDbSpline
 62
7
  6
CONTINUOUS
 70
0
 71
3
 72
18
 73
14
 74
12
 42
0.0000001
 43
0.0000001
 44
0.0000000001
 12
2.6737590161
 22
0.7427664394
 32
0.0
 13
2.6737590161
 23
-0.7427664394
 33
0.0
 40
0.0
 40
0.0
 40
0.0
 40
0.0
 40
0.0788628999
 40
0.1647195541
 40
0.2563676281
 40
0.3521236596
 40
0.4503969613
 40
0.5496032532
 40
0.6478758258
 40
0.7436299262
 40
0.8352788674
 40
0.9211360457
 40
1.0
 40
1.0
 40
1.0
 40
1.0
 10
126.4037606934
 20
137.9964821319
 30
0.0
 10
126.4740474899
 20
138.0160077037
 30
0.0
 10
126.622498364
 20
138.0509551587
 30
0.0
 10
126.8562772473
 20
138.0913581312
 30
0.0
 10
127.1072900611
 20
138.1218831015
 30
0.0
 10
127.3708249652
 20
138.1423262772
 30
0.0
 10
127.6419425938
 20
138.1525749195
 30
0.0
 10
127.9155787129
 20
138.1525749084
 30
0.0
 10
128.1866938819
 20
138.1423263742
 30
0.0
 10
128.4502271403
 20
138.1218834876
 30
0.0
 10
128.7012394915
 20
138.0913588378
 30
0.0
 10
128.9350206391
 20
138.0509556791
 30
0.0
 10
129.0834729571
 20
138.0160079648
 30
0.0
 10
129.1537606934
 20
137.9964821319
 30
0.0
 11
126.4037606934
 21
137.9964821319
 31
0.0
 11
126.6165976646
 21
138.0474110944
 31
0.0
 11
126.8512741092
 21
138.0885396508
 31
0.0
 11
127.103691704
 21
138.1196248891
 31
0.0
 11
127.3686011651
 21
138.1404160593
 31
0.0
 11
127.6411116862
 21
138.1508330875
 31
0.0
 11
127.9164102949
 21
138.1508330762
 31
0.0
 11
128.188918795
 21
138.140416142
 31
0.0
 11
128.4538229271
 21
138.1196255649
 31
0.0
 11
128.7062429426
 21
138.0885402923
 31
0.0
 11
128.9409208547
 21
138.0474116832
 31
0.0
 11
129.1537606934
 21
137.9964821319
 31
0.0
  0
SPLINE
  5
327
100
AcDbEntity
  8
0
100
AcDbSpline
 62
7
  6
CONTINUOUS
 70
0
 71
3
 72
21
 73
17
 74
15
 42
0.0000001
 43
0.0000001
 44
0.0000000001
 12
2.8062421577
 22
-0.5417029598
 32
0.0
 13
-2.7461495069
 23
-0.6389441583
 33
0.0
 40
0.0
 40
0.0
 40
0.0
 40
0.0
 40
0.1002905063
 40
0.1998266576
 40
0.2990260647
 40
0.3982120116
 40
0.4978936702
 40
0.5984024219
 40
0.6971798325
 40
0.7847358155
 40
0.8505614883
 40
0.8925475634
 40
0.9158491377
 40
0.9319088181
 40
0.9584852816
 40
1.0
 40
1.0
 40
1.0
 40
1.0
 10
167.6819472909
 20
131.7651820057
 30
0.0
 10
167.7757604398
 20
131.7470727843
 30
0.0
 10
167.9625208655
 20
131.7101539768
 30
0.0
 10
168.2414836458
 20
131.652391672
 30
0.0
 10
168.5188588427
 20
131.5921982968
 30
0.0
 10
168.7957036216
 20
131.5290206541
 30
0.0
 10
169.072969235
 20
131.4620111055
 30
0.0
 10
169.3485729879
 20
131.390478983
 30
0.0
 10
169.6117497974
 20
131.3154038159
 30
0.0
 10
169.8391630418
 20
131.2412697573
 30
0.0
 10
170.0151445198
 20
131.1721395436
 30
0.0
 10
170.1203848069
 20
131.1145609735
 30
0.0
 10
170.1882627931
 20
131.0586691047
 30
0.0
 10
170.1693387831
 20
130.9883910156
 30
0.0
 10
170.0888456154
 20
130.9570361187
 30
0.0
 10
170.0276667562
 20
130.9394753563
 30
0.0
 10
169.9896648818
 20
130.9306334941
 30
0.0
 11
167.6819472909
 21
131.7651820057
 31
0.0
 11
167.9631399433
 21
131.7095910936
 31
0.0
 11
168.2417045684
 21
131.6518841196
 31
0.0
 11
168.51876056
 21
131.5917038403
 31
0.0
 11
168.7951117902
 21
131.5285383935
 31
0.0
 11
169.0719901404
 21
131.4614302108
 31
0.0
 11
169.3499483235
 21
131.3889258982
 31
0.0
 11
169.6212268448
 21
131.3107772203
 31
0.0
 11
169.8587061634
 21
131.2318898185
 31
0.0
 11
170.0326756729
 21
131.160275541
 31
0.0
 11
170.1362396533
 21
131.0996614163
 31
0.0
 11
170.1788363139
 21
131.0484687741
 31
0.0
 11
170.1683069446
 21
131.0037934874
 31
0.0
 11
170.1037367142
 21
130.963791972
 31
0.0
 11
169.9896648818
 21
130.9306334941
 31
0.0
  0
ENDSEC
  0
SECTION
  2
OBJECTS
  0
DICTIONARY
  5
C
100
AcDbDictionary
280
0
281
1
  3
ACAD_GROUP
350
D
  3
ACAD_MLINESTYLE
350
17
  3
ACAD_LAYOUT
350
1A
  3
ACAD_PLOTSETTINGS
350
19
  3
ACAD_PLOTSTYLENAME
350
E
  0
DICTIONARY
  5
D
102
{ACAD_REACTORS
330
C
102
}
100
AcDbDictionary
280
0
281
1
  0
ACDBDICTIONARYWDFLT
  5
E
102
{ACAD_REACTORS
330
C
102
}
100
AcDbDictionary
281
1
  3
Normal
350
F
100
AcDbDictionaryWithDefault
340
F
  0
DICTIONARY
  5
17
102
{ACAD_REACTORS
330
C
102
}
100
AcDbDictionary
280
0
281
1
  3
Standard
350
18
  0
DICTIONARY
  5
19
102
{ACAD_REACTORS
330
C
102
}
100
AcDbDictionary
281
1
  0
DICTIONARY
  5
1A
102
{ACAD_REACTORS
330
C
102
}
100
AcDbDictionary
281
1
  3
Model
350
328
  3
Layout1
350
329
  0
ACDBPLACEHOLDER
  5
F
102
{ACAD_REACTORS
330
E
102
}
  0
MLINESTYLE
  5
18
102
{ACAD_REACTORS
330
17
102
}
100
AcDbMlineStyle
  2
STANDARD
 70
0
  3

 62
256
 51
90.0
 52
90.0
 71
2
 49
0.5
 62
256
  6
BYLAYER
 49
-0.5
 62
256
  6
BYLAYER
  0
LAYOUT
  5
328
102
{ACAD_REACTORS
330
1A
102
}
100
AcDbPlotSettings
  1

  2
none_device
  4
ISO_A4_(297.00_x_210.00_MM)
  6

 40
0.0
 41
0.0
 42
0.0
 43
0.0
 44
297.0
 45
210.0
 46
0.0
 47
0.0
 48
0.0
 49
0.0
140
0.0
141
0.0
142
1.0
143
1.0
 70
1024
 72
1
 73
0
 74
0
  7

 75
0
147
1.0
148
0.0
149
0.0
100
AcDbLayout
  1
Model
 70
0
 71
0
 10
0.0
 20
0.0
 11
297.0
 21
210.0
 12
0.0
 22
0.0
 32
0.0
 14
0.0
 24
0.0
 34
0.0
 15
0.0
 25
0.0
 35
0.0
146
0.0
 13
0.0
 23
0.0
 33
0.0
 16
1.0
 26
0.0
 36
0.0
 17
0.0
 27
1.0
 37
0.0
 76
0
330
217
345
0
346
0
  0
LAYOUT
  5
329
102
{ACAD_REACTORS
330
1A
102
}
100
AcDbPlotSettings
  1

  2
none_device
  4
ISO_A4_(297.00_x_210.00_MM)
  6

 40
0.0
 41
0.0
 42
0.0
 43
0.0
 44
297.0
 45
210.0
 46
0.0
 47
0.0
 48
0.0
 49
0.0
140
0.0
141
0.0
142
1.0
143
1.0
 70
0
 72
1
 73
0
 74
0
  7

 75
0
147
1.0
148
0.0
149
0.0
100
AcDbLayout
  1
Layout1
 70
0
 71
1
 10
0.0
 20
0.0
 11
297.0
 21
210.0
 12
0.0
 22
0.0
 32
0.0
 14
0.0
 24
0.0
 34
0.0
 15
0.0
 25
0.0
 35
0.0
146
0.0
 13
0.0
 23
0.0
 33
0.0
 16
1.0
 26
0.0
 36
0.0
 17
0.0
 27
1.0
 37
0.0
 76
0
330
218
345
0
346
0
  0
ENDSEC
  0
EOF
