999
DXF file: 50-440-16-6.dxf
999
Pro/ENGINEER 2010430 by Parametric Technology Corporation
  0
SECTION
  2
HEADER
  9
$ACADVER
  1
AC1021
  9
$DWGCODEPAGE
  3
ANSI_1252
  9
$EXTMAX
 10
297.0
 20
210.0
 30
0.0
  9
$EXTMIN
 10
0.0
 20
0.0
 30
0.0
  9
$LIMMIN
 10
0.0
 20
0.0
  9
$LIMMAX
 10
297.0
 20
210.0
  9
$VIEWCTR
 10
148.5
 20
105.0
  9
$VIEWSIZE
 40
210.0
  9
$CLAYER
  8
0
  9
$LTSCALE
 40
16.335
  9
$CELTYPE
  6
BYLAYER
  9
$DIMSCALE
 40
1.0
  9
$DIMASZ
 40
3.5
  9
$DIMEXO
 40
1.85625
  9
$DIMDLI
 40
11.286
  9
$DIMEXE
 40
5.346
  9
$DIMCEN
 40
2.673
  9
$DIMLFAC
 40
1.0
  9
$DIMBLK
  1
_FILLED
  9
$DIMTXT
 40
3.5
  9
$DIMTOL
 70
1
  9
$DIMLIM
 70
0
  9
$DIMTFAC
 40
1.0
  9
$DIMTP
 40
0.005
  9
$DIMTM
 40
0.005
  9
$PDMODE
 70
3
  9
$PDSIZE
 40
0.3125
  9
$HANDSEED
  5
311
  9
$TILEMODE
 70
1
  9
$MEASUREMENT
 70
1
  9
$INSUNITS
 70
4
  0
ENDSEC
  0
SECTION
  2
CLASSES
  0
CLASS
  1
ACDBDICTIONARYWDFLT
  2
AcDbDictionaryWithDefault
  3
AutoCAD 2000
 90
0
 91
1
280
0
281
0
  0
CLASS
  1
ACDBPLACEHOLDER
  2
AcDbPlaceHolder
  3
AutoCAD 2000
 90
0
 91
1
280
0
281
0
  0
CLASS
  1
LAYOUT
  2
AcDbLayout
  3
AutoCAD 2000
 90
0
 91
0
280
0
281
0
  0
ENDSEC
  0
SECTION
  2
TABLES
  0
TABLE
  2
VPORT
  5
8
100
AcDbSymbolTable
 70
2
  0
VPORT
  5
1F4
100
AcDbSymbolTableRecord
100
AcDbViewportTableRecord
  2
*ACTIVE
 70
0
 10
0.0
 20
0.0
 11
1.0
 21
1.0
 12
148.5
 22
105.0
 13
0.0
 23
0.0
 14
1.0
 24
1.0
 15
0.0
 25
0.0
 16
0.0
 26
0.0
 36
1.0
 17
0.0
 27
0.0
 37
0.0
 40
210.0
 41
1.4142857143
 42
50.0
 43
0.0
 44
0.0
 50
0.0
 51
0.0
 71
0
 72
100
 73
1
 74
1
 75
0
 76
0
 77
0
 78
0
  0
ENDTAB
  0
TABLE
  2
LTYPE
  5
5
100
AcDbSymbolTable
 70
6
  0
LTYPE
  5
14
100
AcDbSymbolTableRecord
100
AcDbLinetypeTableRecord
  2
BYBLOCK
 70
0
  3

 72
65
 73
0
 40
0.0
  0
LTYPE
  5
15
100
AcDbSymbolTableRecord
100
AcDbLinetypeTableRecord
  2
BYLAYER
 70
0
  3

 72
65
 73
0
 40
0.0
  0
LTYPE
  5
16
100
AcDbSymbolTableRecord
100
AcDbLinetypeTableRecord
  2
CONTINUOUS
 70
64
  3
Solid line
 72
65
 73
0
 40
0.0
  0
LTYPE
  5
1F5
100
AcDbSymbolTableRecord
100
AcDbLinetypeTableRecord
  2
CENTER
 70
64
  3
____ _ ____ _ ____ _ ____ _ ____ _ ____ _ ____
 72
65
 73
4
 40
0.6
 49
0.375
 74
0
 49
-0.075
 74
0
 49
0.075
 74
0
 49
-0.075
 74
0
  0
LTYPE
  5
1F6
100
AcDbSymbolTableRecord
100
AcDbLinetypeTableRecord
  2
HIDDEN
 70
64
  3
- - - - - - - - - - - - - - - - - - - -
 72
65
 73
2
 40
0.2
 49
0.1
 74
0
 49
-0.1
 74
0
  0
LTYPE
  5
1F7
100
AcDbSymbolTableRecord
100
AcDbLinetypeTableRecord
  2
PHANTOM
 70
64
  3
_____ _ _ _____ _ _ _____ _ _ _____
 72
65
 73
6
 40
0.8
 49
0.45
 74
0
 49
-0.05
 74
0
 49
0.1
 74
0
 49
-0.05
 74
0
 49
0.1
 74
0
 49
-0.05
 74
0
  0
LTYPE
  5
1F8
100
AcDbSymbolTableRecord
100
AcDbLinetypeTableRecord
  2
DOT
 70
64
  3
. . . . . . . . . . . . . . . . . . . .
 72
65
 73
2
 40
0.2
 49
0.1
 74
0
 49
-0.1
 74
0
  0
LTYPE
  5
1F9
100
AcDbSymbolTableRecord
100
AcDbLinetypeTableRecord
  2
DASHED
 70
64
  3
- - - - - - - - - - - - - - - - - - - -
 72
65
 73
2
 40
0.2
 49
0.1
 74
0
 49
-0.1
 74
0
  0
ENDTAB
  0
TABLE
  2
LAYER
  5
2
100
AcDbSymbolTable
 70
36
  0
LAYER
  5
10
100
AcDbSymbolTableRecord
100
AcDbLayerTableRecord
  2
0
 70
0
 62
7
  6
CONTINUOUS
370
-3
390
F
  0
LAYER
  5
1FA
100
AcDbSymbolTableRecord
100
AcDbLayerTableRecord
  2
DEFAULT_1
 70
0
 62
7
  6
CENTER
370
-3
390
F
  0
LAYER
  5
1FB
100
AcDbSymbolTableRecord
100
AcDbLayerTableRecord
  2
DEFAULT_2
 70
0
 62
8
  6
HIDDEN
370
-3
390
F
  0
LAYER
  5
1FC
100
AcDbSymbolTableRecord
100
AcDbLayerTableRecord
  2
DEFAULT_3
 70
0
 62
7
  6
PHANTOM
370
-3
390
F
  0
LAYER
  5
1FD
100
AcDbSymbolTableRecord
100
AcDbLayerTableRecord
  2
ANALYSEN
 70
0
 62
7
  6
CONTINUOUS
370
-3
390
F
  0
LAYER
  5
1FE
100
AcDbSymbolTableRecord
100
AcDbLayerTableRecord
  2
AUSSENKONTUR
 70
0
 62
7
  6
CONTINUOUS
370
-3
390
F
  0
LAYER
  5
1FF
100
AcDbSymbolTableRecord
100
AcDbLayerTableRecord
  2
BEZUGSACHSEN
 70
0
 62
7
  6
CONTINUOUS
370
-3
390
F
  0
LAYER
  5
200
100
AcDbSymbolTableRecord
100
AcDbLayerTableRecord
  2
BEZUGSACHSENKENNZEICHEN
 70
0
 62
7
  6
CONTINUOUS
370
-3
390
F
  0
LAYER
  5
201
100
AcDbSymbolTableRecord
100
AcDbLayerTableRecord
  2
BEZUGSEBENEN
 70
0
 62
7
  6
CONTINUOUS
370
-3
390
F
  0
LAYER
  5
202
100
AcDbSymbolTableRecord
100
AcDbLayerTableRecord
  2
BEZUGSPUNKTE
 70
0
 62
7
  6
CONTINUOUS
370
-3
390
F
  0
LAYER
  5
203
100
AcDbSymbolTableRecord
100
AcDbLayerTableRecord
  2
BOHRUNGEN
 70
0
 62
7
  6
CONTINUOUS
370
-3
390
F
  0
LAYER
  5
204
100
AcDbSymbolTableRecord
100
AcDbLayerTableRecord
  2
FASEN
 70
0
 62
7
  6
CONTINUOUS
370
-3
390
F
  0
LAYER
  5
205
100
AcDbSymbolTableRecord
100
AcDbLayerTableRecord
  2
FLAECHEN
 70
0
 62
7
  6
CONTINUOUS
370
-3
390
F
  0
LAYER
  5
206
100
AcDbSymbolTableRecord
100
AcDbLayerTableRecord
  2
GEWINDE
 70
0
 62
7
  6
CONTINUOUS
370
-3
390
F
  0
LAYER
  5
207
100
AcDbSymbolTableRecord
100
AcDbLayerTableRecord
  2
HILFEN
 70
0
 62
7
  6
CONTINUOUS
370
-3
390
F
  0
LAYER
  5
208
100
AcDbSymbolTableRecord
100
AcDbLayerTableRecord
  2
INNENKONTUR
 70
0
 62
7
  6
CONTINUOUS
370
-3
390
F
  0
LAYER
  5
209
100
AcDbSymbolTableRecord
100
AcDbLayerTableRecord
  2
KURVEN
 70
0
 62
7
  6
CONTINUOUS
370
-3
390
F
  0
LAYER
  5
20A
100
AcDbSymbolTableRecord
100
AcDbLayerTableRecord
  2
MAKINO
 70
0
 62
7
  6
CONTINUOUS
370
-3
390
F
  0
LAYER
  5
20B
100
AcDbSymbolTableRecord
100
AcDbLayerTableRecord
  2
OELVERDR_RILLE
 70
0
 62
7
  6
CONTINUOUS
370
-3
390
F
  0
LAYER
  5
20C
100
AcDbSymbolTableRecord
100
AcDbLayerTableRecord
  2
PLATZIERUNG
 70
0
 62
7
  6
CONTINUOUS
370
-3
390
F
  0
LAYER
  5
20D
100
AcDbSymbolTableRecord
100
AcDbLayerTableRecord
  2
PUNKTE
 70
0
 62
7
  6
CONTINUOUS
370
-3
390
F
  0
LAYER
  5
20E
100
AcDbSymbolTableRecord
100
AcDbLayerTableRecord
  2
RUNDUNGEN
 70
0
 62
7
  6
CONTINUOUS
370
-3
390
F
  0
LAYER
  5
20F
100
AcDbSymbolTableRecord
100
AcDbLayerTableRecord
  2
TEIL_STARTBEZUEGE
 70
0
 62
7
  6
CONTINUOUS
370
-3
390
F
  0
LAYER
  5
210
100
AcDbSymbolTableRecord
100
AcDbLayerTableRecord
  2
VERERBUNG
 70
0
 62
7
  6
CONTINUOUS
370
-3
390
F
  0
LAYER
  5
211
100
AcDbSymbolTableRecord
100
AcDbLayerTableRecord
  2
VOLUMEN
 70
0
 62
7
  6
CONTINUOUS
370
-3
390
F
  0
LAYER
  5
212
100
AcDbSymbolTableRecord
100
AcDbLayerTableRecord
  2
ZEICHNUNG
 70
0
 62
7
  6
CONTINUOUS
370
-3
390
F
  0
LAYER
  5
213
100
AcDbSymbolTableRecord
100
AcDbLayerTableRecord
  2
ZEICHNUNGSBEMASSUNGEN
 70
0
 62
7
  6
CONTINUOUS
370
-3
390
F
  0
ENDTAB
  0
TABLE
  2
STYLE
  5
3
100
AcDbSymbolTable
 70
1
  0
STYLE
  5
11
100
AcDbSymbolTableRecord
100
AcDbTextStyleTableRecord
  2
STANDARD
 70
0
 40
0.0
 41
0.7
 50
0.0
 71
0
 42
0.2
  3
txt
  4

  0
STYLE
  5
214
100
AcDbSymbolTableRecord
100
AcDbTextStyleTableRecord
  2
TEXTSTYLE_1
 70
0
 40
0.0
 41
0.8
 50
0.0
 71
0
 42
0.2
  3
gdt
  4

  0
STYLE
  5
215
100
AcDbSymbolTableRecord
100
AcDbTextStyleTableRecord
  2
TEXTSTYLE_2
 70
0
 40
0.0
 41
0.7
 50
0.0
 71
0
 42
0.2
  3
gdt
  4

  0
ENDTAB
  0
TABLE
  2
VIEW
  5
6
100
AcDbSymbolTable
 70
0
  0
ENDTAB
  0
TABLE
  2
UCS
  5
7
100
AcDbSymbolTable
 70
0
  0
ENDTAB
  0
TABLE
  2
APPID
  5
9
100
AcDbSymbolTable
 70
1
  0
APPID
  5
216
100
AcDbSymbolTableRecord
100
AcDbRegAppTableRecord
  2
ACAD
 70
0
  0
ENDTAB
  0
TABLE
  2
BLOCK_RECORD
  5
1
100
AcDbSymbolTable
 70
0
  0
BLOCK_RECORD
  5
217
100
AcDbSymbolTableRecord
100
AcDbBlockTableRecord
  2
*Model_Space
  0
BLOCK_RECORD
  5
218
100
AcDbSymbolTableRecord
100
AcDbBlockTableRecord
  2
*Paper_Space
  0
BLOCK_RECORD
  5
219
100
AcDbSymbolTableRecord
100
AcDbBlockTableRecord
  2
_FILLED
  0
BLOCK_RECORD
  5
21A
100
AcDbSymbolTableRecord
100
AcDbBlockTableRecord
  2
*D0
  0
BLOCK_RECORD
  5
21B
100
AcDbSymbolTableRecord
100
AcDbBlockTableRecord
  2
*D1
  0
BLOCK_RECORD
  5
21C
100
AcDbSymbolTableRecord
100
AcDbBlockTableRecord
  2
*D2
  0
BLOCK_RECORD
  5
21D
100
AcDbSymbolTableRecord
100
AcDbBlockTableRecord
  2
*D3
  0
BLOCK_RECORD
  5
21E
100
AcDbSymbolTableRecord
100
AcDbBlockTableRecord
  2
*D4
  0
BLOCK_RECORD
  5
21F
100
AcDbSymbolTableRecord
100
AcDbBlockTableRecord
  2
*D5
  0
ENDTAB
  0
TABLE
  2
DIMSTYLE
  5
A
100
AcDbSymbolTable
 70
1
100
AcDbDimStyleTable
 71
0
  0
DIMSTYLE
105
220
100
AcDbSymbolTableRecord
100
AcDbDimStyleTableRecord
  2
STANDARD
 70
0
  3

  4

 40
1.0
 41
3.5
 42
0.0625
 43
0.38
 44
0.18
 45
0.0
 46
0.0
 47
0.005
 48
0.005
140
3.5
141
0.09
142
0.0
143
25.4
144
1.0
145
0.0
146
1.0
147
0.09
 71
1.0
 72
0.0
 73
0
 74
0
 75
0
 76
0
 77
1
 78
8
170
0
171
2
172
0
173
0
174
0
175
0
176
0
177
0
178
5
270
2
271
3
272
3
273
2
274
2
275
0
280
0
281
0
282
0
283
1
284
8
285
0
286
0
287
3
288
0
340
11
341
219
342
219
343
219
344
219
  0
DIMSTYLE
105
221
100
AcDbSymbolTableRecord
100
AcDbDimStyleTableRecord
  2
DIMSTYLE_1
 70
0
  3

  4

 40
1.0
 41
3.5
 42
0.0625
 43
0.38
 44
0.18
 45
0.0
 46
0.0
 47
0.3
 48
0.3
140
3.5
141
0.09
142
0.0
143
25.4
144
1.0
145
0.0
146
1.0
147
0.09
 71
0.0
 72
0.0
 73
0
 74
0
 75
0
 76
0
 77
1
 78
8
170
0
171
2
172
0
173
0
174
0
175
0
176
0
177
0
178
5
270
2
271
3
272
3
273
2
274
2
275
0
280
0
281
0
282
0
283
1
284
8
285
0
286
0
287
3
288
0
340
11
341
219
342
219
343
219
344
219
  0
DIMSTYLE
105
222
100
AcDbSymbolTableRecord
100
AcDbDimStyleTableRecord
  2
DIMSTYLE_2
 70
0
  3

  4

 40
1.0
 41
3.5
 42
0.0625
 43
0.38
 44
0.18
 45
0.0
 46
0.0
 47
0.25
 48
0.25
140
3.5
141
0.09
142
0.0
143
25.4
144
1.0
145
0.0
146
1.0
147
0.09
 71
0.0
 72
0.0
 73
0
 74
0
 75
0
 76
0
 77
1
 78
8
170
0
171
2
172
0
173
0
174
0
175
0
176
0
177
0
178
5
270
2
271
2
272
2
273
2
274
2
275
0
280
0
281
0
282
0
283
1
284
8
285
0
286
0
287
3
288
0
340
11
341
219
342
219
343
219
344
219
  0
DIMSTYLE
105
223
100
AcDbSymbolTableRecord
100
AcDbDimStyleTableRecord
  2
DIMSTYLE_3
 70
0
  3

  4

 40
1.0
 41
3.5
 42
0.0625
 43
0.38
 44
0.18
 45
0.0
 46
0.0
 47
0.0
 48
0.1
140
3.5
141
0.09
142
0.0
143
25.4
144
1.0
145
0.0
146
1.0
147
0.09
 71
0.0
 72
0.0
 73
0
 74
0
 75
0
 76
0
 77
1
 78
8
170
0
171
2
172
0
173
0
174
0
175
0
176
0
177
0
178
5
270
2
271
2
272
2
273
2
274
2
275
0
280
0
281
0
282
0
283
1
284
8
285
0
286
0
287
3
288
0
340
11
341
219
342
219
343
219
344
219
  0
DIMSTYLE
105
224
100
AcDbSymbolTableRecord
100
AcDbDimStyleTableRecord
  2
DIMSTYLE_4
 70
0
  3

  4

 40
1.0
 41
3.5
 42
0.0625
 43
0.38
 44
0.18
 45
0.0
 46
0.0
 47
0.5
 48
0.5
140
3.5
141
0.09
142
0.0
143
25.4
144
1.0
145
0.0
146
1.0
147
0.09
 71
0.0
 72
0.0
 73
0
 74
0
 75
0
 76
0
 77
1
 78
8
170
0
171
2
172
0
173
0
174
0
175
0
176
0
177
0
178
5
270
2
271
2
272
2
273
2
274
2
275
0
280
0
281
0
282
0
283
1
284
8
285
0
286
0
287
3
288
0
340
11
341
219
342
219
343
219
344
219
  0
DIMSTYLE
105
225
100
AcDbSymbolTableRecord
100
AcDbDimStyleTableRecord
  2
DIMSTYLE_5
 70
0
  3

  4

 40
1.0
 41
3.5
 42
0.0625
 43
0.38
 44
0.18
 45
0.0
 46
0.0
 47
0.3
 48
0.3
140
3.5
141
0.09
142
0.0
143
25.4
144
1.0
145
0.0
146
1.0
147
0.09
 71
0.0
 72
0.0
 73
0
 74
0
 75
0
 76
0
 77
1
 78
8
170
0
171
2
172
0
173
0
174
0
175
0
176
0
177
0
178
5
270
2
271
2
272
2
273
2
274
2
275
0
280
0
281
0
282
0
283
1
284
8
285
0
286
0
287
3
288
0
340
11
341
219
342
219
343
219
344
219
  0
DIMSTYLE
105
226
100
AcDbSymbolTableRecord
100
AcDbDimStyleTableRecord
  2
DIMSTYLE_6
 70
0
  3

  4

 40
1.0
 41
3.5
 42
0.0625
 43
0.38
 44
0.18
 45
0.0
 46
0.0
 47
0.2
 48
0.2
140
3.5
141
0.09
142
0.0
143
25.4
144
1.0
145
0.0
146
1.0
147
0.09
 71
0.0
 72
0.0
 73
0
 74
0
 75
0
 76
0
 77
1
 78
8
170
0
171
2
172
0
173
0
174
0
175
0
176
0
177
0
178
5
270
2
271
2
272
2
273
2
274
2
275
0
280
0
281
0
282
0
283
1
284
8
285
0
286
0
287
3
288
0
340
11
341
219
342
219
343
219
344
219
  0
ENDTAB
  0
ENDSEC
  0
SECTION
  2
BLOCKS
  0
BLOCK
  5
20
100
AcDbEntity
  8
0
100
AcDbBlockBegin
  2
*Model_Space
 70
0
 10
0.0
 20
0.0
 30
0.0
  3
*Model_Space
  1

  0
ENDBLK
  5
21
100
AcDbEntity
  8
0
100
AcDbBlockEnd
  0
BLOCK
  5
1C
100
AcDbEntity
  8
0
100
AcDbBlockBegin
  2
*Paper_Space
 70
0
 10
0.0
 20
0.0
 30
0.0
  3
*Paper_Space
  1

  0
ENDBLK
  5
1D
100
AcDbEntity
  8
0
100
AcDbBlockEnd
  0
BLOCK
  5
227
100
AcDbEntity
  8
0
100
AcDbBlockBegin
  2
_FILLED
 70
64
 10
0.0
 20
0.0
  3
_FILLED
  1

  0
SOLID
  5
228
100
AcDbEntity
  8
0
  6
BYBLOCK
 62
0
100
AcDbTrace
 10
0.0
 20
0.0
 11
-1.0
 21
0.125
 12
-1.0
 22
-0.125
 13
-1.0
 23
-0.125
  0
ENDBLK
  5
229
100
AcDbEntity
  8
0
  6
BYBLOCK
 62
0
100
AcDbBlockEnd
  0
BLOCK
  5
22A
100
AcDbEntity
  8
0
100
AcDbBlockBegin
 62
2
  6
CONTINUOUS
  2
*D0
 70
65
 10
0.0
 20
0.0
  3
*D0
  1

  0
MTEXT
  5
22B
100
AcDbEntity
  8
0
100
AcDbMText
 62
5
  6
CONTINUOUS
  7
STANDARD
 71
2
 72
1
 10
201.5538968382
 20
186.0714862845
 30
0.0
 11
1.0
 21
0.0
 31
0.0
 44
0.9
  1
80
 40
3.5
 41
5.66015625
  0
LINE
  5
22C
100
AcDbEntity
  8
0
100
AcDbLine
 62
2
  6
CONTINUOUS
 10
241.5538968382
 20
117.3014753576
 11
241.5538968382
 21
183.1964862845
  0
LINE
  5
22D
100
AcDbEntity
  8
0
100
AcDbLine
 62
2
  6
CONTINUOUS
 10
161.5538968382
 20
157.4417674377
 11
161.5538968382
 21
183.1964862845
  0
LINE
  5
22E
100
AcDbEntity
  8
0
100
AcDbLine
 62
2
  6
CONTINUOUS
 10
241.5538968382
 20
181.6964862845
 11
201.5538968382
 21
181.6964862845
  0
LINE
  5
22F
100
AcDbEntity
  8
0
100
AcDbLine
 62
2
  6
CONTINUOUS
 10
161.5538968382
 20
181.6964862845
 11
201.5538968382
 21
181.6964862845
  0
INSERT
  5
230
100
AcDbEntity
  8
0
100
AcDbBlockReference
 62
2
  6
CONTINUOUS
  2
_FILLED
 10
241.5538968382
 20
181.6964862845
 41
3.5
 42
3.5
 43
3.5
  0
INSERT
  5
231
100
AcDbEntity
  8
0
100
AcDbBlockReference
 62
2
  6
CONTINUOUS
  2
_FILLED
 10
161.5538968382
 20
181.6964862845
 41
3.5
 42
3.5
 43
3.5
 50
180.0
  0
ENDBLK
  5
232
100
AcDbEntity
  8
0
  6
BYBLOCK
 62
0
100
AcDbBlockEnd
  0
BLOCK
  5
233
100
AcDbEntity
  8
0
100
AcDbBlockBegin
 62
2
  6
CONTINUOUS
  2
*D1
 70
65
 10
0.0
 20
0.0
  3
*D1
  1

  0
MTEXT
  5
234
100
AcDbEntity
  8
0
100
AcDbMText
 62
5
  6
CONTINUOUS
  7
STANDARD
 71
2
 72
1
 10
218.5323935751
 20
159.3359589087
 30
0.0
 11
0.1244265992
 21
0.9922288151
 31
0.0
 44
0.9
  1
4\Fgdt;{\Fgdt;~}\Ftxt;30'
 40
3.5
 41
12.2454427083
  0
LINE
  5
235
100
AcDbEntity
  8
0
100
AcDbLine
 62
2
  6
CONTINUOUS
 10
240.6323559339
 20
142.8740021997
 11
222.5257400362
 21
144.2990237756
  0
LINE
  5
236
100
AcDbEntity
  8
0
100
AcDbLine
 62
2
  6
CONTINUOUS
 10
231.312259166
 20
119.8014753576
 11
221.5632287374
 21
119.8014753576
  0
ARC
  5
237
100
AcDbEntity
  8
0
100
AcDbCircle
 62
2
  6
CONTINUOUS
 10
533.7966057702
 20
119.8014753576
 40
310.7333770328
100
AcDbArc
 50
172.8523561768
 51
180.0
  0
SOLID
  5
238
100
AcDbEntity
  8
0
100
AcDbTrace
 62
2
  6
CONTINUOUS
 10
224.2025018549
 20
140.6587642761
 11
224.0211160368
 21
144.181335132
 12
223.3298263882
 22
140.7225022549
 13
223.3298263882
 23
140.7225022549
  0
SOLID
  5
239
100
AcDbEntity
  8
0
100
AcDbTrace
 62
2
  6
CONTINUOUS
 10
222.645447004
 20
123.303883768
 11
223.0632287374
 21
119.8014753576
 12
223.5204331275
 22
123.2989559359
 13
223.5204331275
 23
123.2989559359
  0
ENDBLK
  5
23A
100
AcDbEntity
  8
0
  6
BYBLOCK
 62
0
100
AcDbBlockEnd
  0
BLOCK
  5
23B
100
AcDbEntity
  8
0
100
AcDbBlockBegin
 62
2
  6
CONTINUOUS
  2
*D2
 70
65
 10
0.0
 20
0.0
  3
*D2
  1

  0
MTEXT
  5
23C
100
AcDbEntity
  8
0
100
AcDbMText
 62
5
  6
CONTINUOUS
  7
TEXTSTYLE_2
 71
2
 72
1
 10
260.8970179314
 20
119.8014753576
 30
0.0
 11
0.0
 21
1.0
 31
0.0
 44
0.9
  1
{\Fgdt;n}\Ftxt;46
 40
3.5
 41
10.3268229167
  0
LINE
  5
23D
100
AcDbEntity
  8
0
100
AcDbLine
 62
2
  6
CONTINUOUS
 10
241.5538968382
 20
96.8014753576
 11
266.7720179314
 21
96.8014753576
  0
LINE
  5
23E
100
AcDbEntity
  8
0
100
AcDbLine
 62
2
  6
CONTINUOUS
 10
241.5538968382
 20
142.8014753576
 11
266.7720179314
 21
142.8014753576
  0
LINE
  5
23F
100
AcDbEntity
  8
0
100
AcDbLine
 62
2
  6
CONTINUOUS
 10
265.2720179314
 20
96.8014753576
 11
265.2720179314
 21
119.8014753576
  0
LINE
  5
240
100
AcDbEntity
  8
0
100
AcDbLine
 62
2
  6
CONTINUOUS
 10
265.2720179314
 20
142.8014753576
 11
265.2720179314
 21
119.8014753576
  0
INSERT
  5
241
100
AcDbEntity
  8
0
100
AcDbBlockReference
 62
2
  6
CONTINUOUS
  2
_FILLED
 10
265.2720179314
 20
96.8014753576
 41
3.5
 42
3.5
 43
3.5
 50
270.0
  0
INSERT
  5
242
100
AcDbEntity
  8
0
100
AcDbBlockReference
 62
2
  6
CONTINUOUS
  2
_FILLED
 10
265.2720179314
 20
142.8014753576
 41
3.5
 42
3.5
 43
3.5
 50
90.0
  0
ENDBLK
  5
243
100
AcDbEntity
  8
0
  6
BYBLOCK
 62
0
100
AcDbBlockEnd
  0
BLOCK
  5
244
100
AcDbEntity
  8
0
100
AcDbBlockBegin
 62
2
  6
CONTINUOUS
  2
*D3
 70
65
 10
0.0
 20
0.0
  3
*D3
  1

  0
MTEXT
  5
245
100
AcDbEntity
  8
0
100
AcDbMText
 62
5
  6
CONTINUOUS
  7
STANDARD
 71
2
 72
1
 10
150.6788968382
 20
193.4106269475
 30
0.0
 11
1.0
 21
0.0
 31
0.0
 44
0.9
  1
181.75
 40
3.5
 41
15.572265625
  0
LINE
  5
246
100
AcDbEntity
  8
0
100
AcDbLine
 62
2
  6
CONTINUOUS
 10
59.8038968382
 20
138.0513580564
 11
59.8038968382
 21
190.5356269475
  0
LINE
  5
247
100
AcDbEntity
  8
0
100
AcDbLine
 62
2
  6
CONTINUOUS
 10
241.5538968382
 20
119.8014753576
 11
241.5538968382
 21
190.5356269475
  0
LINE
  5
248
100
AcDbEntity
  8
0
100
AcDbLine
 62
2
  6
CONTINUOUS
 10
59.8038968382
 20
189.0356269475
 11
150.6788968382
 21
189.0356269475
  0
LINE
  5
249
100
AcDbEntity
  8
0
100
AcDbLine
 62
2
  6
CONTINUOUS
 10
241.5538968382
 20
189.0356269475
 11
150.6788968382
 21
189.0356269475
  0
INSERT
  5
24A
100
AcDbEntity
  8
0
100
AcDbBlockReference
 62
2
  6
CONTINUOUS
  2
_FILLED
 10
59.8038968382
 20
189.0356269475
 41
3.5
 42
3.5
 43
3.5
 50
180.0
  0
INSERT
  5
24B
100
AcDbEntity
  8
0
100
AcDbBlockReference
 62
2
  6
CONTINUOUS
  2
_FILLED
 10
241.5538968382
 20
189.0356269475
 41
3.5
 42
3.5
 43
3.5
  0
ENDBLK
  5
24C
100
AcDbEntity
  8
0
  6
BYBLOCK
 62
0
100
AcDbBlockEnd
  0
BLOCK
  5
24D
100
AcDbEntity
  8
0
100
AcDbBlockBegin
 62
2
  6
CONTINUOUS
  2
*D4
 70
65
 10
0.0
 20
0.0
  3
*D4
  1

  0
MTEXT
  5
24E
100
AcDbEntity
  8
0
100
AcDbMText
 62
5
  6
CONTINUOUS
  7
STANDARD
 71
2
 72
1
 10
211.1038968382
 20
177.3333572467
 30
0.0
 11
1.0
 21
0.0
 31
0.0
 44
0.9
  1
60.9
 40
3.5
 41
9.912109375
  0
LINE
  5
24F
100
AcDbEntity
  8
0
100
AcDbLine
 62
2
  6
CONTINUOUS
 10
241.5538968382
 20
119.8014753576
 11
241.5538968382
 21
174.4583572467
  0
LINE
  5
250
100
AcDbEntity
  8
0
100
AcDbLine
 62
2
  6
CONTINUOUS
 10
180.6538968382
 20
157.2253209401
 11
180.6538968382
 21
174.4583572467
  0
LINE
  5
251
100
AcDbEntity
  8
0
100
AcDbLine
 62
2
  6
CONTINUOUS
 10
241.5538968382
 20
172.9583572467
 11
211.1038968382
 21
172.9583572467
  0
LINE
  5
252
100
AcDbEntity
  8
0
100
AcDbLine
 62
2
  6
CONTINUOUS
 10
180.6538968382
 20
172.9583572467
 11
211.1038968382
 21
172.9583572467
  0
INSERT
  5
253
100
AcDbEntity
  8
0
100
AcDbBlockReference
 62
2
  6
CONTINUOUS
  2
_FILLED
 10
241.5538968382
 20
172.9583572467
 41
3.5
 42
3.5
 43
3.5
  0
INSERT
  5
254
100
AcDbEntity
  8
0
100
AcDbBlockReference
 62
2
  6
CONTINUOUS
  2
_FILLED
 10
180.6538968382
 20
172.9583572467
 41
3.5
 42
3.5
 43
3.5
 50
180.0
  0
ENDBLK
  5
255
100
AcDbEntity
  8
0
  6
BYBLOCK
 62
0
100
AcDbBlockEnd
  0
BLOCK
  5
256
100
AcDbEntity
  8
0
100
AcDbBlockBegin
 62
2
  6
CONTINUOUS
  2
*D5
 70
65
 10
0.0
 20
0.0
  3
*D5
  1

  0
MTEXT
  5
257
100
AcDbEntity
  8
0
100
AcDbMText
 62
5
  6
CONTINUOUS
  7
TEXTSTYLE_2
 71
2
 72
1
 10
252.9296706453
 20
119.8014753576
 30
0.0
 11
0.0
 21
1.0
 31
0.0
 44
0.9
  1
{\Fgdt;n}\Ftxt;16
 40
3.5
 41
10.3268229167
  0
LINE
  5
258
100
AcDbEntity
  8
0
100
AcDbLine
 62
2
  6
CONTINUOUS
 10
241.5538968382
 20
111.8014753576
 11
258.8046706453
 21
111.8014753576
  0
LINE
  5
259
100
AcDbEntity
  8
0
100
AcDbLine
 62
2
  6
CONTINUOUS
 10
241.5538968382
 20
127.8014753576
 11
258.8046706453
 21
127.8014753576
  0
LINE
  5
25A
100
AcDbEntity
  8
0
100
AcDbLine
 62
2
  6
CONTINUOUS
 10
257.3046706453
 20
111.8014753576
 11
257.3046706453
 21
119.8014753576
  0
LINE
  5
25B
100
AcDbEntity
  8
0
100
AcDbLine
 62
2
  6
CONTINUOUS
 10
257.3046706453
 20
127.8014753576
 11
257.3046706453
 21
119.8014753576
  0
INSERT
  5
25C
100
AcDbEntity
  8
0
100
AcDbBlockReference
 62
2
  6
CONTINUOUS
  2
_FILLED
 10
257.3046706453
 20
111.8014753576
 41
3.5
 42
3.5
 43
3.5
 50
270.0
  0
INSERT
  5
25D
100
AcDbEntity
  8
0
100
AcDbBlockReference
 62
2
  6
CONTINUOUS
  2
_FILLED
 10
257.3046706453
 20
127.8014753576
 41
3.5
 42
3.5
 43
3.5
 50
90.0
  0
ENDBLK
  5
25E
100
AcDbEntity
  8
0
  6
BYBLOCK
 62
0
100
AcDbBlockEnd
  0
ENDSEC
  0
SECTION
  2
ENTITIES
  0
DIMENSION
  5
25F
100
AcDbEntity
  8
0
100
AcDbDimension
 62
2
  6
CONTINUOUS
  2
*D0
 10
161.5538968382
 20
181.6964862845
 11
198.7238187132
 21
184.3214862845
 70
160
 71
2
 42
80.0
  3
DIMSTYLE_1
100
AcDbAlignedDimension
 13
241.5538968382
 23
117.3014753576
 14
161.5538968382
 24
157.4417674377
 50
180.0
100
AcDbRotatedDimension
  0
DIMENSION
  5
260
100
AcDbEntity
  8
0
100
AcDbDimension
 62
2
  6
CONTINUOUS
  2
*D1
 10
221.5632287374
 20
119.8014753576
 11
219.2331284889
 21
156.8356524826
 70
162
 71
2
 42
0.0785398163
  3
DIMSTYLE_2
100
AcDb2LineAngularDimension
 13
222.5257400362
 23
144.2990237756
 14
240.6323559339
 24
142.8740021997
 15
231.312259166
 25
119.8014753576
 16
223.3027929099
 26
132.0008104901
  0
DIMENSION
  5
261
100
AcDbEntity
  8
0
100
AcDbDimension
 62
2
  6
CONTINUOUS
  2
*D2
 10
265.2720179314
 20
142.8014753576
 11
263.8038121532
 21
117.4934390493
 70
160
 71
2
 42
46.0
  1
%%c<>
  3
DIMSTYLE_3
100
AcDbAlignedDimension
 13
241.5538968382
 23
96.8014753576
 14
241.5538968382
 24
142.8014753576
 50
90.0
100
AcDbRotatedDimension
  0
DIMENSION
  5
262
100
AcDbEntity
  8
0
100
AcDbDimension
 62
2
  6
CONTINUOUS
  2
*D3
 10
241.5538968382
 20
189.0356269475
 11
142.8927640257
 21
191.6606269475
 70
160
 71
2
 42
181.75
  3
DIMSTYLE_4
100
AcDbAlignedDimension
 13
59.8038968382
 23
138.0513580564
 14
241.5538968382
 24
119.8014753576
100
AcDbRotatedDimension
  0
DIMENSION
  5
263
100
AcDbEntity
  8
0
100
AcDbDimension
 62
2
  6
CONTINUOUS
  2
*D4
 10
180.6538968382
 20
172.9583572467
 11
206.1478421507
 21
175.5833572467
 70
160
 71
2
 42
60.9
  3
DIMSTYLE_5
100
AcDbAlignedDimension
 13
241.5538968382
 23
119.8014753576
 14
180.6538968382
 24
157.2253209401
 50
180.0
100
AcDbRotatedDimension
  0
DIMENSION
  5
264
100
AcDbEntity
  8
0
100
AcDbDimension
 62
2
  6
CONTINUOUS
  2
*D5
 10
257.3046706453
 20
127.8014753576
 11
255.8364648672
 21
117.4934390493
 70
160
 71
2
 42
16.0
  1
%%c<>
  3
DIMSTYLE_6
100
AcDbAlignedDimension
 13
241.5538968382
 23
111.8014753576
 14
241.5538968382
 24
127.8014753576
 50
90.0
100
AcDbRotatedDimension
  0
MTEXT
  5
265
100
AcDbEntity
  8
0
100
AcDbMText
 62
5
  6
CONTINUOUS
  7
STANDARD
 71
1
 72
1
 10
9.6575168919
 20
86.4315878378
 30
0.0
 11
1.0
 21
0.0
 31
0.0
 44
0.9
  3
Für diese Unterlage behalten wir das Ur-\Pheberrecht. Sie darf nur für den von uns \Pbestimmten Zweck benutzt und ohne unsere \PZustimmung weder vervielfältigt noch\PDritten zugänglich gemacht werden\P \PWe own the copyright of this document. It \Pde
  1
termined and may neither be copied or \Pmade accessible to outsiders without our\Ppermission.\P \PCe plan reste notre propriété. Il ne peut\Pêtre utilisé, copié ou reproduit sans notre\Paccord.\P 
 40
3.5
 41
99.162109375
  0
LINE
  5
266
100
AcDbEntity
  8
0
100
AcDbLine
 62
7
  6
CONTINUOUS
 10
0.0
 20
0.0
 11
0.0
 21
210.0
  0
LINE
  5
267
100
AcDbEntity
  8
0
100
AcDbLine
 62
7
  6
CONTINUOUS
 10
0.0
 20
0.0
 11
297.0
 21
0.0
  0
LINE
  5
268
100
AcDbEntity
  8
0
100
AcDbLine
 62
7
  6
CONTINUOUS
 10
0.0
 20
210.0
 11
297.0
 21
210.0
  0
LINE
  5
269
100
AcDbEntity
  8
0
100
AcDbLine
 62
7
  6
CONTINUOUS
 10
297.0
 20
0.0
 11
297.0
 21
210.0
  0
LINE
  5
26A
100
AcDbEntity
  8
BEZUGSACHSEN
100
AcDbLine
 62
7
  6
CONTINUOUS
 10
59.8038968382
 20
137.8278607114
 11
59.8038968382
 21
101.7750900037
  0
LINE
  5
26B
100
AcDbEntity
  8
BEZUGSACHSEN
100
AcDbLine
 62
9
  6
CONTINUOUS
 10
61.9431001653
 20
140.3016888705
 11
61.9431001653
 21
99.3012618446
  0
LINE
  5
26C
100
AcDbEntity
  8
BEZUGSACHSEN
100
AcDbLine
 62
7
  6
CONTINUOUS
 10
165.8038968382
 20
71.0514753576
 11
169.481301574
 21
71.0514753576
  0
LINE
  5
26D
100
AcDbEntity
  8
BEZUGSACHSEN
100
AcDbLine
 62
7
  6
CONTINUOUS
 10
175.9764921024
 20
71.0514753576
 11
179.6538968382
 21
71.0514753576
  0
LINE
  5
26E
100
AcDbEntity
  8
BEZUGSACHSEN
100
AcDbLine
 62
7
  6
CONTINUOUS
 10
171.3538968382
 20
74.1764753576
 11
174.1038968382
 21
74.1764753576
  0
LINE
  5
26F
100
AcDbEntity
  8
BEZUGSACHSEN
100
AcDbLine
 62
7
  6
CONTINUOUS
 10
160.8476790556
 20
84.8764753576
 11
162.1538968382
 21
85.2264753576
  0
LINE
  5
270
100
AcDbEntity
  8
0
100
AcDbLine
 62
7
  6
CONTINUOUS
 10
165.8038968382
 20
81.3754099852
 11
169.481301574
 21
81.3754099852
  0
LINE
  5
271
100
AcDbEntity
  8
0
100
AcDbLine
 62
7
  6
CONTINUOUS
 10
175.9764921024
 20
81.3754099852
 11
179.6538968382
 21
81.3754099852
  0
LINE
  5
272
100
AcDbEntity
  8
BEZUGSACHSEN
100
AcDbLine
 62
7
  6
CONTINUOUS
 10
162.1538968382
 20
85.2264753576
 11
163.8038968382
 21
85.2264753576
  0
LINE
  5
273
100
AcDbEntity
  8
0
100
AcDbLine
 62
7
  6
CONTINUOUS
 10
171.3538968382
 20
85.4264753576
 11
174.1038968382
 21
85.4264753576
  0
LINE
  5
274
100
AcDbEntity
  8
BEZUGSACHSEN
100
AcDbLine
 62
7
  6
CONTINUOUS
 10
189.8693058809
 20
92.7338098327
 11
228.8969117905
 21
95.8053490311
  0
LINE
  5
275
100
AcDbEntity
  8
BEZUGSACHSEN
100
AcDbLine
 62
7
  6
CONTINUOUS
 10
229.9912788728
 20
95.8914775883
 11
240.6323559339
 21
96.7289485155
  0
LINE
  5
276
100
AcDbEntity
  8
FASEN
100
AcDbLine
 62
7
  6
CONTINUOUS
 10
164.8038968382
 20
89.4014753576
 11
180.6538968382
 21
89.4014753576
  0
LINE
  5
277
100
AcDbEntity
  8
0
100
AcDbLine
 62
7
  6
CONTINUOUS
 10
164.8038968382
 20
89.8014753576
 11
180.6538968382
 21
89.8014753576
  0
LINE
  5
278
100
AcDbEntity
  8
BEZUGSACHSEN
100
AcDbLine
 62
7
  6
CONTINUOUS
 10
61.9431001653
 20
99.3012618446
 11
160.8476790556
 21
84.8764753576
  0
LINE
  5
279
100
AcDbEntity
  8
0
100
AcDbLine
 62
7
  6
CONTINUOUS
 10
164.8038968382
 20
106.8514753576
 11
180.6538968382
 21
106.8514753576
  0
LWPOLYLINE
  5
27A
100
AcDbEntity
  8
0
100
AcDbPolyline
 62
7
  6
CONTINUOUS
 90
8
 70
0
 10
227.5742786489
 20
95.9066768456
 10
227.5629179843
 20
95.9081109713
 10
227.5545858469
 20
95.9093055154
 10
227.5534877293
 20
95.9094733074
 10
227.5601144999
 20
95.908169901
 10
227.5750730209
 20
95.9048064873
 10
227.5977773097
 20
95.8989576237
 10
227.6190180733
 20
95.8928289163
  0
LINE
  5
27B
100
AcDbEntity
  8
FASEN
100
AcDbLine
 62
7
  6
CONTINUOUS
 10
180.6538968382
 20
107.2514753576
 11
164.8038968382
 21
107.2514753576
  0
LINE
  5
27C
100
AcDbEntity
  8
BEZUGSACHSEN
100
AcDbLine
 62
8
  6
HIDDEN
 10
204.3552900974
 20
111.5014753576
 11
190.8933605051
 21
111.5014753576
  0
LINE
  5
27D
100
AcDbEntity
  8
BEZUGSACHSEN
100
AcDbLine
 62
8
  6
HIDDEN
 10
239.5538968382
 20
111.8014753576
 11
233.8576154931
 21
111.8014753576
  0
LINE
  5
27E
100
AcDbEntity
  8
BEZUGSACHSEN
100
AcDbLine
 62
8
  6
HIDDEN
 10
233.2501781833
 20
111.8014753576
 11
229.5538968382
 21
111.8014753576
  0
LINE
  5
27F
100
AcDbEntity
  8
BEZUGSACHSEN
100
AcDbLine
 62
8
  6
HIDDEN
 10
227.5538968382
 20
111.8014753576
 11
223.8576154931
 21
111.8014753576
  0
LINE
  5
280
100
AcDbEntity
  8
BEZUGSACHSEN
100
AcDbLine
 62
8
  6
HIDDEN
 10
223.2501781833
 20
111.8014753576
 11
217.5538968382
 21
111.8014753576
  0
LINE
  5
281
100
AcDbEntity
  8
BEZUGSACHSEN
100
AcDbLine
 62
8
  6
HIDDEN
 10
215.5538968382
 20
111.8014753576
 11
213.8576154931
 21
111.8014753576
  0
LINE
  5
282
100
AcDbEntity
  8
BEZUGSACHSEN
100
AcDbLine
 62
8
  6
HIDDEN
 10
213.2501781833
 20
111.8014753576
 11
205.5538968382
 21
111.8014753576
  0
LINE
  5
283
100
AcDbEntity
  8
BEZUGSACHSEN
100
AcDbLine
 62
7
  6
CONTINUOUS
 10
174.6038968382
 20
166.1740706218
 11
175.9764921024
 21
168.5514753576
  0
LINE
  5
284
100
AcDbEntity
  8
BEZUGSACHSEN
100
AcDbLine
 62
7
  6
CENTER
 10
246.5538968382
 20
119.8014753576
 11
56.8038968382
 21
119.8014753576
  0
LINE
  5
285
100
AcDbEntity
  8
0
100
AcDbLine
 62
9
  6
CONTINUOUS
 10
228.8966637461
 20
119.8014753576
 11
229.9914772434
 21
119.8014753576
  0
LINE
  5
286
100
AcDbEntity
  8
BEZUGSACHSEN
100
AcDbLine
 62
7
  6
CONTINUOUS
 10
174.6038968382
 20
73.4288800934
 11
175.9764921024
 21
71.0514753576
  0
LINE
  5
287
100
AcDbEntity
  8
BEZUGSACHSEN
100
AcDbLine
 62
7
  6
CONTINUOUS
 10
160.8476790556
 20
154.7264753576
 11
160.8476790556
 21
84.8764753576
  0
LINE
  5
288
100
AcDbEntity
  8
BEZUGSACHSEN
100
AcDbLine
 62
7
  6
CENTER
 10
161.5538968382
 20
83.0382838891
 11
161.5538968382
 21
156.8620000334
  0
LINE
  5
289
100
AcDbEntity
  8
BEZUGSACHSEN
100
AcDbLine
 62
7
  6
CONTINUOUS
 10
162.1538968382
 20
154.3764753576
 11
162.1538968382
 21
85.2264753576
  0
LINE
  5
28A
100
AcDbEntity
  8
BEZUGSACHSEN
100
AcDbLine
 62
9
  6
CONTINUOUS
 10
163.8038968382
 20
154.3764753576
 11
163.8038968382
 21
85.2264753576
  0
LINE
  5
28B
100
AcDbEntity
  8
BEZUGSACHSEN
100
AcDbLine
 62
7
  6
CONTINUOUS
 10
164.8038968382
 20
167.5311175394
 11
164.8038968382
 21
132.7514753576
  0
LINE
  5
28C
100
AcDbEntity
  8
BEZUGSACHSEN
100
AcDbLine
 62
7
  6
CONTINUOUS
 10
164.8038968382
 20
106.8514753576
 11
164.8038968382
 21
89.8014753576
  0
LINE
  5
28D
100
AcDbEntity
  8
BEZUGSACHSEN
100
AcDbLine
 62
7
  6
CONTINUOUS
 10
164.8038968382
 20
82.6522829034
 11
164.8038968382
 21
72.0534969167
  0
LINE
  5
28E
100
AcDbEntity
  8
0
100
AcDbLine
 62
7
  6
CONTINUOUS
 10
164.8038968382
 20
72.0515006419
 11
164.8038968382
 21
82.6522829034
  0
LINE
  5
28F
100
AcDbEntity
  8
FASEN
100
AcDbLine
 62
7
  6
CONTINUOUS
 10
164.8038968382
 20
82.6522829034
 11
164.8038968382
 21
89.8014753576
  0
LINE
  5
290
100
AcDbEntity
  8
0
100
AcDbLine
 62
7
  6
CONTINUOUS
 10
164.8038968382
 20
89.8014753576
 11
164.8038968382
 21
106.8514753576
  0
LINE
  5
291
100
AcDbEntity
  8
FASEN
100
AcDbLine
 62
7
  6
CONTINUOUS
 10
164.8038968382
 20
106.8514753576
 11
164.8038968382
 21
132.7514753576
  0
LINE
  5
292
100
AcDbEntity
  8
0
100
AcDbLine
 62
7
  6
CONTINUOUS
 10
164.8038968382
 20
132.7514753576
 11
164.8038968382
 21
167.5514752573
  0
LINE
  5
293
100
AcDbEntity
  8
0
100
AcDbLine
 62
9
  6
CONTINUOUS
 10
165.8038968382
 20
168.5514753576
 11
165.8038968382
 21
132.7514753576
  0
LINE
  5
294
100
AcDbEntity
  8
0
100
AcDbLine
 62
9
  6
CONTINUOUS
 10
165.8038968382
 20
106.8514753576
 11
165.8038968382
 21
89.8014753576
  0
LINE
  5
295
100
AcDbEntity
  8
0
100
AcDbLine
 62
9
  6
CONTINUOUS
 10
165.8038968382
 20
81.3754099852
 11
165.8038968382
 21
71.0514753576
  0
LINE
  5
296
100
AcDbEntity
  8
BEZUGSACHSEN
100
AcDbLine
 62
8
  6
HIDDEN
 10
239.5538968382
 20
127.8014753576
 11
229.5538968382
 21
127.8014753576
  0
LINE
  5
297
100
AcDbEntity
  8
BEZUGSACHSEN
100
AcDbLine
 62
8
  6
HIDDEN
 10
227.5538968382
 20
127.8014753576
 11
218.8576154931
 21
127.8014753576
  0
LINE
  5
298
100
AcDbEntity
  8
BEZUGSACHSEN
100
AcDbLine
 62
8
  6
HIDDEN
 10
218.2501781833
 20
127.8014753576
 11
217.5538968382
 21
127.8014753576
  0
LINE
  5
299
100
AcDbEntity
  8
BEZUGSACHSEN
100
AcDbLine
 62
8
  6
HIDDEN
 10
215.5538968382
 20
127.8014753576
 11
208.8576154931
 21
127.8014753576
  0
LINE
  5
29A
100
AcDbEntity
  8
BEZUGSACHSEN
100
AcDbLine
 62
8
  6
HIDDEN
 10
208.2501781833
 20
127.8014753576
 11
205.5538968382
 21
127.8014753576
  0
LINE
  5
29B
100
AcDbEntity
  8
BEZUGSACHSEN
100
AcDbLine
 62
8
  6
HIDDEN
 10
204.3552900974
 20
128.1014753576
 11
190.8933605051
 21
128.1014753576
  0
LINE
  5
29C
100
AcDbEntity
  8
FASEN
100
AcDbLine
 62
7
  6
CONTINUOUS
 10
164.8038968382
 20
132.3514753576
 11
180.6538968382
 21
132.3514753576
  0
LINE
  5
29D
100
AcDbEntity
  8
0
100
AcDbLine
 62
7
  6
CONTINUOUS
 10
164.8038968382
 20
132.7514753576
 11
180.6538968382
 21
132.7514753576
  0
LINE
  5
29E
100
AcDbEntity
  8
0
100
AcDbLine
 62
7
  6
CONTINUOUS
 10
169.481301574
 20
71.0514753576
 11
169.481301574
 21
81.3754099852
  0
LINE
  5
29F
100
AcDbEntity
  8
0
100
AcDbLine
 62
7
  6
CONTINUOUS
 10
169.481301574
 20
89.8014753576
 11
169.481301574
 21
106.8514753576
  0
LINE
  5
2A0
100
AcDbEntity
  8
0
100
AcDbLine
 62
7
  6
CONTINUOUS
 10
169.481301574
 20
132.7514753576
 11
169.481301574
 21
168.5514753576
  0
LINE
  5
2A1
100
AcDbEntity
  8
0
100
AcDbLine
 62
7
  6
CONTINUOUS
 10
170.8538968382
 20
166.1740541627
 11
170.8538968382
 21
163.6105889244
  0
LINE
  5
2A2
100
AcDbEntity
  8
BEZUGSACHSEN
100
AcDbLine
 62
7
  6
CONTINUOUS
 10
170.8538968382
 20
163.6105889244
 11
170.8538968382
 21
163.3778991332
  0
LINE
  5
2A3
100
AcDbEntity
  8
0
100
AcDbLine
 62
7
  6
CONTINUOUS
 10
170.8538968382
 20
163.1345170331
 11
170.8538968382
 21
132.7514753576
  0
LINE
  5
2A4
100
AcDbEntity
  8
0
100
AcDbLine
 62
7
  6
CONTINUOUS
 10
170.8538968382
 20
106.8514753576
 11
170.8538968382
 21
89.8014753576
  0
LINE
  5
2A5
100
AcDbEntity
  8
0
100
AcDbLine
 62
7
  6
CONTINUOUS
 10
170.8538968382
 20
73.4288880008
 11
170.8538968382
 21
84.7655562887
  0
LINE
  5
2A6
100
AcDbEntity
  8
0
100
AcDbLine
 62
9
  6
CONTINUOUS
 10
171.3538968382
 20
74.1764753576
 11
171.3538968382
 21
85.4264753576
  0
LINE
  5
2A7
100
AcDbEntity
  8
0
100
AcDbLine
 62
9
  6
CONTINUOUS
 10
171.3538968382
 20
89.8014753576
 11
171.3538968382
 21
106.8514753576
  0
LINE
  5
2A8
100
AcDbEntity
  8
0
100
AcDbLine
 62
9
  6
CONTINUOUS
 10
171.3538968382
 20
132.7514753576
 11
171.3538968382
 21
162.156483959
  0
LINE
  5
2A9
100
AcDbEntity
  8
0
100
AcDbLine
 62
9
  6
CONTINUOUS
 10
171.3538968382
 20
163.1499626983
 11
171.3538968382
 21
165.4264753576
  0
LINE
  5
2AA
100
AcDbEntity
  8
0
100
AcDbLine
 62
9
  6
CONTINUOUS
 10
174.1038968382
 20
74.1764753576
 11
174.1038968382
 21
85.4264753576
  0
LINE
  5
2AB
100
AcDbEntity
  8
0
100
AcDbLine
 62
9
  6
CONTINUOUS
 10
174.1038968382
 20
89.8014753576
 11
174.1038968382
 21
106.8514753576
  0
LINE
  5
2AC
100
AcDbEntity
  8
0
100
AcDbLine
 62
9
  6
CONTINUOUS
 10
174.1038968382
 20
132.7514753576
 11
174.1038968382
 21
162.156483959
  0
LINE
  5
2AD
100
AcDbEntity
  8
0
100
AcDbLine
 62
9
  6
CONTINUOUS
 10
174.1038968382
 20
163.1499626983
 11
174.1038968382
 21
165.4264753576
  0
LINE
  5
2AE
100
AcDbEntity
  8
BEZUGSACHSEN
100
AcDbLine
 62
7
  6
CONTINUOUS
 10
174.6038968382
 20
163.6105889244
 11
174.6038968382
 21
163.3778991332
  0
LINE
  5
2AF
100
AcDbEntity
  8
0
100
AcDbLine
 62
7
  6
CONTINUOUS
 10
174.6038968382
 20
163.1345170331
 11
174.6038968382
 21
132.7514753576
  0
LINE
  5
2B0
100
AcDbEntity
  8
0
100
AcDbLine
 62
7
  6
CONTINUOUS
 10
174.6038968382
 20
73.4288880008
 11
174.6038968382
 21
84.7655562887
  0
LINE
  5
2B1
100
AcDbEntity
  8
0
100
AcDbLine
 62
7
  6
CONTINUOUS
 10
174.6038968382
 20
89.8014753576
 11
174.6038968382
 21
106.8514753576
  0
LINE
  5
2B2
100
AcDbEntity
  8
0
100
AcDbLine
 62
7
  6
CONTINUOUS
 10
174.6038968382
 20
163.6105889244
 11
174.6038968382
 21
166.1740541627
  0
LINE
  5
2B3
100
AcDbEntity
  8
0
100
AcDbLine
 62
7
  6
CONTINUOUS
 10
175.9764921024
 20
168.5514753576
 11
175.9764921024
 21
132.7514753576
  0
LINE
  5
2B4
100
AcDbEntity
  8
0
100
AcDbLine
 62
7
  6
CONTINUOUS
 10
175.9764921024
 20
106.8514753576
 11
175.9764921024
 21
89.8014753576
  0
LINE
  5
2B5
100
AcDbEntity
  8
0
100
AcDbLine
 62
7
  6
CONTINUOUS
 10
175.9764921024
 20
81.3754099852
 11
175.9764921024
 21
71.0514753576
  0
LINE
  5
2B6
100
AcDbEntity
  8
0
100
AcDbLine
 62
9
  6
CONTINUOUS
 10
179.6538968382
 20
71.0514753576
 11
179.6538968382
 21
81.3754099852
  0
LINE
  5
2B7
100
AcDbEntity
  8
0
100
AcDbLine
 62
9
  6
CONTINUOUS
 10
179.6538968382
 20
89.8014753576
 11
179.6538968382
 21
106.8514753576
  0
LINE
  5
2B8
100
AcDbEntity
  8
0
100
AcDbLine
 62
9
  6
CONTINUOUS
 10
179.6538968382
 20
132.7514753576
 11
179.6538968382
 21
168.5514753576
  0
LINE
  5
2B9
100
AcDbEntity
  8
0
100
AcDbLine
 62
7
  6
CONTINUOUS
 10
180.6538968382
 20
167.5514752573
 11
180.6538968382
 21
132.7514753576
  0
LINE
  5
2BA
100
AcDbEntity
  8
BEZUGSACHSEN
100
AcDbLine
 62
7
  6
CONTINUOUS
 10
180.6538968382
 20
167.5311175394
 11
180.6538968382
 21
132.7514753576
  0
LINE
  5
2BB
100
AcDbEntity
  8
0
100
AcDbLine
 62
7
  6
CONTINUOUS
 10
180.6538968382
 20
106.8514753576
 11
180.6538968382
 21
89.8014753576
  0
LINE
  5
2BC
100
AcDbEntity
  8
0
100
AcDbLine
 62
7
  6
CONTINUOUS
 10
180.6538968382
 20
82.6522829034
 11
180.6538968382
 21
72.0515006419
  0
LINE
  5
2BD
100
AcDbEntity
  8
BEZUGSACHSEN
100
AcDbLine
 62
7
  6
CONTINUOUS
 10
180.6538968382
 20
82.6522829034
 11
180.6538968382
 21
72.0534969167
  0
LINE
  5
2BE
100
AcDbEntity
  8
FASEN
100
AcDbLine
 62
7
  6
CONTINUOUS
 10
180.6538968382
 20
82.6522829034
 11
180.6538968382
 21
89.8014753576
  0
LINE
  5
2BF
100
AcDbEntity
  8
FASEN
100
AcDbLine
 62
7
  6
CONTINUOUS
 10
180.6538968382
 20
106.8514753576
 11
180.6538968382
 21
132.7514753576
  0
LINE
  5
2C0
100
AcDbEntity
  8
BEZUGSACHSEN
100
AcDbLine
 62
7
  6
CONTINUOUS
 10
61.9431001653
 20
140.3016888705
 11
160.8476790556
 21
154.7264753576
  0
LINE
  5
2C1
100
AcDbEntity
  8
BEZUGSACHSEN
100
AcDbLine
 62
7
  6
CONTINUOUS
 10
162.1538968382
 20
154.3764753576
 11
163.8038968382
 21
154.3764753576
  0
LINE
  5
2C2
100
AcDbEntity
  8
BEZUGSACHSEN
100
AcDbLine
 62
7
  6
CONTINUOUS
 10
189.8693058809
 20
146.8691408824
 11
228.8969117905
 21
143.7976016841
  0
LINE
  5
2C3
100
AcDbEntity
  8
BEZUGSACHSEN
100
AcDbLine
 62
7
  6
CONTINUOUS
 10
229.9912788728
 20
143.7114731268
 11
240.6323559339
 21
142.8740021997
  0
LINE
  5
2C4
100
AcDbEntity
  8
BEZUGSACHSEN
100
AcDbLine
 62
9
  6
CONTINUOUS
 10
189.8693058809
 20
92.7338098327
 11
189.8693058809
 21
146.8691408824
  0
LINE
  5
2C5
100
AcDbEntity
  8
BEZUGSACHSEN
100
AcDbLine
 62
9
  6
CONTINUOUS
 10
190.8933605051
 20
128.1014753576
 11
190.8933605051
 21
111.5014753576
  0
LINE
  5
2C6
100
AcDbEntity
  8
BEZUGSACHSEN
100
AcDbLine
 62
7
  6
CONTINUOUS
 10
169.481301574
 20
71.0514753576
 11
170.8538968382
 21
73.4288800934
  0
LINE
  5
2C7
100
AcDbEntity
  8
BEZUGSACHSEN
100
AcDbLine
 62
7
  6
CONTINUOUS
 10
160.8476790556
 20
154.7264753576
 11
162.1538968382
 21
154.3764753576
  0
LINE
  5
2C8
100
AcDbEntity
  8
BEZUGSACHSEN
100
AcDbLine
 62
7
  6
CONTINUOUS
 10
169.481301574
 20
168.5514753576
 11
170.8538968382
 21
166.1740706218
  0
LINE
  5
2C9
100
AcDbEntity
  8
BEZUGSACHSEN
100
AcDbLine
 62
7
  6
CONTINUOUS
 10
171.3538968382
 20
165.4264753576
 11
174.1038968382
 21
165.4264753576
  0
LINE
  5
2CA
100
AcDbEntity
  8
BEZUGSACHSEN
100
AcDbLine
 62
7
  6
CONTINUOUS
 10
165.8038968382
 20
168.5514753576
 11
169.481301574
 21
168.5514753576
  0
LINE
  5
2CB
100
AcDbEntity
  8
BEZUGSACHSEN
100
AcDbLine
 62
7
  6
CONTINUOUS
 10
175.9764921024
 20
168.5514753576
 11
179.6538968382
 21
168.5514753576
  0
LWPOLYLINE
  5
2CC
100
AcDbEntity
  8
0
100
AcDbPolyline
 62
7
  6
CONTINUOUS
 90
8
 70
0
 10
231.3275033019
 20
143.3976969969
 10
231.3369351107
 20
143.3948900344
 10
231.342629361
 20
143.3930882345
 10
231.3410436077
 20
143.3936532766
 10
231.3323635932
 20
143.3969225892
 10
231.316437008
 20
143.4034337933
 10
231.2945741452
 20
143.4131682205
 10
231.283157902
 20
143.4185689699
  0
LINE
  5
2CD
100
AcDbEntity
  8
BEZUGSACHSEN
100
AcDbLine
 62
9
  6
CONTINUOUS
 10
240.6323559339
 20
96.7289485155
 11
240.6323559339
 21
142.8740021997
  0
LINE
  5
2CE
100
AcDbEntity
  8
0
100
AcDbLine
 62
2
  6
CONTINUOUS
 10
241.5538968382
 20
117.5359922843
 11
241.5538968382
 21
117.7727829702
  0
LINE
  5
2CF
100
AcDbEntity
  8
0
100
AcDbLine
 62
2
  6
CONTINUOUS
 10
241.5538968382
 20
117.9868734991
 11
241.5538968382
 21
118.1717907559
  0
LINE
  5
2D0
100
AcDbEntity
  8
0
100
AcDbLine
 62
2
  6
CONTINUOUS
 10
241.5538968397
 20
133.3340818817
 11
241.5538968382
 21
133.4245989556
  0
LINE
  5
2D1
100
AcDbEntity
  8
0
100
AcDbLine
 62
2
  6
CONTINUOUS
 10
241.5538968382
 20
136.2485936981
 11
241.5538968382
 21
136.3390326985
  0
LINE
  5
2D2
100
AcDbEntity
  8
BEZUGSACHSEN
100
AcDbLine
 62
7
  6
CONTINUOUS
 10
241.5538968382
 20
97.7258994122
 11
241.5538968382
 21
141.877051303
  0
ARC
  5
2D3
100
AcDbEntity
  8
0
100
AcDbCircle
 62
7
  6
CONTINUOUS
 10
423.4243249372
 20
194.0359136853
 40
271.8875117923
100
AcDbArc
 50
203.7716175585
 51
204.4792956408
  0
ARC
  5
2D4
100
AcDbEntity
  8
0
100
AcDbCircle
 62
7
  6
CONTINUOUS
 10
-77.9665312601
 20
194.035913685
 40
271.8875117915
100
AcDbArc
 50
335.5207043592
 51
336.2283824415
  0
ARC
  5
2D5
100
AcDbEntity
  8
0
100
AcDbCircle
 62
7
  6
CONTINUOUS
 10
226.9038668933
 20
121.1920512539
 40
25.4648169043
100
AcDbArc
 50
274.4900337465
 51
275.7299256572
  0
ARC
  5
2D6
100
AcDbEntity
  8
0
100
AcDbCircle
 62
7
  6
CONTINUOUS
 10
228.0027595624
 20
118.523362745
 40
25.2664822209
100
AcDbArc
 50
85.4865430769
 51
86.7254844549
  0
ARC
  5
2D7
100
AcDbEntity
  8
0
100
AcDbCircle
 62
7
  6
CONTINUOUS
 10
227.7965963834
 20
126.3826940837
 40
17.4428476905
100
AcDbArc
 50
82.6152293333
 51
82.7815608447
  0
ARC
  5
2D8
100
AcDbEntity
  8
BEZUGSACHSEN
100
AcDbCircle
 62
7
  6
CONTINUOUS
 10
190.6538968382
 20
156.8383142198
 40
10.0
100
AcDbArc
 50
180.0
 51
265.5
  0
ARC
  5
2D9
100
AcDbEntity
  8
BEZUGSACHSEN
100
AcDbCircle
 62
7
  6
CONTINUOUS
 10
190.6538968382
 20
82.7646364954
 40
10.0
100
AcDbArc
 50
94.5
 51
180.0
  0
CIRCLE
  5
2DA
100
AcDbEntity
  8
BEZUGSACHSEN
100
AcDbCircle
 62
7
  6
CONTINUOUS
 10
172.6538968382
 20
119.8014753576
 40
5.0
  0
CIRCLE
  5
2DB
100
AcDbEntity
  8
BEZUGSACHSEN
100
AcDbCircle
 62
7
  6
CONTINUOUS
 10
172.6538968382
 20
119.8014753576
 40
4.7
  0
ARC
  5
2DC
100
AcDbEntity
  8
BEZUGSACHSEN
100
AcDbCircle
 62
7
  6
CONTINUOUS
 10
62.3038968382
 20
137.8278607114
 40
2.5
100
AcDbArc
 50
98.2978268282
 51
180.0
  0
ARC
  5
2DD
100
AcDbEntity
  8
BEZUGSACHSEN
100
AcDbCircle
 62
7
  6
CONTINUOUS
 10
62.3038968382
 20
101.7750900037
 40
2.5
100
AcDbArc
 50
180.0
 51
261.7021731718
  0
CIRCLE
  5
2DE
100
AcDbEntity
  8
BEZUGSACHSEN
100
AcDbCircle
 62
7
  6
CONTINUOUS
 10
172.6538968382
 20
119.8014753576
 40
2.0
  0
ARC
  5
2DF
100
AcDbEntity
  8
BEZUGSACHSEN
100
AcDbCircle
 62
7
  6
CONTINUOUS
 10
240.5538968382
 20
141.8770848659
 40
1.0
100
AcDbArc
 50
0.0
 51
85.5
  0
ARC
  5
2E0
100
AcDbEntity
  8
BEZUGSACHSEN
100
AcDbCircle
 62
7
  6
PHANTOM
 10
240.5538968382
 20
97.7258658492
 40
1.0
100
AcDbArc
 50
274.5
 51
360.0
  0
ARC
  5
2E1
100
AcDbEntity
  8
BEZUGSACHSEN
100
AcDbCircle
 62
7
  6
CONTINUOUS
 10
165.8038968382
 20
167.5514753576
 40
1.0
100
AcDbArc
 50
90.0
 51
180.0
  0
ARC
  5
2E2
100
AcDbEntity
  8
BEZUGSACHSEN
100
AcDbCircle
 62
7
  6
CONTINUOUS
 10
165.8038968382
 20
72.0514753576
 40
1.0
100
AcDbArc
 50
180.0
 51
270.0
  0
ARC
  5
2E3
100
AcDbEntity
  8
BEZUGSACHSEN
100
AcDbCircle
 62
7
  6
CONTINUOUS
 10
179.6538968382
 20
167.5514753576
 40
1.0
100
AcDbArc
 50
0.0
 51
90.0
  0
ARC
  5
2E4
100
AcDbEntity
  8
BEZUGSACHSEN
100
AcDbCircle
 62
7
  6
CONTINUOUS
 10
179.6538968382
 20
72.0514753576
 40
1.0
100
AcDbArc
 50
270.0
 51
360.0
  0
ARC
  5
2E5
100
AcDbEntity
  8
BEZUGSACHSEN
100
AcDbCircle
 62
7
  6
CONTINUOUS
 10
163.8038968382
 20
155.3764753576
 40
1.0
100
AcDbArc
 50
270.0
 51
360.0
  0
ARC
  5
2E6
100
AcDbEntity
  8
BEZUGSACHSEN
100
AcDbCircle
 62
7
  6
CONTINUOUS
 10
163.8038968382
 20
84.2264753576
 40
1.0
100
AcDbArc
 50
0.0
 51
90.0
  0
ARC
  5
2E7
100
AcDbEntity
  8
BEZUGSACHSEN
100
AcDbCircle
 62
7
  6
CONTINUOUS
 10
174.1038968382
 20
165.9264753576
 40
0.5
100
AcDbArc
 50
270.0
 51
360.0
  0
ARC
  5
2E8
100
AcDbEntity
  8
BEZUGSACHSEN
100
AcDbCircle
 62
7
  6
CONTINUOUS
 10
174.1038968382
 20
73.6764753576
 40
0.5
100
AcDbArc
 50
0.0
 51
90.0
  0
ARC
  5
2E9
100
AcDbEntity
  8
BEZUGSACHSEN
100
AcDbCircle
 62
7
  6
CONTINUOUS
 10
171.3538968382
 20
165.9264753576
 40
0.5
100
AcDbArc
 50
180.0
 51
270.0
  0
ARC
  5
2EA
100
AcDbEntity
  8
BEZUGSACHSEN
100
AcDbCircle
 62
7
  6
CONTINUOUS
 10
171.3538968382
 20
73.6764753576
 40
0.5
100
AcDbArc
 50
90.0
 51
180.0
  0
LINE
  5
2EB
100
AcDbEntity
  8
0
100
AcDbLine
 62
2
  6
CONTINUOUS
 10
241.5538968382
 20
106.7919673146
 11
241.5538968382
 21
107.028850929
  0
SPLINE
  5
2EC
100
AcDbEntity
  8
0
100
AcDbSpline
 62
7
  6
CONTINUOUS
 70
0
 71
3
 72
12
 73
8
 74
0
 42
0.0000001
 43
0.0000001
 44
0.0000000001
 40
0.0
 40
0.0
 40
0.0
 40
0.0
 40
0.0831550998
 40
0.1831247141
 40
0.4224541527
 40
0.699314459
 40
1.0
 40
1.0
 40
1.0
 40
1.0
 10
227.6190345954
 20
95.8928314306
 30
0.0
 10
227.6525064459
 20
95.8826965217
 30
0.0
 10
227.727931479
 20
95.8661664835
 30
0.0
 10
227.9039725161
 20
95.8417250618
 30
0.0
 10
228.1629373943
 20
95.8258987092
 30
0.0
 10
228.5064765109
 20
95.8212900814
 30
0.0
 10
228.7493826273
 20
95.8256922404
 30
0.0
 10
228.8757889114
 20
95.8293588692
 30
0.0
  0
LINE
  5
2ED
100
AcDbEntity
  8
0
100
AcDbLine
 62
7
  6
CONTINUOUS
 10
228.8757889114
 20
95.8293588692
 11
228.8964559832
 21
95.8299709907
  0
SPLINE
  5
2EE
100
AcDbEntity
  8
0
100
AcDbSpline
 62
7
  6
CONTINUOUS
 70
0
 71
3
 72
9
 73
5
 74
0
 42
0.0000001
 43
0.0000001
 44
0.0000000001
 40
0.0
 40
0.0
 40
0.0
 40
0.0
 40
0.2438522156
 40
1.0
 40
1.0
 40
1.0
 40
1.0
 10
228.8964559832
 20
95.8299709907
 30
0.0
 10
228.9855344931
 20
95.8326634963
 30
0.0
 10
229.3507433863
 20
95.8465566302
 30
0.0
 10
229.7155674515
 20
95.8697849581
 30
0.0
 10
229.99106084
 20
95.8914601746
 30
0.0
  0
SPLINE
  5
2EF
100
AcDbEntity
  8
0
100
AcDbSpline
 62
7
  6
CONTINUOUS
 70
0
 71
3
 72
14
 73
10
 74
0
 42
0.0000001
 43
0.0000001
 44
0.0000000001
 40
0.0
 40
0.0
 40
0.0
 40
0.0
 40
0.0998526764
 40
0.2144797622
 40
0.3383014622
 40
0.4677585822
 40
0.7343819776
 40
0.8681518296
 40
1.0
 40
1.0
 40
1.0
 40
1.0
 10
226.7454754168
 20
96.1695711989
 30
0.0
 10
226.8516299597
 20
96.2199093542
 30
0.0
 10
227.0844788305
 20
96.3176843574
 30
0.0
 10
227.4564505648
 20
96.4593192681
 30
0.0
 10
227.8634943053
 20
96.6066719202
 30
0.0
 10
228.439670576
 20
96.8120691906
 30
0.0
 10
229.0258928866
 20
97.0243830404
 30
0.0
 10
229.6086645342
 20
97.2537132445
 30
0.0
 10
229.8961339845
 20
97.3765327604
 30
0.0
 10
230.0373870116
 20
97.4406654227
 30
0.0
  0
SPLINE
  5
2F0
100
AcDbEntity
  8
0
100
AcDbSpline
 62
7
  6
CONTINUOUS
 70
0
 71
3
 72
13
 73
9
 74
0
 42
0.0000001
 43
0.0000001
 44
0.0000000001
 40
0.0
 40
0.0
 40
0.0
 40
0.0
 40
0.1020998292
 40
0.2174089609
 40
0.3411472551
 40
0.4701459692
 40
0.7354110825
 40
1.0
 40
1.0
 40
1.0
 40
1.0
 10
232.0933495029
 20
143.0029333661
 30
0.0
 10
231.991299689
 20
142.9726930747
 30
0.0
 10
231.7715311563
 20
142.9167699014
 30
0.0
 10
231.4244072984
 20
142.8394592838
 30
0.0
 10
231.0486953506
 20
142.7616215784
 30
0.0
 10
230.5194705663
 20
142.654277341
 30
0.0
 10
229.8471702239
 20
142.5138076108
 30
0.0
 10
229.3102568333
 20
142.3826532613
 30
0.0
 10
229.0449661949
 20
142.3071484938
 30
0.0
  0
SPLINE
  5
2F1
100
AcDbEntity
  8
BEZUGSACHSEN
100
AcDbSpline
 62
7
  6
CONTINUOUS
 70
0
 71
3
 72
12
 73
8
 74
0
 42
0.0000001
 43
0.0000001
 44
0.0000000001
 40
0.0
 40
0.0
 40
0.0
 40
0.0
 40
0.2285589907
 40
0.464792377
 40
0.7163327566
 40
0.8543262108
 40
1.0
 40
1.0
 40
1.0
 40
1.0
 10
171.3538968382
 20
162.156483959
 30
0.0
 10
171.286113425
 20
162.1803528265
 30
0.0
 10
171.1581672627
 20
162.2585074217
 30
0.0
 10
171.0081654832
 20
162.4293764439
 30
0.0
 10
170.916392639
 20
162.605807943
 30
0.0
 10
170.8668313026
 20
162.7668622137
 30
0.0
 10
170.8538968382
 20
162.8560247164
 30
0.0
 10
170.8538968382
 20
162.9018272419
 30
0.0
  0
SPLINE
  5
2F2
100
AcDbEntity
  8
0
100
AcDbSpline
 62
7
  6
CONTINUOUS
 70
0
 71
3
 72
12
 73
8
 74
0
 42
0.0000001
 43
0.0000001
 44
0.0000000001
 40
0.0
 40
0.0
 40
0.0
 40
0.0
 40
0.0836345414
 40
0.1842027001
 40
0.4242977967
 40
0.7008581401
 40
1.0
 40
1.0
 40
1.0
 40
1.0
 10
231.2831319535
 20
143.4185691319
 30
0.0
 10
231.2511201266
 20
143.4340339013
 30
0.0
 10
231.1779655702
 20
143.4625175864
 30
0.0
 10
231.0052790473
 20
143.5147662736
 30
0.0
 10
230.7488038258
 20
143.5715145783
 30
0.0
 10
230.4070500297
 20
143.6304415199
 30
0.0
 10
230.1646656776
 20
143.6645142776
 30
0.0
 10
230.0385605498
 20
143.6808596578
 30
0.0
  0
SPLINE
  5
2F3
100
AcDbEntity
  8
0
100
AcDbSpline
 62
7
  6
CONTINUOUS
 70
0
 71
3
 72
9
 73
5
 74
0
 42
0.0000001
 43
0.0000001
 44
0.0000000001
 40
0.0
 40
0.0
 40
0.0
 40
0.0
 40
0.2448984938
 40
1.0
 40
1.0
 40
1.0
 40
1.0
 10
229.9883340358
 20
143.6872952527
 30
0.0
 10
229.8995288026
 20
143.6985438909
 30
0.0
 10
229.5365640767
 20
143.7417419247
 30
0.0
 10
229.1725491396
 20
143.7758987266
 30
0.0
 10
228.8973975743
 20
143.7975639801
 30
0.0
  0
SPLINE
  5
2F4
100
AcDbEntity
  8
BEZUGSACHSEN
100
AcDbSpline
 62
7
  6
CONTINUOUS
 70
0
 71
3
 72
13
 73
9
 74
0
 42
0.0000001
 43
0.0000001
 44
0.0000000001
 40
0.0
 40
0.0
 40
0.0
 40
0.0
 40
0.1112941313
 40
0.234175102
 40
0.4999999999
 40
0.765824894
 40
0.8887058669
 40
1.0
 40
1.0
 40
1.0
 40
1.0
 10
174.1038968382
 20
162.156483959
 30
0.0
 10
174.0062159871
 20
162.1220871769
 30
0.0
 10
173.7963061851
 20
162.061923674
 30
0.0
 10
173.3388495714
 20
161.9746740287
 30
0.0
 10
172.728896842
 20
161.9326210244
 30
0.0
 10
172.1189441107
 20
161.9746740288
 30
0.0
 10
171.6614874965
 20
162.0619236723
 30
0.0
 10
171.4515776908
 20
162.1220871763
 30
0.0
 10
171.3538968382
 20
162.156483959
 30
0.0
  0
SPLINE
  5
2F5
100
AcDbEntity
  8
BEZUGSACHSEN
100
AcDbSpline
 62
7
  6
CONTINUOUS
 70
0
 71
3
 72
11
 73
7
 74
0
 42
0.0000001
 43
0.0000001
 44
0.0000000001
 40
0.0
 40
0.0
 40
0.0
 40
0.0
 40
0.3179775427
 40
0.5986030959
 40
0.8295300049
 40
1.0
 40
1.0
 40
1.0
 40
1.0
 10
170.8538968382
 20
163.1345170331
 30
0.0
 10
170.8361198123
 20
163.1805098857
 30
0.0
 10
170.8038485675
 20
163.2675520807
 30
0.0
 10
170.7640503019
 20
163.3899842848
 30
0.0
 10
170.737914302
 20
163.4924394433
 30
0.0
 10
170.7288968382
 20
163.55447552
 30
0.0
 10
170.7288968382
 20
163.5809103544
 30
0.0
  0
SPLINE
  5
2F6
100
AcDbEntity
  8
BEZUGSACHSEN
100
AcDbSpline
 62
7
  6
CONTINUOUS
 70
0
 71
3
 72
19
 73
15
 74
0
 42
0.0000001
 43
0.0000001
 44
0.0000000001
 40
0.0
 40
0.0
 40
0.0
 40
0.0
 40
0.0490835125
 40
0.1018321575
 40
0.1594832324
 40
0.2223017624
 40
0.3606845566
 40
0.5087688929
 40
0.6547586154
 40
0.7875119704
 40
0.8469108256
 40
0.9013663528
 40
0.9517836931
 40
1.0
 40
1.0
 40
1.0
 40
1.0
 10
191.1038968382
 20
99.1408728547
 30
0.0
 10
191.1038968382
 20
99.2032227933
 30
0.0
 10
191.1245967657
 20
99.3331677786
 30
0.0
 10
191.2109199427
 20
99.5186920871
 30
0.0
 10
191.3478827509
 20
99.6930359367
 30
0.0
 10
191.5981703549
 20
99.9087630955
 30
0.0
 10
192.0024969696
 20
100.1087024704
 30
0.0
 10
192.5476304233
 20
100.2142975885
 30
0.0
 10
193.0946955098
 20
100.1777545457
 30
0.0
 10
193.5059817556
 20
100.0264784609
 30
0.0
 10
193.759474533
 20
99.839041077
 30
0.0
 10
193.8975393912
 20
99.6798815893
 30
0.0
 10
193.9840913338
 20
99.5030266878
 30
0.0
 10
194.0038968382
 20
99.3769593121
 30
0.0
 10
194.0038968382
 20
99.3157109697
 30
0.0
  0
SPLINE
  5
2F7
100
AcDbEntity
  8
BEZUGSACHSEN
100
AcDbSpline
 62
7
  6
CONTINUOUS
 70
0
 71
3
 72
27
 73
23
 74
0
 42
0.0000001
 43
0.0000001
 44
0.0000000001
 40
0.0
 40
0.0
 40
0.0
 40
0.0
 40
0.014966564
 40
0.0308822629
 40
0.0485757642
 40
0.068607951
 40
0.116659742
 40
0.1757333801
 40
0.2448418639
 40
0.3221477717
 40
0.4053039499
 40
0.4916619715
 40
0.5784217572
 40
0.6627794608
 40
0.7420615261
 40
0.8138377547
 40
0.8760798907
 40
0.927440892
 40
0.9489827913
 40
0.9679406319
 40
0.9847213064
 40
1.0
 40
1.0
 40
1.0
 40
1.0
 10
194.0038968382
 20
144.9309855308
 30
0.0
 10
194.0038968382
 20
144.9146443124
 30
0.0
 10
193.9988504736
 20
144.8807503893
 30
0.0
 10
193.9767400941
 20
144.831946023
 30
0.0
 10
193.940872452
 20
144.7851323063
 30
0.0
 10
193.8712657078
 20
144.7219112064
 30
0.0
 10
193.7497710068
 20
144.6519721625
 30
0.0
 10
193.5686633378
 20
144.5855321697
 30
0.0
 10
193.3495588616
 20
144.5349547332
 30
0.0
 10
193.1006048116
 20
144.5030673973
 30
0.0
 10
192.8310460569
 20
144.4918121106
 30
0.0
 10
192.5511491931
 20
144.5020980512
 30
0.0
 10
192.271532017
 20
144.533661899
 30
0.0
 10
192.0027231061
 20
144.5850909781
 30
0.0
 10
191.7547551
 20
144.6539217921
 30
0.0
 10
191.5366601831
 20
144.7368521585
 30
0.0
 10
191.3564451497
 20
144.8299333298
 30
0.0
 10
191.2361270372
 20
144.9172156433
 30
0.0
 10
191.1669703801
 20
144.9902664927
 30
0.0
 10
191.1312948282
 20
145.0420297807
 30
0.0
 10
191.1092064979
 20
145.0936458951
 30
0.0
 10
191.1038968382
 20
145.1287742123
 30
0.0
 10
191.1038968382
 20
145.1454562289
 30
0.0
  0
SPLINE
  5
2F8
100
AcDbEntity
  8
BEZUGSACHSEN
100
AcDbSpline
 62
7
  6
CONTINUOUS
 70
0
 71
3
 72
11
 73
7
 74
0
 42
0.0000001
 43
0.0000001
 44
0.0000000001
 40
0.0
 40
0.0
 40
0.0
 40
0.0
 40
0.170469925
 40
0.40139684
 40
0.6820224314
 40
1.0
 40
1.0
 40
1.0
 40
1.0
 10
174.7288968382
 20
163.5809103544
 30
0.0
 10
174.7288968382
 20
163.5544755309
 30
0.0
 10
174.7198793763
 20
163.4924394642
 30
0.0
 10
174.6937433829
 20
163.3899843082
 30
0.0
 10
174.6539451133
 20
163.2675520939
 30
0.0
 10
174.6216738656
 20
163.1805098895
 30
0.0
 10
174.6038968382
 20
163.1345170331
 30
0.0
  0
SPLINE
  5
2F9
100
AcDbEntity
  8
BEZUGSACHSEN
100
AcDbSpline
 62
7
  6
CONTINUOUS
 70
0
 71
3
 72
12
 73
8
 74
0
 42
0.0000001
 43
0.0000001
 44
0.0000000001
 40
0.0
 40
0.0
 40
0.0
 40
0.0
 40
0.1456716826
 40
0.283665259
 40
0.5352057812
 40
0.7714390827
 40
1.0
 40
1.0
 40
1.0
 40
1.0
 10
174.6038968382
 20
162.9018272419
 30
0.0
 10
174.6038968382
 20
162.8560253789
 30
0.0
 10
174.5909625395
 20
162.766863512
 30
0.0
 10
174.541401782
 20
162.605809662
 30
0.0
 10
174.4496291395
 20
162.4293780063
 30
0.0
 10
174.2996275131
 20
162.258508027
 30
0.0
 10
174.1716808225
 20
162.1803530276
 30
0.0
 10
174.1038968382
 20
162.156483959
 30
0.0
  0
SPLINE
  5
2FA
100
AcDbEntity
  8
0
100
AcDbSpline
 62
7
  6
CONTINUOUS
 70
0
 71
3
 72
28
 73
24
 74
0
 42
0.0000001
 43
0.0000001
 44
0.0000000001
 40
0.0
 40
0.0
 40
0.0
 40
0.0
 40
0.1784161616
 40
0.3530323915
 40
0.4372696686
 40
0.5183092824
 40
0.5949702065
 40
0.6655495251
 40
0.7279275606
 40
0.7552523199
 40
0.7794940078
 40
0.8003161539
 40
0.8174831249
 40
0.8310507452
 40
0.841764944
 40
0.8514508783
 40
0.8625949037
 40
0.876864002
 40
0.894797393
 40
0.9163817795
 40
0.9413457092
 40
0.9693307251
 40
1.0
 40
1.0
 40
1.0
 40
1.0
 10
229.99106084
 20
143.7114905406
 30
0.0
 10
230.1724701
 20
143.6972176573
 30
0.0
 10
230.5311450585
 20
143.6653039264
 30
0.0
 10
230.974454079
 20
143.6161218925
 30
0.0
 10
231.3181218892
 20
143.5705446483
 30
0.0
 10
231.562149877
 20
143.5338553414
 30
0.0
 10
231.7916032571
 20
143.4941937202
 30
0.0
 10
232.0010944598
 20
143.4513604178
 30
0.0
 10
232.1597666305
 20
143.411555308
 30
0.0
 10
232.2706898121
 20
143.3767697634
 30
0.0
 10
232.3399200685
 20
143.3509726374
 30
0.0
 10
232.3976397856
 20
143.3243954826
 30
0.0
 10
232.442774173
 20
143.2970310479
 30
0.0
 10
232.4745043475
 20
143.2686384896
 30
0.0
 10
232.4922505705
 20
143.2374696927
 30
0.0
 10
232.4909718871
 20
143.203644152
 30
0.0
 10
232.4713594793
 20
143.1724404989
 30
0.0
 10
232.4378342839
 20
143.1432408613
 30
0.0
 10
232.3909890962
 20
143.114372804
 30
0.0
 10
232.331665387
 20
143.0858340123
 30
0.0
 10
232.2610707075
 20
143.0575291634
 30
0.0
 10
232.1804945298
 20
143.0295226613
 30
0.0
 10
232.1233405856
 20
143.0118205854
 30
0.0
 10
232.0933495029
 20
143.0029333661
 30
0.0
  0
SPLINE
  5
2FB
100
AcDbEntity
  8
BEZUGSACHSEN
100
AcDbSpline
 62
7
  6
CONTINUOUS
 70
0
 71
3
 72
13
 73
9
 74
0
 42
0.0000001
 43
0.0000001
 44
0.0000000001
 40
0.0
 40
0.0
 40
0.0
 40
0.0
 40
0.1104395335
 40
0.2331386188
 40
0.5
 40
0.7668613771
 40
0.8895604644
 40
1.0
 40
1.0
 40
1.0
 40
1.0
 10
171.3538968382
 20
163.1499626983
 30
0.0
 10
171.4519692706
 20
163.178939828
 30
0.0
 10
171.6624667199
 20
163.2285251982
 30
0.0
 10
172.1204450827
 20
163.2985760322
 30
0.0
 10
172.7288968344
 20
163.3309342168
 30
0.0
 10
173.3373485878
 20
163.2985760322
 30
0.0
 10
173.7953269509
 20
163.2285251996
 30
0.0
 10
174.005824404
 20
163.1789398285
 30
0.0
 10
174.1038968382
 20
163.1499626983
 30
0.0
  0
SPLINE
  5
2FC
100
AcDbEntity
  8
BEZUGSACHSEN
100
AcDbSpline
 62
7
  6
CONTINUOUS
 70
0
 71
3
 72
14
 73
10
 74
0
 42
0.0000001
 43
0.0000001
 44
0.0000000001
 40
0.0
 40
0.0
 40
0.0
 40
0.0
 40
0.3248720194
 40
0.4474906438
 40
0.5465104138
 40
0.6327155214
 40
0.7259269576
 40
0.8450033001
 40
1.0
 40
1.0
 40
1.0
 40
1.0
 10
174.6038968382
 20
163.6105889244
 30
0.0
 10
174.6199132947
 20
163.6225107489
 30
0.0
 10
174.6429973273
 20
163.6381069364
 30
0.0
 10
174.6747248879
 20
163.6496258738
 30
0.0
 10
174.6939850499
 20
163.6513215623
 30
0.0
 10
174.7106402583
 20
163.6447152977
 30
0.0
 10
174.7219596072
 20
163.6293666896
 30
0.0
 10
174.7279083237
 20
163.6073326028
 30
0.0
 10
174.7288968382
 20
163.5904363355
 30
0.0
 10
174.7288968382
 20
163.5809103544
 30
0.0
  0
SPLINE
  5
2FD
100
AcDbEntity
  8
0
100
AcDbSpline
 62
7
  6
CONTINUOUS
 70
0
 71
3
 72
27
 73
23
 74
0
 42
0.0000001
 43
0.0000001
 44
0.0000000001
 40
0.0
 40
0.0
 40
0.0
 40
0.0
 40
0.1801894748
 40
0.355681667
 40
0.4400067733
 40
0.5208830514
 40
0.5971511587
 40
0.6671587209
 40
0.728889269
 40
0.7799533852
 40
0.8006869592
 40
0.8178824547
 40
0.8315530728
 40
0.8423682756
 40
0.852032411
 40
0.8629729344
 40
0.876935675
 40
0.894587023
 40
0.9159837558
 40
0.9409120869
 40
0.9690312318
 40
1.0
 40
1.0
 40
1.0
 40
1.0
 10
228.8973975743
 20
95.8053867351
 30
0.0
 10
228.7177281234
 20
95.7912396806
 30
0.0
 10
228.3627799003
 20
95.7669223761
 30
0.0
 10
227.9231084592
 20
95.7464868872
 30
0.0
 10
227.5824376186
 20
95.7380774801
 30
0.0
 10
227.3409080042
 20
95.7363984517
 30
0.0
 10
227.1137195755
 20
95.7399262543
 30
0.0
 10
226.9058273597
 20
95.7495497738
 30
0.0
 10
226.7237334909
 20
95.7663831162
 30
0.0
 10
226.5916171979
 20
95.7879868295
 30
0.0
 10
226.5058453345
 20
95.8121515663
 30
0.0
 10
226.4578499163
 20
95.8316208597
 30
0.0
 10
226.4223870838
 20
95.8540640363
 30
0.0
 10
226.3997414932
 20
95.8810814031
 30
0.0
 10
226.3943890636
 20
95.9136659957
 30
0.0
 10
226.407203518
 20
95.9469497228
 30
0.0
 10
226.4340216906
 20
95.9803637038
 30
0.0
 10
226.4739869675
 20
96.0154721641
 30
0.0
 10
226.5264317999
 20
96.0522604641
 30
0.0
 10
226.5903084904
 20
96.0906057963
 30
0.0
 10
226.6644111371
 20
96.1302811683
 30
0.0
 10
226.7174877188
 20
96.1562995192
 30
0.0
 10
226.7454754168
 20
96.1695711989
 30
0.0
  0
SPLINE
  5
2FE
100
AcDbEntity
  8
BEZUGSACHSEN
100
AcDbSpline
 62
7
  6
CONTINUOUS
 70
0
 71
3
 72
9
 73
5
 74
0
 42
0.0000001
 43
0.0000001
 44
0.0000000001
 40
0.0
 40
0.0
 40
0.0
 40
0.0
 40
0.5825990071
 40
1.0
 40
1.0
 40
1.0
 40
1.0
 10
170.8538968382
 20
163.3778991332
 30
0.0
 10
170.8538968382
 20
163.3474939576
 30
0.0
 10
170.8590418195
 20
163.2947292011
 30
0.0
 10
170.8805537929
 20
163.2461046394
 30
0.0
 10
170.8926953967
 20
163.2280184517
 30
0.0
  0
SPLINE
  5
2FF
100
AcDbEntity
  8
BEZUGSACHSEN
100
AcDbSpline
 62
7
  6
CONTINUOUS
 70
0
 71
3
 72
13
 73
9
 74
0
 42
0.0000001
 43
0.0000001
 44
0.0000000001
 40
0.0
 40
0.0
 40
0.0
 40
0.0
 40
0.1077372311
 40
0.2109119011
 40
0.3173700565
 40
0.431200009
 40
0.6897339049
 40
1.0
 40
1.0
 40
1.0
 40
1.0
 10
170.8926953967
 20
163.2280184517
 30
0.0
 10
170.9026217476
 20
163.2132321148
 30
0.0
 10
170.9263014259
 20
163.1869196429
 30
0.0
 10
170.9704751591
 20
163.1578701436
 30
0.0
 10
171.0203132518
 20
163.1377456194
 30
0.0
 10
171.0977157421
 20
163.1200168971
 30
0.0
 10
171.2116511612
 20
163.1174877942
 30
0.0
 10
171.3047111751
 20
163.135429977
 30
0.0
 10
171.3538968382
 20
163.1499626983
 30
0.0
  0
SPLINE
  5
300
100
AcDbEntity
  8
0
100
AcDbSpline
 62
7
  6
CONTINUOUS
 70
0
 71
3
 72
95
 73
91
 74
0
 42
0.0000001
 43
0.0000001
 44
0.0000000001
 40
0.0
 40
0.0
 40
0.0
 40
0.0
 40
0.0384274
 40
0.0576566032
 40
0.0768869298
 40
0.0960991632
 40
0.1152538612
 40
0.1248085647
 40
0.1343301135
 40
0.1438144229
 40
0.1532622225
 40
0.1626798439
 40
0.1720738815
 40
0.1907986268
 40
0.2094849598
 40
0.2281369112
 40
0.2467508882
 40
0.2653165105
 40
0.2838181486
 40
0.3022323253
 40
0.3205235873
 40
0.3386379144
 40
0.3564953883
 40
0.3740046598
 40
0.3826453912
 40
0.391229408
 40
0.3997988303
 40
0.4084009078
 40
0.4170644393
 40
0.425800388
 40
0.4434600756
 40
0.4613170654
 40
0.4792837057
 40
0.4972866273
 40
0.515265466
 40
0.5331579471
 40
0.5508873424
 40
0.568350799
 40
0.5853838978
 40
0.6017314867
 40
0.6095469262
 40
0.6170615404
 40
0.6242618022
 40
0.6311821669
 40
0.6379242155
 40
0.6446264595
 40
0.6582961555
 40
0.6653929944
 40
0.6726480731
 40
0.6875515854
 40
0.7028313153
 40
0.7183051213
 40
0.733828441
 40
0.7492682717
 40
0.764476205
 40
0.7792516322
 40
0.7932928629
 40
0.7999123172
 40
0.8061661451
 40
0.8119747606
 40
0.8172759283
 40
0.8220740898
 40
0.8265135032
 40
0.8309034334
 40
0.8355672782
 40
0.84069457
 40
0.846318443
 40
0.8523825848
 40
0.858808133
 40
0.8724567501
 40
0.8867846235
 40
0.9014697544
 40
0.9162755447
 40
0.9309968413
 40
0.9454171013
 40
0.959250365
 40
0.965822052
 40
0.9720747199
 40
0.9779137158
 40
0.9832149704
 40
0.9878342489
 40
0.9916117002
 40
0.9931373889
 40
0.9944066315
 40
0.995429067
 40
0.996256569
 40
0.9969985585
 40
0.9978035579
 40
0.9987858995
 40
1.0
 40
1.0
 40
1.0
 40
1.0
 10
229.9914772434
 20
119.8014753576
 30
0.0
 10
229.6728238965
 20
119.4967165267
 30
0.0
 10
229.1946996511
 20
119.0389752061
 30
0.0
 10
228.5957177673
 20
118.390735306
 30
0.0
 10
228.1799881409
 20
117.8748052694
 30
0.0
 10
227.8226637557
 20
117.3168243389
 30
0.0
 10
227.6056060893
 20
116.8067408336
 30
0.0
 10
227.510491311
 20
116.3772530754
 30
0.0
 10
227.4840504054
 20
116.0495021268
 30
0.0
 10
227.5046239138
 20
115.7225167544
 30
0.0
 10
227.5713375326
 20
115.403094105
 30
0.0
 10
227.6777748111
 20
115.0960024359
 30
0.0
 10
227.8624707673
 20
114.706146595
 30
0.0
 10
228.1573568926
 20
114.2545621612
 30
0.0
 10
228.5703025195
 20
113.7603126104
 30
0.0
 10
229.0184494214
 20
113.3000150994
 30
0.0
 10
229.4864590292
 20
112.8623952205
 30
0.0
 10
229.9634235955
 20
112.4372743926
 30
0.0
 10
230.441088821
 20
112.0164398461
 30
0.0
 10
230.9110510193
 20
111.5916101693
 30
0.0
 10
231.3631396536
 20
111.1539828767
 30
0.0
 10
231.7830139986
 20
110.6932124566
 30
0.0
 10
232.1464206118
 20
110.1968794908
 30
0.0
 10
232.371806926
 20
109.7395614163
 30
0.0
 10
232.4712471938
 20
109.3521494011
 30
0.0
 10
232.4995989843
 20
109.0562036251
 30
0.0
 10
232.4781180106
 20
108.7600679087
 30
0.0
 10
232.4092740024
 20
108.4705706209
 30
0.0
 10
232.300302592
 20
108.1919633186
 30
0.0
 10
232.1108736831
 20
107.8362530743
 30
0.0
 10
231.8101490142
 20
107.4243819139
 30
0.0
 10
231.3938454219
 20
106.9726472051
 30
0.0
 10
230.9434064481
 20
106.5495652328
 30
0.0
 10
230.4746576586
 20
106.145139455
 30
0.0
 10
229.9976727498
 20
105.7518940286
 30
0.0
 10
229.521043358
 20
105.3631936308
 30
0.0
 10
229.0536528885
 20
104.9725544011
 30
0.0
 10
228.6055078264
 20
104.5743971914
 30
0.0
 10
228.192192369
 20
104.1621492671
 30
0.0
 10
227.8905284914
 20
103.7960968003
 30
0.0
 10
227.6973387041
 20
103.4875077386
 30
0.0
 10
227.5859675199
 20
103.2534094826
 30
0.0
 10
227.5124864303
 20
103.0151581812
 30
0.0
 10
227.4836161638
 20
102.775987479
 30
0.0
 10
227.503714453
 20
102.5414643901
 30
0.0
 10
227.5928306637
 20
102.241433121
 30
0.0
 10
227.76342851
 20
101.9697142312
 30
0.0
 10
227.9792263305
 20
101.731274424
 30
0.0
 10
228.2261475928
 20
101.5031770576
 30
0.0
 10
228.5718068246
 20
101.2464232518
 30
0.0
 10
229.0177647173
 20
100.9709438402
 30
0.0
 10
229.4834340043
 20
100.7154692352
 30
0.0
 10
229.9582134685
 20
100.4735338703
 30
0.0
 10
230.4336003056
 20
100.2397067084
 30
0.0
 10
230.9010779241
 20
100.0092128844
 30
0.0
 10
231.3498493683
 20
99.7772319203
 30
0.0
 10
231.7024114665
 20
99.5739466944
 30
0.0
 10
231.9589286075
 20
99.4017151138
 30
0.0
 10
232.1288238863
 20
99.2706489354
 30
0.0
 10
232.2747147813
 20
99.1343468589
 30
0.0
 10
232.3903326332
 20
98.9920830572
 30
0.0
 10
232.4685973638
 20
98.8429395369
 30
0.0
 10
232.4997852278
 20
98.6869532876
 30
0.0
 10
232.4775641282
 20
98.5309120927
 30
0.0
 10
232.4073280124
 20
98.3820845184
 30
0.0
 10
232.2977249128
 20
98.2419932007
 30
0.0
 10
232.1565700783
 20
98.109716847
 30
0.0
 10
231.9905589723
 20
97.984221587
 30
0.0
 10
231.7381237876
 20
97.8218935358
 30
0.0
 10
231.3888659834
 20
97.63673979
 30
0.0
 10
230.9430670958
 20
97.4342433106
 30
0.0
 10
230.4773855159
 20
97.2444101075
 30
0.0
 10
230.0030180225
 20
97.0645248257
 30
0.0
 10
229.5289444897
 20
96.892627765
 30
0.0
 10
229.0643336248
 20
96.7274353043
 30
0.0
 10
228.6881795732
 20
96.5925614987
 30
0.0
 10
228.4014860403
 20
96.4859269164
 30
0.0
 10
228.2016852486
 20
96.4088321273
 30
0.0
 10
228.0168458019
 20
96.3335480669
 30
0.0
 10
227.851368131
 20
96.2604902686
 30
0.0
 10
227.7106257707
 20
96.1904660047
 30
0.0
 10
227.6123600508
 20
96.1323907517
 30
0.0
 10
227.552334754
 20
96.0865759356
 30
0.0
 10
227.5206682913
 20
96.0560928623
 30
0.0
 10
227.4996201049
 20
96.0268124175
 30
0.0
 10
227.4897909582
 20
95.9979473711
 30
0.0
 10
227.4936790164
 20
95.9698793935
 30
0.0
 10
227.5109495487
 20
95.9455538283
 30
0.0
 10
227.5388324745
 20
95.9248386579
 30
0.0
 10
227.5616537278
 20
95.9138827532
 30
0.0
 10
227.5745204192
 20
95.908542291
 30
0.0
  0
SPLINE
  5
301
100
AcDbEntity
  8
0
100
AcDbSpline
 62
7
  6
CONTINUOUS
 70
0
 71
3
 72
9
 73
5
 74
0
 42
0.0000001
 43
0.0000001
 44
0.0000000001
 40
0.0
 40
0.0
 40
0.0
 40
0.0
 40
0.2352689183
 40
1.0
 40
1.0
 40
1.0
 40
1.0
 10
227.5745204192
 20
95.908542291
 30
0.0
 10
227.5779404011
 20
95.9071227897
 30
0.0
 10
227.5925694765
 20
95.9013124844
 30
0.0
 10
227.6075150599
 20
95.8963194194
 30
0.0
 10
227.6190345954
 20
95.8928314306
 30
0.0
  0
SPLINE
  5
302
100
AcDbEntity
  8
0
100
AcDbSpline
 62
7
  6
CONTINUOUS
 70
0
 71
3
 72
13
 73
9
 74
0
 42
0.0000001
 43
0.0000001
 44
0.0000000001
 40
0.0
 40
0.0
 40
0.0
 40
0.0
 40
0.2498811037
 40
0.4995034282
 40
0.6246911959
 40
0.7498331248
 40
0.874930011
 40
1.0
 40
1.0
 40
1.0
 40
1.0
 10
180.6538968382
 20
82.6522829034
 30
0.0
 10
180.6538968382
 20
82.5031828165
 30
0.0
 10
180.6137410642
 20
82.2036345171
 30
0.0
 10
180.4565774015
 20
81.8578067497
 30
0.0
 10
180.2637158674
 20
81.6279151712
 30
0.0
 10
180.0854575506
 20
81.4890052474
 30
0.0
 10
179.8786106857
 20
81.3970733127
 30
0.0
 10
179.7285241147
 20
81.3754099852
 30
0.0
 10
179.6538968382
 20
81.3754099852
 30
0.0
  0
SPLINE
  5
303
100
AcDbEntity
  8
0
100
AcDbSpline
 62
7
  6
CONTINUOUS
 70
0
 71
3
 72
97
 73
93
 74
0
 42
0.0000001
 43
0.0000001
 44
0.0000000001
 40
0.0
 40
0.0
 40
0.0
 40
0.0
 40
0.0192201265
 40
0.0384230186
 40
0.0576045338
 40
0.0767579512
 40
0.0958703892
 40
0.1149264194
 40
0.1244502033
 40
0.1339663455
 40
0.1434786202
 40
0.1529918355
 40
0.1625092839
 40
0.1720322683
 40
0.191080312
 40
0.2101447646
 40
0.2292098699
 40
0.2482633751
 40
0.2672916173
 40
0.2862779872
 40
0.3051985678
 40
0.3240163007
 40
0.3426697473
 40
0.3610509997
 40
0.3789995022
 40
0.3877827325
 40
0.3964298345
 40
0.4049673785
 40
0.4134391127
 40
0.4303206221
 40
0.4388114149
 40
0.4473339981
 40
0.4644634969
 40
0.4816797633
 40
0.4989248812
 40
0.5161394357
 40
0.5332622702
 40
0.5502192958
 40
0.566907563
 40
0.5831690569
 40
0.5910747708
 40
0.5987878754
 40
0.6062735122
 40
0.613512481
 40
0.6205203774
 40
0.6273681801
 40
0.6341828832
 40
0.6411011843
 40
0.6482106132
 40
0.6555442502
 40
0.6708043955
 40
0.6866601817
 40
0.7028720853
 40
0.7192549944
 40
0.7356685727
 40
0.7519789322
 40
0.7680380641
 40
0.7836553212
 40
0.7985381908
 40
0.8055749305
 40
0.8122420514
 40
0.8184507996
 40
0.8241204852
 40
0.8292165799
 40
0.8338069136
 40
0.8381294524
 40
0.8425151357
 40
0.8472231821
 40
0.8523647311
 40
0.8579311949
 40
0.8638692747
 40
0.8766122756
 40
0.8901458119
 40
0.9041289373
 40
0.9183118634
 40
0.9324794802
 40
0.9464118384
 40
0.9598267707
 40
0.9662182211
 40
0.9723144795
 40
0.9780253609
 40
0.9832316019
 40
0.9877867902
 40
0.9915284118
 40
0.9930467241
 40
0.9943140899
 40
0.995338723
 40
0.9961723677
 40
0.996926384
 40
0.9977501699
 40
0.9987567154
 40
1.0
 40
1.0
 40
1.0
 40
1.0
 10
228.8966637461
 20
119.8014753576
 30
0.0
 10
229.0556146211
 20
119.9540431908
 30
0.0
 10
229.3735797023
 20
120.2588259377
 30
0.0
 10
229.8427564438
 20
120.7235943671
 30
0.0
 10
230.2933136482
 20
121.205618302
 30
0.0
 10
230.7108518052
 20
121.7159170623
 30
0.0
 10
231.0700566014
 20
122.2681807748
 30
0.0
 10
231.2877255344
 20
122.7748218597
 30
0.0
 10
231.3811430913
 20
123.2027651939
 30
0.0
 10
231.4046001511
 20
123.5304152473
 30
0.0
 10
231.3795678939
 20
123.8578354582
 30
0.0
 10
231.3075994318
 20
124.1780660287
 30
0.0
 10
231.1960154734
 20
124.4865420906
 30
0.0
 10
231.0049889089
 20
124.879863975
 30
0.0
 10
230.7038456167
 20
125.3378415608
 30
0.0
 10
230.2859329814
 20
125.8435830616
 30
0.0
 10
229.8346970954
 20
126.3194943923
 30
0.0
 10
229.3652764871
 20
126.7765155788
 30
0.0
 10
228.8882711969
 20
127.2242061413
 30
0.0
 10
228.4119182556
 20
127.6703521552
 30
0.0
 10
227.944688916
 20
128.1226893503
 30
0.0
 10
227.4969759601
 20
128.5892722695
 30
0.0
 10
227.0832731729
 20
129.078892815
 30
0.0
 10
226.7282317871
 20
129.6014315246
 30
0.0
 10
226.5106826804
 20
130.0755222725
 30
0.0
 10
226.4156644321
 20
130.4710974958
 30
0.0
 10
226.3890628112
 20
130.7687659603
 30
0.0
 10
226.4098726658
 20
131.0634551148
 30
0.0
 10
226.4988617845
 20
131.443055094
 30
0.0
 10
226.6672425065
 20
131.797689375
 30
0.0
 10
226.8854215353
 20
132.1194125564
 30
0.0
 10
227.1306222299
 20
132.4249872048
 30
0.0
 10
227.4744227346
 20
132.7775077544
 30
0.0
 10
227.921115044
 20
133.1656023623
 30
0.0
 10
228.3874361138
 20
133.5311432599
 30
0.0
 10
228.8627110239
 20
133.8829622775
 30
0.0
 10
229.3387205008
 20
134.2281357772
 30
0.0
 10
229.8072788796
 20
134.573354343
 30
0.0
 10
230.2582038087
 20
134.9255667509
 30
0.0
 10
230.6103523413
 20
135.2352654881
 30
0.0
 10
230.8644614563
 20
135.4982226993
 30
0.0
 10
231.0348696537
 20
135.7013377746
 30
0.0
 10
231.1813446098
 20
135.9133682057
 30
0.0
 10
231.2967223472
 20
136.1350864055
 30
0.0
 10
231.3736153961
 20
136.3656473876
 30
0.0
 10
231.4046140041
 20
136.6022450041
 30
0.0
 10
231.385213609
 20
136.8391189769
 30
0.0
 10
231.3183974471
 20
137.0699265129
 30
0.0
 10
231.2114515612
 20
137.2912549652
 30
0.0
 10
231.022450366
 20
137.5754329427
 30
0.0
 10
230.7227433728
 20
137.9016368923
 30
0.0
 10
230.3104657981
 20
138.2551087891
 30
0.0
 10
229.8631945108
 20
138.5849470897
 30
0.0
 10
229.3967912782
 20
138.8982683416
 30
0.0
 10
228.9216399456
 20
139.2001686822
 30
0.0
 10
228.4467024634
 20
139.4953646702
 30
0.0
 10
227.9807889779
 20
139.787821938
 30
0.0
 10
227.5344563701
 20
140.0805354615
 30
0.0
 10
227.1848593527
 20
140.3319545088
 30
0.0
 10
226.9310900111
 20
140.5394834702
 30
0.0
 10
226.7629988208
 20
140.6941693818
 30
0.0
 10
226.6185785766
 20
140.8506292497
 30
0.0
 10
226.503888666
 20
141.0085650406
 30
0.0
 10
226.4249067589
 20
141.1671752457
 30
0.0
 10
226.3895182357
 20
141.3260474125
 30
0.0
 10
226.4046971873
 20
141.4805119881
 30
0.0
 10
226.4683881951
 20
141.6229670748
 30
0.0
 10
226.5718774209
 20
141.7508376841
 30
0.0
 10
226.7071641242
 20
141.8655938777
 30
0.0
 10
226.867530416
 20
141.9696604436
 30
0.0
 10
227.1138671291
 20
142.099010104
 30
0.0
 10
227.4572780535
 20
142.2368772457
 30
0.0
 10
227.8972985023
 20
142.3765929262
 30
0.0
 10
228.3593253869
 20
142.499681347
 30
0.0
 10
228.8318484513
 20
142.6103720211
 30
0.0
 10
229.3057654471
 20
142.7120988028
 30
0.0
 10
229.7719781863
 20
142.8075844871
 30
0.0
 10
230.1508661107
 20
142.8852041803
 30
0.0
 10
230.4411231942
 20
142.9477963801
 30
0.0
 10
230.6445552809
 20
142.994037586
 30
0.0
 10
230.833952252
 20
143.040597922
 30
0.0
 10
231.0049912151
 20
143.0877350498
 30
0.0
 10
231.1522190912
 20
143.1355988853
 30
0.0
 10
231.2566754737
 20
143.178179126
 30
0.0
 10
231.3222276822
 20
143.2144597043
 30
0.0
 10
231.3578814956
 20
143.2399544497
 30
0.0
 10
231.3829426573
 20
143.2659538428
 30
0.0
 10
231.3967694576
 20
143.293385751
 30
0.0
 10
231.3967412436
 20
143.3221256801
 30
0.0
 10
231.3828361079
 20
143.3491838698
 30
0.0
 10
231.3578077975
 20
143.3743907586
 30
0.0
 10
231.3364290411
 20
143.3890185765
 30
0.0
 10
231.3242514257
 20
143.3964229021
 30
0.0
  0
SPLINE
  5
304
100
AcDbEntity
  8
0
100
AcDbSpline
 62
7
  6
CONTINUOUS
 70
0
 71
3
 72
9
 73
5
 74
0
 42
0.0000001
 43
0.0000001
 44
0.0000000001
 40
0.0
 40
0.0
 40
0.0
 40
0.0
 40
0.235646427
 40
1.0
 40
1.0
 40
1.0
 40
1.0
 10
231.3242514257
 20
143.3964229021
 30
0.0
 10
231.3211161236
 20
143.3983292521
 30
0.0
 10
231.3076917635
 20
143.4062228876
 30
0.0
 10
231.2938490339
 20
143.4133917586
 30
0.0
 10
231.2831319535
 20
143.4185691319
 30
0.0
  0
SPLINE
  5
305
100
AcDbEntity
  8
BEZUGSACHSEN
100
AcDbSpline
 62
7
  6
CONTINUOUS
 70
0
 71
3
 72
14
 73
10
 74
0
 42
0.0000001
 43
0.0000001
 44
0.0000000001
 40
0.0
 40
0.0
 40
0.0
 40
0.0
 40
0.1549967483
 40
0.2740726966
 40
0.3672842133
 40
0.4534893752
 40
0.5525091864
 40
0.6751278704
 40
1.0
 40
1.0
 40
1.0
 40
1.0
 10
170.7288968382
 20
163.5809103544
 30
0.0
 10
170.7288968382
 20
163.5904363382
 30
0.0
 10
170.7298852949
 20
163.6073325923
 30
0.0
 10
170.7358340794
 20
163.6293666421
 30
0.0
 10
170.7471533878
 20
163.644715244
 30
0.0
 10
170.7638085864
 20
163.6513215703
 30
0.0
 10
170.7830687642
 20
163.6496258827
 30
0.0
 10
170.8147963337
 20
163.638106944
 30
0.0
 10
170.8378803769
 20
163.6225107525
 30
0.0
 10
170.8538968382
 20
163.6105889244
 30
0.0
  0
SPLINE
  5
306
100
AcDbEntity
  8
0
100
AcDbSpline
 62
7
  6
CONTINUOUS
 70
0
 71
3
 72
13
 73
9
 74
0
 42
0.0000001
 43
0.0000001
 44
0.0000000001
 40
0.0
 40
0.0
 40
0.0
 40
0.0
 40
0.1250054745
 40
0.2500746363
 40
0.3752189645
 40
0.5004047829
 40
0.750071634
 40
1.0
 40
1.0
 40
1.0
 40
1.0
 10
171.3538968382
 20
85.4264753576
 30
0.0
 10
171.3158498867
 20
85.4264753576
 30
0.0
 10
171.2392755535
 20
85.4146387803
 30
0.0
 10
171.1349057281
 20
85.3651139363
 30
0.0
 10
171.0460831908
 20
85.2916496943
 30
0.0
 10
170.9508615019
 20
85.1718476971
 30
0.0
 10
170.8737982854
 20
84.9943607118
 30
0.0
 10
170.8538968382
 20
84.8416250565
 30
0.0
 10
170.8538968382
 20
84.7655562887
 30
0.0
  0
SPLINE
  5
307
100
AcDbEntity
  8
0
100
AcDbSpline
 62
7
  6
CONTINUOUS
 70
0
 71
3
 72
13
 73
9
 74
0
 42
0.0000001
 43
0.0000001
 44
0.0000000001
 40
0.0
 40
0.0
 40
0.0
 40
0.0
 40
0.1250701052
 40
0.2501667999
 40
0.3753086698
 40
0.5004964618
 40
0.7501188901
 40
1.0
 40
1.0
 40
1.0
 40
1.0
 10
165.8038968382
 20
81.3754099852
 30
0.0
 10
165.7292694922
 20
81.3754099852
 30
0.0
 10
165.5791829604
 20
81.3970733048
 30
0.0
 10
165.3723361837
 20
81.4890052242
 30
0.0
 10
165.1940779545
 20
81.627915036
 30
0.0
 10
165.0012163463
 20
81.8578066086
 30
0.0
 10
164.8440526199
 20
82.2036344469
 30
0.0
 10
164.8038968382
 20
82.5031828125
 30
0.0
 10
164.8038968382
 20
82.6522829034
 30
0.0
  0
SPLINE
  5
308
100
AcDbEntity
  8
BEZUGSACHSEN
100
AcDbSpline
 62
7
  6
CONTINUOUS
 70
0
 71
3
 72
27
 73
23
 74
0
 42
0.0000001
 43
0.0000001
 44
0.0000000001
 40
0.0
 40
0.0
 40
0.0
 40
0.0
 40
0.015000267
 40
0.0305863779
 40
0.0477323215
 40
0.0671402306
 40
0.114078341
 40
0.1725344694
 40
0.2416383689
 40
0.3195336257
 40
0.4037694004
 40
0.4915184676
 40
0.57973281
 40
0.66531879
 40
0.7453281638
 40
0.8171447469
 40
0.8787150071
 40
0.9288910777
 40
0.9497977196
 40
0.9682164342
 40
0.98468199
 40
1.0
 40
1.0
 40
1.0
 40
1.0
 10
191.1038968382
 20
145.1454562289
 30
0.0
 10
191.1038968382
 20
145.1615630284
 30
0.0
 10
191.1087547195
 20
145.1946185292
 30
0.0
 10
191.1308871521
 20
145.2415351155
 30
0.0
 10
191.1668956825
 20
145.2850177507
 30
0.0
 10
191.2368182494
 20
145.3418068022
 30
0.0
 10
191.3587123563
 20
145.400859618
 30
0.0
 10
191.5391266318
 20
145.4528480065
 30
0.0
 10
191.7571315679
 20
145.4892317214
 30
0.0
 10
192.0048204313
 20
145.509296455
 30
0.0
 10
192.2732901074
 20
145.5128465124
 30
0.0
 10
192.5525407959
 20
145.5000886029
 30
0.0
 10
192.8320843057
 20
145.4716068037
 30
0.0
 10
193.1013309524
 20
145.4283126656
 30
0.0
 10
193.3500382547
 20
145.3714488788
 30
0.0
 10
193.5689590546
 20
145.3025653825
 30
0.0
 10
193.7499366918
 20
145.2235725465
 30
0.0
 10
193.871244874
 20
145.1467002365
 30
0.0
 10
193.9408198049
 20
145.0799129209
 30
0.0
 10
193.9766464541
 20
145.0314349303
 30
0.0
 10
193.9987643861
 20
144.9817205076
 30
0.0
 10
194.0038968382
 20
144.9474335124
 30
0.0
 10
194.0038968382
 20
144.9309855308
 30
0.0
  0
SPLINE
  5
309
100
AcDbEntity
  8
BEZUGSACHSEN
100
AcDbSpline
 62
7
  6
CONTINUOUS
 70
0
 71
3
 72
13
 73
9
 74
0
 42
0.0000001
 43
0.0000001
 44
0.0000000001
 40
0.0
 40
0.0
 40
0.0
 40
0.0
 40
0.3102657672
 40
0.5687992418
 40
0.6826288757
 40
0.789086815
 40
0.8922616238
 40
1.0
 40
1.0
 40
1.0
 40
1.0
 10
174.1038968382
 20
163.1499626983
 30
0.0
 10
174.1530829906
 20
163.1354298324
 30
0.0
 10
174.2461439391
 20
163.1174875888
 30
0.0
 10
174.3600804626
 20
163.1200170765
 30
0.0
 10
174.4374835298
 20
163.1377465373
 30
0.0
 10
174.4873218973
 20
163.1578718244
 30
0.0
 10
174.5314957819
 20
163.1869225268
 30
0.0
 10
174.5551752044
 20
163.2132360841
 30
0.0
 10
174.5651013485
 20
163.2280230238
 30
0.0
  0
SPLINE
  5
30A
100
AcDbEntity
  8
BEZUGSACHSEN
100
AcDbSpline
 62
7
  6
CONTINUOUS
 70
0
 71
3
 72
9
 73
5
 74
0
 42
0.0000001
 43
0.0000001
 44
0.0000000001
 40
0.0
 40
0.0
 40
0.0
 40
0.0
 40
0.4174036158
 40
1.0
 40
1.0
 40
1.0
 40
1.0
 10
174.5651013485
 20
163.2280230238
 30
0.0
 10
174.5772420917
 20
163.2461090438
 30
0.0
 10
174.5987522248
 20
163.2947323042
 30
0.0
 10
174.6038968382
 20
163.3474951493
 30
0.0
 10
174.6038968382
 20
163.3778991332
 30
0.0
  0
SPLINE
  5
30B
100
AcDbEntity
  8
0
100
AcDbSpline
 62
7
  6
CONTINUOUS
 70
0
 71
3
 72
13
 73
9
 74
0
 42
0.0000001
 43
0.0000001
 44
0.0000000001
 40
0.0
 40
0.0
 40
0.0
 40
0.0
 40
0.2499289221
 40
0.4995951434
 40
0.6247807633
 40
0.7499242811
 40
0.8749934737
 40
1.0
 40
1.0
 40
1.0
 40
1.0
 10
174.6038968382
 20
84.7655562887
 30
0.0
 10
174.6038968382
 20
84.8416252283
 30
0.0
 10
174.5839953539
 20
84.994360863
 30
0.0
 10
174.5069321582
 20
85.1718477837
 30
0.0
 10
174.4117106959
 20
85.2916493039
 30
0.0
 10
174.3228886333
 20
85.3651136296
 30
0.0
 10
174.2185187783
 20
85.4146386516
 30
0.0
 10
174.1419441111
 20
85.4264753576
 30
0.0
 10
174.1038968382
 20
85.4264753576
 30
0.0
  0
SPLINE
  5
30C
100
AcDbEntity
  8
BEZUGSACHSEN
100
AcDbSpline
 62
7
  6
CONTINUOUS
 70
0
 71
3
 72
21
 73
17
 74
0
 42
0.0000001
 43
0.0000001
 44
0.0000000001
 40
0.0
 40
0.0
 40
0.0
 40
0.0
 40
0.0492875179
 40
0.1013583117
 40
0.1580202835
 40
0.2200781529
 40
0.2873999697
 40
0.35910325
 40
0.5094332134
 40
0.6573742675
 40
0.7263424209
 40
0.7902624457
 40
0.8486653911
 40
0.9019601476
 40
0.951602971
 40
1.0
 40
1.0
 40
1.0
 40
1.0
 10
194.0038968382
 20
99.3157109697
 30
0.0
 10
194.0038968382
 20
99.2541098492
 30
0.0
 10
193.9837759446
 20
99.1267140652
 30
0.0
 10
193.8971018599
 20
98.9467075407
 30
0.0
 10
193.7591387312
 20
98.7814558816
 30
0.0
 10
193.5761688076
 20
98.6358873983
 30
0.0
 10
193.3552941746
 20
98.5138895565
 30
0.0
 10
193.0161562188
 20
98.3855080643
 30
0.0
 10
192.5561989714
 20
98.3052707588
 30
0.0
 10
192.0929789685
 20
98.3292652752
 30
0.0
 10
191.7520757563
 20
98.4173342089
 30
0.0
 10
191.5315394122
 20
98.5125987669
 30
0.0
 10
191.3483576412
 20
98.636285819
 30
0.0
 10
191.2098088532
 20
98.7858051984
 30
0.0
 10
191.1230712003
 20
98.9569406756
 30
0.0
 10
191.1038968382
 20
99.0803846958
 30
0.0
 10
191.1038968382
 20
99.1408728547
 30
0.0
  0
SPLINE
  5
30D
100
AcDbEntity
  8
0
100
AcDbSpline
 62
7
  6
CONTINUOUS
 70
0
 71
3
 72
74
 73
70
 74
0
 42
0.0000001
 43
0.0000001
 44
0.0000000001
 40
0.0
 40
0.0
 40
0.0
 40
0.0
 40
0.0134408938
 40
0.0262603762
 40
0.0381181662
 40
0.0435660542
 40
0.0486307954
 40
0.0533005111
 40
0.0576400382
 40
0.0618049042
 40
0.0660170063
 40
0.0704877858
 40
0.0753395082
 40
0.0806013251
 40
0.0862518739
 40
0.0985171744
 40
0.1117359952
 40
0.125602152
 40
0.1398916477
 40
0.1691437969
 40
0.1838961379
 40
0.1986131188
 40
0.2132010969
 40
0.2275464402
 40
0.2415182523
 40
0.2550028043
 40
0.267967155
 40
0.2743449199
 40
0.2807358928
 40
0.287232403
 40
0.2939183807
 40
0.3079886333
 40
0.3230098157
 40
0.3387548774
 40
0.3549990562
 40
0.3715816215
 40
0.3883898197
 40
0.4053500836
 40
0.4395112667
 40
0.4566270125
 40
0.4737127688
 40
0.4907201397
 40
0.5075953049
 40
0.5242711677
 40
0.5407120635
 40
0.5488792942
 40
0.557030243
 40
0.5733755508
 40
0.5899740022
 40
0.6068575107
 40
0.6239734048
 40
0.641263954
 40
0.6761899074
 40
0.7114108161
 40
0.729091776
 40
0.7468075355
 40
0.7645527482
 40
0.7823265822
 40
0.8001331153
 40
0.8179857908
 40
0.8359102752
 40
0.8539413963
 40
0.8720876601
 40
0.8903189932
 40
0.9085923804
 40
0.9268811139
 40
0.9451712352
 40
0.9634565894
 40
1.0
 40
1.0
 40
1.0
 40
1.0
 10
230.0373870116
 20
97.4406654227
 30
0.0
 10
230.1613302823
 20
97.4969389915
 30
0.0
 10
230.4014578026
 20
97.6115766123
 30
0.0
 10
230.7393602029
 20
97.7987137049
 30
0.0
 10
230.9918987252
 20
97.9716945665
 30
0.0
 10
231.1612631454
 20
98.1226916313
 30
0.0
 10
231.2638369055
 20
98.2378460001
 30
0.0
 10
231.3411735115
 20
98.3585059678
 30
0.0
 10
231.3886947597
 20
98.4844777271
 30
0.0
 10
231.4021507557
 20
98.6141862062
 30
0.0
 10
231.37906446
 20
98.7438242548
 30
0.0
 10
231.3225663643
 20
98.8698801005
 30
0.0
 10
231.2376651795
 20
98.9914977577
 30
0.0
 10
231.1290867325
 20
99.1090222912
 30
0.0
 10
230.9530042805
 20
99.2646693859
 30
0.0
 10
230.694447941
 20
99.4464529689
 30
0.0
 10
230.3518126748
 20
99.6501969109
 30
0.0
 10
229.9821080466
 20
99.8476211015
 30
0.0
 10
229.4628807563
 20
100.1091919931
 30
0.0
 10
228.9323069131
 20
100.36812287
 30
0.0
 10
228.4033381943
 20
100.6399518169
 30
0.0
 10
228.011685541
 20
100.8538456428
 30
0.0
 10
227.6322621066
 20
101.0810073335
 30
0.0
 10
227.2732789079
 20
101.3265139051
 30
0.0
 10
226.9467750624
 20
101.5973443376
 30
0.0
 10
226.6686344473
 20
101.9000227242
 30
0.0
 10
226.4981956021
 20
102.190293891
 30
0.0
 10
226.419702089
 20
102.4399097993
 30
0.0
 10
226.3926452341
 20
102.6340994906
 30
0.0
 10
226.3993811455
 20
102.833171889
 30
0.0
 10
226.4534786339
 20
103.1048666079
 30
0.0
 10
226.5988002519
 20
103.4409345855
 30
0.0
 10
226.8550281334
 20
103.8175291292
 30
0.0
 10
227.167613084
 20
104.1775684585
 30
0.0
 10
227.5174341146
 20
104.5237834433
 30
0.0
 10
227.8914365931
 20
104.8598053743
 30
0.0
 10
228.2802228028
 20
105.1898047507
 30
0.0
 10
228.8112189973
 20
105.6271844043
 30
0.0
 10
229.3462191135
 20
106.0647242989
 30
0.0
 10
229.867530106
 20
106.5204488843
 30
0.0
 10
230.2454339322
 20
106.875875957
 30
0.0
 10
230.6008093931
 20
107.250767901
 30
0.0
 10
230.9211275305
 20
107.6513783127
 30
0.0
 10
231.1857857969
 20
108.0851221402
 30
0.0
 10
231.334901442
 20
108.4797547375
 30
0.0
 10
231.3923831299
 20
108.8074497651
 30
0.0
 10
231.4044260603
 20
109.1390029506
 30
0.0
 10
231.3318841046
 20
109.5541989772
 30
0.0
 10
231.1288165851
 20
110.0197596817
 30
0.0
 10
230.8484837939
 20
110.4504955463
 30
0.0
 10
230.5185697534
 20
110.8525692683
 30
0.0
 10
230.034137114
 20
111.3613895348
 30
0.0
 10
229.3813284784
 20
111.9604977895
 30
0.0
 10
228.7126332002
 20
112.5468483319
 30
0.0
 10
228.1847294824
 20
113.0294161971
 30
0.0
 10
227.7977086553
 20
113.403547532
 30
0.0
 10
227.4274272776
 20
113.7957774286
 30
0.0
 10
227.083613126
 20
114.2129590829
 30
0.0
 10
226.7805798712
 20
114.662733088
 30
0.0
 10
226.5419458066
 20
115.1527397018
 30
0.0
 10
226.3990333965
 20
115.6831197061
 30
0.0
 10
226.3855904193
 20
116.2364176118
 30
0.0
 10
226.5027444949
 20
116.7794500545
 30
0.0
 10
226.7243558469
 20
117.2894458714
 30
0.0
 10
227.0152536396
 20
117.7634587685
 30
0.0
 10
227.3520724656
 20
118.2059787522
 30
0.0
 10
227.7174835833
 20
118.6248912614
 30
0.0
 10
228.2292768304
 20
119.1602885643
 30
0.0
 10
228.6296673238
 20
119.5452007971
 30
0.0
 10
228.8966637461
 20
119.8014753576
 30
0.0
  0
SPLINE
  5
30E
100
AcDbEntity
  8
0
100
AcDbSpline
 62
7
  6
CONTINUOUS
 70
0
 71
3
 72
75
 73
71
 74
0
 42
0.0000001
 43
0.0000001
 44
0.0000000001
 40
0.0
 40
0.0
 40
0.0
 40
0.0
 40
0.0129598929
 40
0.0253777518
 40
0.0369615034
 40
0.0423430221
 40
0.0473933286
 40
0.0520901137
 40
0.0564531257
 40
0.0605877152
 40
0.064684179
 40
0.0689727179
 40
0.0736350748
 40
0.0787532844
 40
0.0843277984
 40
0.0966641218
 40
0.1101994254
 40
0.1245402365
 40
0.1394152975
 40
0.1546373562
 40
0.1700759295
 40
0.201201648
 40
0.216707676
 40
0.2320452148
 40
0.2470828107
 40
0.2616568472
 40
0.2755822816
 40
0.2888056767
 40
0.2952732638
 40
0.3017438007
 40
0.3150107576
 40
0.3290493987
 40
0.3438159361
 40
0.3591305869
 40
0.3748333375
 40
0.3907979959
 40
0.4069397114
 40
0.4395226992
 40
0.455875613
 40
0.4722162062
 40
0.4885033313
 40
0.5047033787
 40
0.5207933109
 40
0.5368018981
 40
0.5448324568
 40
0.5529096577
 40
0.569292929
 40
0.5861270263
 40
0.6033675111
 40
0.6208950607
 40
0.638613196
 40
0.6743765875
 40
0.7103833794
 40
0.7284331835
 40
0.7464997066
 40
0.7645741019
 40
0.7826483434
 40
0.8007136355
 40
0.8187593673
 40
0.8367782758
 40
0.8457964067
 40
0.8548168689
 40
0.8638421773
 40
0.8728738146
 40
0.8909471243
 40
0.9090626281
 40
0.9272102684
 40
0.9453822642
 40
0.9635735145
 40
1.0
 40
1.0
 40
1.0
 40
1.0
 10
229.0449661949
 20
142.3071484938
 30
0.0
 10
228.917797586
 20
142.2709548449
 30
0.0
 10
228.6700427201
 20
142.1953862528
 30
0.0
 10
228.3158077242
 20
142.065508262
 30
0.0
 10
228.0436634869
 20
141.9379685695
 30
0.0
 10
227.8518126269
 20
141.8206768936
 30
0.0
 10
227.7284005115
 20
141.7274496942
 30
0.0
 10
227.6255058648
 20
141.6259721298
 30
0.0
 10
227.5476640359
 20
141.5149776755
 30
0.0
 10
227.4996685654
 20
141.3942902291
 30
0.0
 10
227.485841586
 20
141.2656500309
 30
0.0
 10
227.5080108814
 20
141.1329690271
 30
0.0
 10
227.5626345941
 20
140.9992877165
 30
0.0
 10
227.6452983161
 20
140.8656108717
 30
0.0
 10
227.7924238482
 20
140.6819012474
 30
0.0
 10
228.0260149645
 20
140.4602969403
 30
0.0
 10
228.3488488548
 20
140.2068469618
 30
0.0
 10
228.7066362522
 20
139.9571095985
 30
0.0
 10
229.0866462251
 20
139.7098184017
 30
0.0
 10
229.4802093939
 20
139.4629586886
 30
0.0
 10
230.0159265532
 20
139.1308087985
 30
0.0
 10
230.5519249829
 20
138.7933203375
 30
0.0
 10
231.0727936574
 20
138.4347759864
 30
0.0
 10
231.446917439
 20
138.1531164512
 30
0.0
 10
231.794868435
 20
137.8536966284
 30
0.0
 10
232.1019339183
 20
137.531244713
 30
0.0
 10
232.3460579856
 20
137.1795564933
 30
0.0
 10
232.4690497209
 20
136.8534228411
 30
0.0
 10
232.4972295557
 20
136.5866590979
 30
0.0
 10
232.4774234738
 20
136.3186732725
 30
0.0
 10
232.3630100975
 20
135.9875080927
 30
0.0
 10
232.125689164
 20
135.626870827
 30
0.0
 10
231.8231656103
 20
135.2921511542
 30
0.0
 10
231.4778808975
 20
134.9769405762
 30
0.0
 10
231.104831364
 20
134.675720147
 30
0.0
 10
230.7152622274
 20
134.3821503366
 30
0.0
 10
230.1817369897
 20
133.9936842932
 30
0.0
 10
229.6433343191
 20
133.6050638721
 30
0.0
 10
229.1166450501
 20
133.1973485366
 30
0.0
 10
228.7332193643
 20
132.8766032494
 30
0.0
 10
228.3704612721
 20
132.5346020138
 30
0.0
 10
228.039871825
 20
132.164202917
 30
0.0
 10
227.7592356194
 20
131.7570752861
 30
0.0
 10
227.5907291652
 20
131.3801020694
 30
0.0
 10
227.5132059059
 20
131.0608631637
 30
0.0
 10
227.4782534123
 20
130.7302882182
 30
0.0
 10
227.5220354834
 20
130.3059014729
 30
0.0
 10
227.6962440523
 20
129.8176733263
 30
0.0
 10
227.9577632197
 20
129.3587165291
 30
0.0
 10
228.2758354097
 20
128.9269678355
 30
0.0
 10
228.7512077065
 20
128.3796403381
 30
0.0
 10
229.4007999718
 20
127.7369746332
 30
0.0
 10
230.0735802182
 20
127.1149980737
 30
0.0
 10
230.6081530228
 20
126.609326407
 30
0.0
 10
231.0019064789
 20
126.2211414891
 30
0.0
 10
231.3811308767
 20
125.818220183
 30
0.0
 10
231.7364272772
 20
125.3937722844
 30
0.0
 10
232.0541497865
 20
124.9401294122
 30
0.0
 10
232.3113211301
 20
124.4492034591
 30
0.0
 10
232.4488964284
 20
124.0062429509
 30
0.0
 10
232.4933808413
 20
123.6401830521
 30
0.0
 10
232.4921112305
 20
123.3633388054
 30
0.0
 10
232.4565194916
 20
123.0886894539
 30
0.0
 10
232.3659719249
 20
122.7306091833
 30
0.0
 10
232.1829883317
 20
122.3040308337
 30
0.0
 10
231.890380285
 20
121.8317149641
 30
0.0
 10
231.5501834973
 20
121.3919061799
 30
0.0
 10
231.1808508315
 20
120.97578836
 30
0.0
 10
230.663495794
 20
120.4428294002
 30
0.0
 10
230.260048623
 20
120.0583359883
 30
0.0
 10
229.9914772434
 20
119.8014753576
 30
0.0
  0
ENDSEC
  0
SECTION
  2
OBJECTS
  0
DICTIONARY
  5
C
100
AcDbDictionary
280
0
281
1
  3
ACAD_GROUP
350
D
  3
ACAD_MLINESTYLE
350
17
  3
ACAD_LAYOUT
350
1A
  3
ACAD_PLOTSETTINGS
350
19
  3
ACAD_PLOTSTYLENAME
350
E
  0
DICTIONARY
  5
D
102
{ACAD_REACTORS
330
C
102
}
100
AcDbDictionary
280
0
281
1
  0
ACDBDICTIONARYWDFLT
  5
E
102
{ACAD_REACTORS
330
C
102
}
100
AcDbDictionary
281
1
  3
Normal
350
F
100
AcDbDictionaryWithDefault
340
F
  0
DICTIONARY
  5
17
102
{ACAD_REACTORS
330
C
102
}
100
AcDbDictionary
280
0
281
1
  3
Standard
350
18
  0
DICTIONARY
  5
19
102
{ACAD_REACTORS
330
C
102
}
100
AcDbDictionary
281
1
  0
DICTIONARY
  5
1A
102
{ACAD_REACTORS
330
C
102
}
100
AcDbDictionary
281
1
  3
Model
350
30F
  3
Layout1
350
310
  0
ACDBPLACEHOLDER
  5
F
102
{ACAD_REACTORS
330
E
102
}
  0
MLINESTYLE
  5
18
102
{ACAD_REACTORS
330
17
102
}
100
AcDbMlineStyle
  2
STANDARD
 70
0
  3

 62
256
 51
90.0
 52
90.0
 71
2
 49
0.5
 62
256
  6
BYLAYER
 49
-0.5
 62
256
  6
BYLAYER
  0
LAYOUT
  5
30F
102
{ACAD_REACTORS
330
1A
102
}
100
AcDbPlotSettings
  1

  2
none_device
  4
ISO_A4_(297.00_x_210.00_MM)
  6

 40
0.0
 41
0.0
 42
0.0
 43
0.0
 44
297.0
 45
210.0
 46
0.0
 47
0.0
 48
0.0
 49
0.0
140
0.0
141
0.0
142
1.0
143
1.0
 70
1024
 72
1
 73
0
 74
0
  7

 75
0
147
1.0
148
0.0
149
0.0
100
AcDbLayout
  1
Model
 70
0
 71
0
 10
0.0
 20
0.0
 11
297.0
 21
210.0
 12
0.0
 22
0.0
 32
0.0
 14
0.0
 24
0.0
 34
0.0
 15
0.0
 25
0.0
 35
0.0
146
0.0
 13
0.0
 23
0.0
 33
0.0
 16
1.0
 26
0.0
 36
0.0
 17
0.0
 27
1.0
 37
0.0
 76
0
330
217
345
0
346
0
  0
LAYOUT
  5
310
102
{ACAD_REACTORS
330
1A
102
}
100
AcDbPlotSettings
  1

  2
none_device
  4
ISO_A4_(297.00_x_210.00_MM)
  6

 40
0.0
 41
0.0
 42
0.0
 43
0.0
 44
297.0
 45
210.0
 46
0.0
 47
0.0
 48
0.0
 49
0.0
140
0.0
141
0.0
142
1.0
143
1.0
 70
0
 72
1
 73
0
 74
0
  7

 75
0
147
1.0
148
0.0
149
0.0
100
AcDbLayout
  1
Layout1
 70
0
 71
1
 10
0.0
 20
0.0
 11
297.0
 21
210.0
 12
0.0
 22
0.0
 32
0.0
 14
0.0
 24
0.0
 34
0.0
 15
0.0
 25
0.0
 35
0.0
146
0.0
 13
0.0
 23
0.0
 33
0.0
 16
1.0
 26
0.0
 36
0.0
 17
0.0
 27
1.0
 37
0.0
 76
0
330
218
345
0
346
0
  0
ENDSEC
  0
EOF
