999
DXF file: 50-452-20-6.dxf
999
Pro/ENGINEER 2010430 by Parametric Technology Corporation
  0
SECTION
  2
HEADER
  9
$ACADVER
  1
AC1021
  9
$DWGCODEPAGE
  3
ANSI_1252
  9
$EXTMAX
 10
420.0
 20
297.0
 30
0.0
  9
$EXTMIN
 10
0.0
 20
0.0
 30
0.0
  9
$LIMMIN
 10
0.0
 20
0.0
  9
$LIMMAX
 10
420.0
 20
297.0
  9
$VIEWCTR
 10
210.0
 20
148.5
  9
$VIEWSIZE
 40
297.0
  9
$CLAYER
  8
0
  9
$LTSCALE
 40
23.1
  9
$CELTYPE
  6
BYLAYER
  9
$DIMSCALE
 40
1.0
  9
$DIMASZ
 40
3.5
  9
$DIMEXO
 40
2.625
  9
$DIMDLI
 40
15.96
  9
$DIMEXE
 40
7.56
  9
$DIMCEN
 40
3.78
  9
$DIMLFAC
 40
1.0
  9
$DIMBLK
  1
_FILLED
  9
$DIMTXT
 40
3.5
  9
$DIMTOL
 70
1
  9
$DIMLIM
 70
0
  9
$DIMTFAC
 40
1.0
  9
$DIMTP
 40
0.005
  9
$DIMTM
 40
0.005
  9
$PDMODE
 70
3
  9
$PDSIZE
 40
0.3125
  9
$HANDSEED
  5
356
  9
$TILEMODE
 70
1
  9
$MEASUREMENT
 70
1
  9
$INSUNITS
 70
4
  0
ENDSEC
  0
SECTION
  2
CLASSES
  0
CLASS
  1
ACDBDICTIONARYWDFLT
  2
AcDbDictionaryWithDefault
  3
AutoCAD 2000
 90
0
 91
1
280
0
281
0
  0
CLASS
  1
ACDBPLACEHOLDER
  2
AcDbPlaceHolder
  3
AutoCAD 2000
 90
0
 91
1
280
0
281
0
  0
CLASS
  1
LAYOUT
  2
AcDbLayout
  3
AutoCAD 2000
 90
0
 91
0
280
0
281
0
  0
ENDSEC
  0
SECTION
  2
TABLES
  0
TABLE
  2
VPORT
  5
8
100
AcDbSymbolTable
 70
2
  0
VPORT
  5
1F4
100
AcDbSymbolTableRecord
100
AcDbViewportTableRecord
  2
*ACTIVE
 70
0
 10
0.0
 20
0.0
 11
1.0
 21
1.0
 12
210.0
 22
148.5
 13
0.0
 23
0.0
 14
1.0
 24
1.0
 15
0.0
 25
0.0
 16
0.0
 26
0.0
 36
1.0
 17
0.0
 27
0.0
 37
0.0
 40
297.0
 41
1.4141414141
 42
50.0
 43
0.0
 44
0.0
 50
0.0
 51
0.0
 71
0
 72
100
 73
1
 74
1
 75
0
 76
0
 77
0
 78
0
  0
ENDTAB
  0
TABLE
  2
LTYPE
  5
5
100
AcDbSymbolTable
 70
6
  0
LTYPE
  5
14
100
AcDbSymbolTableRecord
100
AcDbLinetypeTableRecord
  2
BYBLOCK
 70
0
  3

 72
65
 73
0
 40
0.0
  0
LTYPE
  5
15
100
AcDbSymbolTableRecord
100
AcDbLinetypeTableRecord
  2
BYLAYER
 70
0
  3

 72
65
 73
0
 40
0.0
  0
LTYPE
  5
16
100
AcDbSymbolTableRecord
100
AcDbLinetypeTableRecord
  2
CONTINUOUS
 70
64
  3
Solid line
 72
65
 73
0
 40
0.0
  0
LTYPE
  5
1F5
100
AcDbSymbolTableRecord
100
AcDbLinetypeTableRecord
  2
CENTER
 70
64
  3
____ _ ____ _ ____ _ ____ _ ____ _ ____ _ ____
 72
65
 73
4
 40
0.6
 49
0.375
 74
0
 49
-0.075
 74
0
 49
0.075
 74
0
 49
-0.075
 74
0
  0
LTYPE
  5
1F6
100
AcDbSymbolTableRecord
100
AcDbLinetypeTableRecord
  2
HIDDEN
 70
64
  3
- - - - - - - - - - - - - - - - - - - -
 72
65
 73
2
 40
0.2
 49
0.1
 74
0
 49
-0.1
 74
0
  0
LTYPE
  5
1F7
100
AcDbSymbolTableRecord
100
AcDbLinetypeTableRecord
  2
PHANTOM
 70
64
  3
_____ _ _ _____ _ _ _____ _ _ _____
 72
65
 73
6
 40
0.8
 49
0.45
 74
0
 49
-0.05
 74
0
 49
0.1
 74
0
 49
-0.05
 74
0
 49
0.1
 74
0
 49
-0.05
 74
0
  0
LTYPE
  5
1F8
100
AcDbSymbolTableRecord
100
AcDbLinetypeTableRecord
  2
DOT
 70
64
  3
. . . . . . . . . . . . . . . . . . . .
 72
65
 73
2
 40
0.2
 49
0.1
 74
0
 49
-0.1
 74
0
  0
LTYPE
  5
1F9
100
AcDbSymbolTableRecord
100
AcDbLinetypeTableRecord
  2
DASHED
 70
64
  3
- - - - - - - - - - - - - - - - - - - -
 72
65
 73
2
 40
0.2
 49
0.1
 74
0
 49
-0.1
 74
0
  0
ENDTAB
  0
TABLE
  2
LAYER
  5
2
100
AcDbSymbolTable
 70
36
  0
LAYER
  5
10
100
AcDbSymbolTableRecord
100
AcDbLayerTableRecord
  2
0
 70
0
 62
7
  6
CONTINUOUS
370
-3
390
F
  0
LAYER
  5
1FA
100
AcDbSymbolTableRecord
100
AcDbLayerTableRecord
  2
DEFAULT_1
 70
0
 62
7
  6
CENTER
370
-3
390
F
  0
LAYER
  5
1FB
100
AcDbSymbolTableRecord
100
AcDbLayerTableRecord
  2
DEFAULT_2
 70
0
 62
8
  6
HIDDEN
370
-3
390
F
  0
LAYER
  5
1FC
100
AcDbSymbolTableRecord
100
AcDbLayerTableRecord
  2
DEFAULT_3
 70
0
 62
7
  6
PHANTOM
370
-3
390
F
  0
LAYER
  5
1FD
100
AcDbSymbolTableRecord
100
AcDbLayerTableRecord
  2
ANALYSEN
 70
0
 62
7
  6
CONTINUOUS
370
-3
390
F
  0
LAYER
  5
1FE
100
AcDbSymbolTableRecord
100
AcDbLayerTableRecord
  2
AUSSENKONTUR
 70
0
 62
7
  6
CONTINUOUS
370
-3
390
F
  0
LAYER
  5
1FF
100
AcDbSymbolTableRecord
100
AcDbLayerTableRecord
  2
BEZUGSACHSEN
 70
0
 62
7
  6
CONTINUOUS
370
-3
390
F
  0
LAYER
  5
200
100
AcDbSymbolTableRecord
100
AcDbLayerTableRecord
  2
BEZUGSACHSENKENNZEICHEN
 70
0
 62
7
  6
CONTINUOUS
370
-3
390
F
  0
LAYER
  5
201
100
AcDbSymbolTableRecord
100
AcDbLayerTableRecord
  2
BEZUGSEBENEN
 70
0
 62
7
  6
CONTINUOUS
370
-3
390
F
  0
LAYER
  5
202
100
AcDbSymbolTableRecord
100
AcDbLayerTableRecord
  2
BEZUGSPUNKTE
 70
0
 62
7
  6
CONTINUOUS
370
-3
390
F
  0
LAYER
  5
203
100
AcDbSymbolTableRecord
100
AcDbLayerTableRecord
  2
BOHRUNGEN
 70
0
 62
7
  6
CONTINUOUS
370
-3
390
F
  0
LAYER
  5
204
100
AcDbSymbolTableRecord
100
AcDbLayerTableRecord
  2
FASEN
 70
0
 62
7
  6
CONTINUOUS
370
-3
390
F
  0
LAYER
  5
205
100
AcDbSymbolTableRecord
100
AcDbLayerTableRecord
  2
FLAECHEN
 70
0
 62
7
  6
CONTINUOUS
370
-3
390
F
  0
LAYER
  5
206
100
AcDbSymbolTableRecord
100
AcDbLayerTableRecord
  2
GEWINDE
 70
0
 62
7
  6
CONTINUOUS
370
-3
390
F
  0
LAYER
  5
207
100
AcDbSymbolTableRecord
100
AcDbLayerTableRecord
  2
HILFEN
 70
0
 62
7
  6
CONTINUOUS
370
-3
390
F
  0
LAYER
  5
208
100
AcDbSymbolTableRecord
100
AcDbLayerTableRecord
  2
INNENKONTUR
 70
0
 62
7
  6
CONTINUOUS
370
-3
390
F
  0
LAYER
  5
209
100
AcDbSymbolTableRecord
100
AcDbLayerTableRecord
  2
KURVEN
 70
0
 62
7
  6
CONTINUOUS
370
-3
390
F
  0
LAYER
  5
20A
100
AcDbSymbolTableRecord
100
AcDbLayerTableRecord
  2
MAKINO
 70
0
 62
7
  6
CONTINUOUS
370
-3
390
F
  0
LAYER
  5
20B
100
AcDbSymbolTableRecord
100
AcDbLayerTableRecord
  2
OELVERDR_RILLE
 70
0
 62
7
  6
CONTINUOUS
370
-3
390
F
  0
LAYER
  5
20C
100
AcDbSymbolTableRecord
100
AcDbLayerTableRecord
  2
PLATZIERUNG
 70
0
 62
7
  6
CONTINUOUS
370
-3
390
F
  0
LAYER
  5
20D
100
AcDbSymbolTableRecord
100
AcDbLayerTableRecord
  2
PUNKTE
 70
0
 62
7
  6
CONTINUOUS
370
-3
390
F
  0
LAYER
  5
20E
100
AcDbSymbolTableRecord
100
AcDbLayerTableRecord
  2
RUNDUNGEN
 70
0
 62
7
  6
CONTINUOUS
370
-3
390
F
  0
LAYER
  5
20F
100
AcDbSymbolTableRecord
100
AcDbLayerTableRecord
  2
TEIL_STARTBEZUEGE
 70
0
 62
7
  6
CONTINUOUS
370
-3
390
F
  0
LAYER
  5
210
100
AcDbSymbolTableRecord
100
AcDbLayerTableRecord
  2
VERERBUNG
 70
0
 62
7
  6
CONTINUOUS
370
-3
390
F
  0
LAYER
  5
211
100
AcDbSymbolTableRecord
100
AcDbLayerTableRecord
  2
VOLUMEN
 70
0
 62
7
  6
CONTINUOUS
370
-3
390
F
  0
LAYER
  5
212
100
AcDbSymbolTableRecord
100
AcDbLayerTableRecord
  2
ZEICHNUNG
 70
0
 62
7
  6
CONTINUOUS
370
-3
390
F
  0
LAYER
  5
213
100
AcDbSymbolTableRecord
100
AcDbLayerTableRecord
  2
ZEICHNUNGSBEMASSUNGEN
 70
0
 62
7
  6
CONTINUOUS
370
-3
390
F
  0
ENDTAB
  0
TABLE
  2
STYLE
  5
3
100
AcDbSymbolTable
 70
1
  0
STYLE
  5
11
100
AcDbSymbolTableRecord
100
AcDbTextStyleTableRecord
  2
STANDARD
 70
0
 40
0.0
 41
0.7
 50
0.0
 71
0
 42
0.2
  3
txt
  4

  0
STYLE
  5
214
100
AcDbSymbolTableRecord
100
AcDbTextStyleTableRecord
  2
TEXTSTYLE_1
 70
0
 40
0.0
 41
0.8
 50
0.0
 71
0
 42
0.2
  3
gdt
  4

  0
STYLE
  5
215
100
AcDbSymbolTableRecord
100
AcDbTextStyleTableRecord
  2
TEXTSTYLE_2
 70
0
 40
0.0
 41
0.7
 50
0.0
 71
0
 42
0.2
  3
gdt
  4

  0
ENDTAB
  0
TABLE
  2
VIEW
  5
6
100
AcDbSymbolTable
 70
0
  0
ENDTAB
  0
TABLE
  2
UCS
  5
7
100
AcDbSymbolTable
 70
0
  0
ENDTAB
  0
TABLE
  2
APPID
  5
9
100
AcDbSymbolTable
 70
1
  0
APPID
  5
216
100
AcDbSymbolTableRecord
100
AcDbRegAppTableRecord
  2
ACAD
 70
0
  0
ENDTAB
  0
TABLE
  2
BLOCK_RECORD
  5
1
100
AcDbSymbolTable
 70
0
  0
BLOCK_RECORD
  5
217
100
AcDbSymbolTableRecord
100
AcDbBlockTableRecord
  2
*Model_Space
  0
BLOCK_RECORD
  5
218
100
AcDbSymbolTableRecord
100
AcDbBlockTableRecord
  2
*Paper_Space
  0
BLOCK_RECORD
  5
219
100
AcDbSymbolTableRecord
100
AcDbBlockTableRecord
  2
_FILLED
  0
BLOCK_RECORD
  5
21A
100
AcDbSymbolTableRecord
100
AcDbBlockTableRecord
  2
*D0
  0
BLOCK_RECORD
  5
21B
100
AcDbSymbolTableRecord
100
AcDbBlockTableRecord
  2
*D1
  0
BLOCK_RECORD
  5
21C
100
AcDbSymbolTableRecord
100
AcDbBlockTableRecord
  2
*D2
  0
BLOCK_RECORD
  5
21D
100
AcDbSymbolTableRecord
100
AcDbBlockTableRecord
  2
*D3
  0
BLOCK_RECORD
  5
21E
100
AcDbSymbolTableRecord
100
AcDbBlockTableRecord
  2
*D4
  0
BLOCK_RECORD
  5
21F
100
AcDbSymbolTableRecord
100
AcDbBlockTableRecord
  2
*D5
  0
BLOCK_RECORD
  5
220
100
AcDbSymbolTableRecord
100
AcDbBlockTableRecord
  2
*D6
  0
ENDTAB
  0
TABLE
  2
DIMSTYLE
  5
A
100
AcDbSymbolTable
 70
1
100
AcDbDimStyleTable
 71
0
  0
DIMSTYLE
105
221
100
AcDbSymbolTableRecord
100
AcDbDimStyleTableRecord
  2
STANDARD
 70
0
  3

  4

 40
1.0
 41
3.5
 42
0.0625
 43
0.38
 44
0.18
 45
0.0
 46
0.0
 47
0.005
 48
0.005
140
3.5
141
0.09
142
0.0
143
25.4
144
1.0
145
0.0
146
1.0
147
0.09
 71
1.0
 72
0.0
 73
0
 74
0
 75
0
 76
0
 77
1
 78
8
170
0
171
2
172
0
173
0
174
0
175
0
176
0
177
0
178
5
270
2
271
3
272
3
273
2
274
2
275
0
280
0
281
0
282
0
283
1
284
8
285
0
286
0
287
3
288
0
340
11
341
219
342
219
343
219
344
219
  0
DIMSTYLE
105
222
100
AcDbSymbolTableRecord
100
AcDbDimStyleTableRecord
  2
DIMSTYLE_1
 70
0
  3

  4

 40
1.0
 41
3.5
 42
0.0625
 43
0.38
 44
0.18
 45
0.0
 46
0.0
 47
0.5
 48
0.5
140
3.5
141
0.09
142
0.0
143
25.4
144
1.0
145
0.0
146
1.0
147
0.09
 71
0.0
 72
0.0
 73
0
 74
0
 75
0
 76
0
 77
1
 78
8
170
0
171
2
172
0
173
0
174
0
175
0
176
0
177
0
178
5
270
2
271
3
272
3
273
2
274
2
275
0
280
0
281
0
282
0
283
1
284
8
285
0
286
0
287
3
288
0
340
11
341
219
342
219
343
219
344
219
  0
DIMSTYLE
105
223
100
AcDbSymbolTableRecord
100
AcDbDimStyleTableRecord
  2
DIMSTYLE_2
 70
0
  3

  4

 40
1.0
 41
3.5
 42
0.0625
 43
0.38
 44
0.18
 45
0.0
 46
0.0
 47
0.0
 48
0.1
140
3.5
141
0.09
142
0.0
143
25.4
144
1.0
145
0.0
146
1.0
147
0.09
 71
0.0
 72
0.0
 73
0
 74
0
 75
0
 76
0
 77
1
 78
8
170
0
171
2
172
0
173
0
174
0
175
0
176
0
177
0
178
5
270
2
271
2
272
2
273
2
274
2
275
0
280
0
281
0
282
0
283
1
284
8
285
0
286
0
287
3
288
0
340
11
341
219
342
219
343
219
344
219
  0
DIMSTYLE
105
224
100
AcDbSymbolTableRecord
100
AcDbDimStyleTableRecord
  2
DIMSTYLE_3
 70
0
  3

  4

 40
1.0
 41
3.5
 42
0.0625
 43
0.38
 44
0.18
 45
0.0
 46
0.0
 47
0.05
 48
0.0
140
3.5
141
0.09
142
0.0
143
25.4
144
1.0
145
0.0
146
1.0
147
0.09
 71
0.0
 72
0.0
 73
0
 74
0
 75
0
 76
0
 77
1
 78
8
170
0
171
2
172
0
173
0
174
0
175
0
176
0
177
0
178
5
270
2
271
2
272
2
273
2
274
2
275
0
280
0
281
0
282
0
283
1
284
8
285
0
286
0
287
3
288
0
340
11
341
219
342
219
343
219
344
219
  0
DIMSTYLE
105
225
100
AcDbSymbolTableRecord
100
AcDbDimStyleTableRecord
  2
DIMSTYLE_4
 70
0
  3

  4

 40
1.0
 41
3.5
 42
0.0625
 43
0.38
 44
0.18
 45
0.0
 46
0.0
 47
0.25
 48
0.25
140
3.5
141
0.09
142
0.0
143
25.4
144
1.0
145
0.0
146
1.0
147
0.09
 71
0.0
 72
0.0
 73
0
 74
0
 75
0
 76
0
 77
1
 78
8
170
0
171
2
172
0
173
0
174
0
175
0
176
0
177
0
178
5
270
2
271
2
272
2
273
2
274
2
275
0
280
0
281
0
282
0
283
1
284
8
285
0
286
0
287
3
288
0
340
11
341
219
342
219
343
219
344
219
  0
DIMSTYLE
105
226
100
AcDbSymbolTableRecord
100
AcDbDimStyleTableRecord
  2
DIMSTYLE_5
 70
0
  3

  4

 40
1.0
 41
3.5
 42
0.0625
 43
0.38
 44
0.18
 45
0.0
 46
0.0
 47
0.5
 48
0.5
140
3.5
141
0.09
142
0.0
143
25.4
144
1.0
145
0.0
146
1.0
147
0.09
 71
0.0
 72
0.0
 73
0
 74
0
 75
0
 76
0
 77
1
 78
8
170
0
171
2
172
0
173
0
174
0
175
0
176
0
177
0
178
5
270
2
271
2
272
2
273
2
274
2
275
0
280
0
281
0
282
0
283
1
284
8
285
0
286
0
287
3
288
0
340
11
341
219
342
219
343
219
344
219
  0
DIMSTYLE
105
227
100
AcDbSymbolTableRecord
100
AcDbDimStyleTableRecord
  2
DIMSTYLE_6
 70
0
  3

  4

 40
1.0
 41
3.5
 42
0.0625
 43
0.38
 44
0.18
 45
0.0
 46
0.0
 47
0.2
 48
0.2
140
3.5
141
0.09
142
0.0
143
25.4
144
1.0
145
0.0
146
1.0
147
0.09
 71
0.0
 72
0.0
 73
0
 74
0
 75
0
 76
0
 77
1
 78
8
170
0
171
2
172
0
173
0
174
0
175
0
176
0
177
0
178
5
270
2
271
2
272
2
273
2
274
2
275
0
280
0
281
0
282
0
283
1
284
8
285
0
286
0
287
3
288
0
340
11
341
219
342
219
343
219
344
219
  0
ENDTAB
  0
ENDSEC
  0
SECTION
  2
BLOCKS
  0
BLOCK
  5
20
100
AcDbEntity
  8
0
100
AcDbBlockBegin
  2
*Model_Space
 70
0
 10
0.0
 20
0.0
 30
0.0
  3
*Model_Space
  1

  0
ENDBLK
  5
21
100
AcDbEntity
  8
0
100
AcDbBlockEnd
  0
BLOCK
  5
1C
100
AcDbEntity
  8
0
100
AcDbBlockBegin
  2
*Paper_Space
 70
0
 10
0.0
 20
0.0
 30
0.0
  3
*Paper_Space
  1

  0
ENDBLK
  5
1D
100
AcDbEntity
  8
0
100
AcDbBlockEnd
  0
BLOCK
  5
228
100
AcDbEntity
  8
0
100
AcDbBlockBegin
  2
_FILLED
 70
64
 10
0.0
 20
0.0
  3
_FILLED
  1

  0
SOLID
  5
229
100
AcDbEntity
  8
0
  6
BYBLOCK
 62
0
100
AcDbTrace
 10
0.0
 20
0.0
 11
-1.0
 21
0.125
 12
-1.0
 22
-0.125
 13
-1.0
 23
-0.125
  0
ENDBLK
  5
22A
100
AcDbEntity
  8
0
  6
BYBLOCK
 62
0
100
AcDbBlockEnd
  0
BLOCK
  5
22B
100
AcDbEntity
  8
0
100
AcDbBlockBegin
 62
2
  6
CONTINUOUS
  2
*D0
 70
65
 10
0.0
 20
0.0
  3
*D0
  1

  0
MTEXT
  5
22C
100
AcDbEntity
  8
0
100
AcDbMText
 62
5
  6
CONTINUOUS
  7
STANDARD
 71
2
 72
1
 10
251.2075136975
 20
239.5655655361
 30
0.0
 11
1.0
 21
0.0
 31
0.0
 44
0.9
  1
160
 40
3.5
 41
8.490234375
  0
LINE
  5
22D
100
AcDbEntity
  8
0
100
AcDbLine
 62
2
  6
CONTINUOUS
 10
331.2075136975
 20
166.0896114365
 11
331.2075136975
 21
236.6905655361
  0
LINE
  5
22E
100
AcDbEntity
  8
0
100
AcDbLine
 62
2
  6
CONTINUOUS
 10
171.2075136975
 20
219.7623732376
 11
171.2075136975
 21
236.6905655361
  0
LINE
  5
22F
100
AcDbEntity
  8
0
100
AcDbLine
 62
2
  6
CONTINUOUS
 10
331.2075136975
 20
235.1905655361
 11
251.2075136975
 21
235.1905655361
  0
LINE
  5
230
100
AcDbEntity
  8
0
100
AcDbLine
 62
2
  6
CONTINUOUS
 10
171.2075136975
 20
235.1905655361
 11
251.2075136975
 21
235.1905655361
  0
INSERT
  5
231
100
AcDbEntity
  8
0
100
AcDbBlockReference
 62
2
  6
CONTINUOUS
  2
_FILLED
 10
331.2075136975
 20
235.1905655361
 41
3.5
 42
3.5
 43
3.5
  0
INSERT
  5
232
100
AcDbEntity
  8
0
100
AcDbBlockReference
 62
2
  6
CONTINUOUS
  2
_FILLED
 10
171.2075136975
 20
235.1905655361
 41
3.5
 42
3.5
 43
3.5
 50
180.0
  0
ENDBLK
  5
233
100
AcDbEntity
  8
0
  6
BYBLOCK
 62
0
100
AcDbBlockEnd
  0
BLOCK
  5
234
100
AcDbEntity
  8
0
100
AcDbBlockBegin
 62
2
  6
CONTINUOUS
  2
*D1
 70
65
 10
0.0
 20
0.0
  3
*D1
  1

  0
MTEXT
  5
235
100
AcDbEntity
  8
0
100
AcDbMText
 62
5
  6
CONTINUOUS
  7
TEXTSTYLE_2
 71
2
 72
1
 10
357.8675846246
 20
168.5896114365
 30
0.0
 11
0.0
 21
1.0
 31
0.0
 44
0.9
  1
{\Fgdt;n}\Ftxt;78
 40
3.5
 41
10.3268229167
  0
LINE
  5
236
100
AcDbEntity
  8
0
100
AcDbLine
 62
2
  6
CONTINUOUS
 10
200.3075136975
 20
129.5896114365
 11
363.7425846246
 21
129.5896114365
  0
LINE
  5
237
100
AcDbEntity
  8
0
100
AcDbLine
 62
2
  6
CONTINUOUS
 10
200.3075136975
 20
207.5896114365
 11
363.7425846246
 21
207.5896114365
  0
LINE
  5
238
100
AcDbEntity
  8
0
100
AcDbLine
 62
2
  6
CONTINUOUS
 10
362.2425846246
 20
129.5896114365
 11
362.2425846246
 21
168.5896114365
  0
LINE
  5
239
100
AcDbEntity
  8
0
100
AcDbLine
 62
2
  6
CONTINUOUS
 10
362.2425846246
 20
207.5896114365
 11
362.2425846246
 21
168.5896114365
  0
INSERT
  5
23A
100
AcDbEntity
  8
0
100
AcDbBlockReference
 62
2
  6
CONTINUOUS
  2
_FILLED
 10
362.2425846246
 20
129.5896114365
 41
3.5
 42
3.5
 43
3.5
 50
270.0
  0
INSERT
  5
23B
100
AcDbEntity
  8
0
100
AcDbBlockReference
 62
2
  6
CONTINUOUS
  2
_FILLED
 10
362.2425846246
 20
207.5896114365
 41
3.5
 42
3.5
 43
3.5
 50
90.0
  0
ENDBLK
  5
23C
100
AcDbEntity
  8
0
  6
BYBLOCK
 62
0
100
AcDbBlockEnd
  0
BLOCK
  5
23D
100
AcDbEntity
  8
0
100
AcDbBlockBegin
 62
2
  6
CONTINUOUS
  2
*D2
 70
65
 10
0.0
 20
0.0
  3
*D2
  1

  0
MTEXT
  5
23E
100
AcDbEntity
  8
0
100
AcDbMText
 62
5
  6
CONTINUOUS
  7
TEXTSTYLE_2
 71
2
 72
1
 10
349.2304187267
 20
168.5896114365
 30
0.0
 11
0.0
 21
1.0
 31
0.0
 44
0.9
  1
{\Fgdt;n}\Ftxt;58
 40
3.5
 41
10.3268229167
  0
LINE
  5
23F
100
AcDbEntity
  8
0
100
AcDbLine
 62
2
  6
CONTINUOUS
 10
331.2075136975
 20
139.5896114365
 11
355.1054187267
 21
139.5896114365
  0
LINE
  5
240
100
AcDbEntity
  8
0
100
AcDbLine
 62
2
  6
CONTINUOUS
 10
331.2075136975
 20
197.5896114365
 11
355.1054187267
 21
197.5896114365
  0
LINE
  5
241
100
AcDbEntity
  8
0
100
AcDbLine
 62
2
  6
CONTINUOUS
 10
353.6054187267
 20
139.5896114365
 11
353.6054187267
 21
168.5896114365
  0
LINE
  5
242
100
AcDbEntity
  8
0
100
AcDbLine
 62
2
  6
CONTINUOUS
 10
353.6054187267
 20
197.5896114365
 11
353.6054187267
 21
168.5896114365
  0
INSERT
  5
243
100
AcDbEntity
  8
0
100
AcDbBlockReference
 62
2
  6
CONTINUOUS
  2
_FILLED
 10
353.6054187267
 20
139.5896114365
 41
3.5
 42
3.5
 43
3.5
 50
270.0
  0
INSERT
  5
244
100
AcDbEntity
  8
0
100
AcDbBlockReference
 62
2
  6
CONTINUOUS
  2
_FILLED
 10
353.6054187267
 20
197.5896114365
 41
3.5
 42
3.5
 43
3.5
 50
90.0
  0
ENDBLK
  5
245
100
AcDbEntity
  8
0
  6
BYBLOCK
 62
0
100
AcDbBlockEnd
  0
BLOCK
  5
246
100
AcDbEntity
  8
0
100
AcDbBlockBegin
 62
2
  6
CONTINUOUS
  2
*D3
 70
65
 10
0.0
 20
0.0
  3
*D3
  1

  0
MTEXT
  5
247
100
AcDbEntity
  8
0
100
AcDbMText
 62
5
  6
CONTINUOUS
  7
STANDARD
 71
2
 72
1
 10
307.8255854223
 20
218.7641000664
 30
0.0
 11
0.1270044055
 21
0.9919021529
 31
0.0
 44
0.9
  1
4\Fgdt;{\Fgdt;~}\Ftxt;30'
 40
3.5
 41
12.2454427083
  0
LINE
  5
248
100
AcDbEntity
  8
0
100
AcDbLine
 62
2
  6
CONTINUOUS
 10
330.2859727933
 20
197.6621382786
 11
311.3273283658
 21
199.1542159541
  0
LINE
  5
249
100
AcDbEntity
  8
0
100
AcDbLine
 62
2
  6
CONTINUOUS
 10
331.2075136975
 20
168.5896114365
 11
310.1264417837
 21
168.5896114365
  0
ARC
  5
24A
100
AcDbEntity
  8
0
100
AcDbCircle
 62
2
  6
CONTINUOUS
 10
699.6874510466
 20
168.5896114365
 40
388.0610092629
100
AcDbArc
 50
172.703477556
 51
180.0
  0
SOLID
  5
24B
100
AcDbEntity
  8
0
100
AcDbTrace
 62
2
  6
CONTINUOUS
 10
313.0001369094
 20
195.5137551148
 11
312.8227043664
 21
199.0365273105
 12
312.1275335214
 22
195.5784724026
 13
312.1275335214
 23
195.5784724026
  0
SOLID
  5
24C
100
AcDbEntity
  8
0
100
AcDbTrace
 62
2
  6
CONTINUOUS
 10
311.2047297794
 20
172.0915487911
 11
311.6264417837
 21
168.5896114365
 12
312.0797208822
 22
172.0876029043
 13
312.0797208822
 23
172.0876029043
  0
ENDBLK
  5
24D
100
AcDbEntity
  8
0
  6
BYBLOCK
 62
0
100
AcDbBlockEnd
  0
BLOCK
  5
24E
100
AcDbEntity
  8
0
100
AcDbBlockBegin
 62
2
  6
CONTINUOUS
  2
*D4
 70
65
 10
0.0
 20
0.0
  3
*D4
  1

  0
MTEXT
  5
24F
100
AcDbEntity
  8
0
100
AcDbMText
 62
5
  6
CONTINUOUS
  7
STANDARD
 71
2
 72
1
 10
200.3325136975
 20
246.3460072585
 30
0.0
 11
1.0
 21
0.0
 31
0.0
 44
0.9
  1
261.75
 40
3.5
 41
15.572265625
  0
LINE
  5
250
100
AcDbEntity
  8
0
100
AcDbLine
 62
2
  6
CONTINUOUS
 10
69.4575136975
 20
187.9430229656
 11
69.4575136975
 21
243.4710072585
  0
LINE
  5
251
100
AcDbEntity
  8
0
100
AcDbLine
 62
2
  6
CONTINUOUS
 10
331.2075136975
 20
168.5896114365
 11
331.2075136975
 21
243.4710072585
  0
LINE
  5
252
100
AcDbEntity
  8
0
100
AcDbLine
 62
2
  6
CONTINUOUS
 10
69.4575136975
 20
241.9710072585
 11
200.3325136975
 21
241.9710072585
  0
LINE
  5
253
100
AcDbEntity
  8
0
100
AcDbLine
 62
2
  6
CONTINUOUS
 10
331.2075136975
 20
241.9710072585
 11
200.3325136975
 21
241.9710072585
  0
INSERT
  5
254
100
AcDbEntity
  8
0
100
AcDbBlockReference
 62
2
  6
CONTINUOUS
  2
_FILLED
 10
69.4575136975
 20
241.9710072585
 41
3.5
 42
3.5
 43
3.5
 50
180.0
  0
INSERT
  5
255
100
AcDbEntity
  8
0
100
AcDbBlockReference
 62
2
  6
CONTINUOUS
  2
_FILLED
 10
331.2075136975
 20
241.9710072585
 41
3.5
 42
3.5
 43
3.5
  0
ENDBLK
  5
256
100
AcDbEntity
  8
0
  6
BYBLOCK
 62
0
100
AcDbBlockEnd
  0
BLOCK
  5
257
100
AcDbEntity
  8
0
100
AcDbBlockBegin
 62
2
  6
CONTINUOUS
  2
*D5
 70
65
 10
0.0
 20
0.0
  3
*D5
  1

  0
MTEXT
  5
258
100
AcDbEntity
  8
0
100
AcDbMText
 62
5
  6
CONTINUOUS
  7
STANDARD
 71
2
 72
1
 10
260.7575136975
 20
233.620931201
 30
0.0
 11
1.0
 21
0.0
 31
0.0
 44
0.9
  1
140.9
 40
3.5
 41
12.7421875
  0
LINE
  5
259
100
AcDbEntity
  8
0
100
AcDbLine
 62
2
  6
CONTINUOUS
 10
331.2075136975
 20
168.5896114365
 11
331.2075136975
 21
230.745931201
  0
LINE
  5
25A
100
AcDbEntity
  8
0
100
AcDbLine
 62
2
  6
CONTINUOUS
 10
190.3075136975
 20
220.5746809299
 11
190.3075136975
 21
230.745931201
  0
LINE
  5
25B
100
AcDbEntity
  8
0
100
AcDbLine
 62
2
  6
CONTINUOUS
 10
331.2075136975
 20
229.245931201
 11
260.7575136975
 21
229.245931201
  0
LINE
  5
25C
100
AcDbEntity
  8
0
100
AcDbLine
 62
2
  6
CONTINUOUS
 10
190.3075136975
 20
229.245931201
 11
260.7575136975
 21
229.245931201
  0
INSERT
  5
25D
100
AcDbEntity
  8
0
100
AcDbBlockReference
 62
2
  6
CONTINUOUS
  2
_FILLED
 10
331.2075136975
 20
229.245931201
 41
3.5
 42
3.5
 43
3.5
  0
INSERT
  5
25E
100
AcDbEntity
  8
0
100
AcDbBlockReference
 62
2
  6
CONTINUOUS
  2
_FILLED
 10
190.3075136975
 20
229.245931201
 41
3.5
 42
3.5
 43
3.5
 50
180.0
  0
ENDBLK
  5
25F
100
AcDbEntity
  8
0
  6
BYBLOCK
 62
0
100
AcDbBlockEnd
  0
BLOCK
  5
260
100
AcDbEntity
  8
0
100
AcDbBlockBegin
 62
2
  6
CONTINUOUS
  2
*D6
 70
65
 10
0.0
 20
0.0
  3
*D6
  1

  0
MTEXT
  5
261
100
AcDbEntity
  8
0
100
AcDbMText
 62
5
  6
CONTINUOUS
  7
TEXTSTYLE_2
 71
2
 72
1
 10
340.2346489605
 20
168.5896114365
 30
0.0
 11
0.0
 21
1.0
 31
0.0
 44
0.9
  1
{\Fgdt;n}\Ftxt;20
 40
3.5
 41
10.3268229167
  0
LINE
  5
262
100
AcDbEntity
  8
0
100
AcDbLine
 62
2
  6
CONTINUOUS
 10
331.2075136975
 20
158.5896114365
 11
346.1096489605
 21
158.5896114365
  0
LINE
  5
263
100
AcDbEntity
  8
0
100
AcDbLine
 62
2
  6
CONTINUOUS
 10
331.2075136975
 20
178.5896114365
 11
346.1096489605
 21
178.5896114365
  0
LINE
  5
264
100
AcDbEntity
  8
0
100
AcDbLine
 62
2
  6
CONTINUOUS
 10
344.6096489605
 20
158.5896114365
 11
344.6096489605
 21
168.5896114365
  0
LINE
  5
265
100
AcDbEntity
  8
0
100
AcDbLine
 62
2
  6
CONTINUOUS
 10
344.6096489605
 20
178.5896114365
 11
344.6096489605
 21
168.5896114365
  0
INSERT
  5
266
100
AcDbEntity
  8
0
100
AcDbBlockReference
 62
2
  6
CONTINUOUS
  2
_FILLED
 10
344.6096489605
 20
158.5896114365
 41
3.5
 42
3.5
 43
3.5
 50
270.0
  0
INSERT
  5
267
100
AcDbEntity
  8
0
100
AcDbBlockReference
 62
2
  6
CONTINUOUS
  2
_FILLED
 10
344.6096489605
 20
178.5896114365
 41
3.5
 42
3.5
 43
3.5
 50
90.0
  0
ENDBLK
  5
268
100
AcDbEntity
  8
0
  6
BYBLOCK
 62
0
100
AcDbBlockEnd
  0
ENDSEC
  0
SECTION
  2
ENTITIES
  0
DIMENSION
  5
269
100
AcDbEntity
  8
0
100
AcDbDimension
 62
2
  6
CONTINUOUS
  2
*D0
 10
171.2075136975
 20
235.1905655361
 11
246.96239651
 21
237.8155655361
 70
160
 71
2
 42
160.0
  3
DIMSTYLE_1
100
AcDbAlignedDimension
 13
331.2075136975
 23
166.0896114365
 14
171.2075136975
 24
219.7623732376
 50
180.0
100
AcDbRotatedDimension
  0
DIMENSION
  5
26A
100
AcDbEntity
  8
0
100
AcDbDimension
 62
2
  6
CONTINUOUS
  2
*D1
 10
362.2425846246
 20
207.5896114365
 11
360.7743788464
 21
166.2815751282
 70
160
 71
2
 42
78.0
  1
%%c<>
  3
DIMSTYLE_2
100
AcDbAlignedDimension
 13
200.3075136975
 23
129.5896114365
 14
200.3075136975
 24
207.5896114365
 50
90.0
100
AcDbRotatedDimension
  0
DIMENSION
  5
26B
100
AcDbEntity
  8
0
100
AcDbDimension
 62
2
  6
CONTINUOUS
  2
*D2
 10
353.6054187267
 20
197.5896114365
 11
352.1372129486
 21
166.2815751282
 70
160
 71
2
 42
58.0
  1
%%c<>
  3
DIMSTYLE_3
100
AcDbAlignedDimension
 13
331.2075136975
 23
139.5896114365
 14
331.2075136975
 24
197.5896114365
 50
90.0
100
AcDbRotatedDimension
  0
DIMENSION
  5
26C
100
AcDbEntity
  8
0
100
AcDbDimension
 62
2
  6
CONTINUOUS
  2
*D3
 10
310.1264417837
 20
168.5896114365
 11
308.2118089009
 21
216.4276171478
 70
162
 71
2
 42
0.0785398163
  3
DIMSTYLE_4
100
AcDb2LineAngularDimension
 13
311.3273283658
 23
199.1542159541
 14
330.2859727933
 24
197.6621382786
 15
331.2075136975
 25
168.5896114365
 16
311.9256227582
 26
183.8248151634
  0
DIMENSION
  5
26D
100
AcDbEntity
  8
0
100
AcDbDimension
 62
2
  6
CONTINUOUS
  2
*D4
 10
331.2075136975
 20
241.9710072585
 11
192.546380885
 21
244.5960072585
 70
160
 71
2
 42
261.75
  3
DIMSTYLE_5
100
AcDbAlignedDimension
 13
69.4575136975
 23
187.9430229656
 14
331.2075136975
 24
168.5896114365
100
AcDbRotatedDimension
  0
DIMENSION
  5
26E
100
AcDbEntity
  8
0
100
AcDbDimension
 62
2
  6
CONTINUOUS
  2
*D5
 10
190.3075136975
 20
229.245931201
 11
254.3864199475
 21
231.870931201
 70
160
 71
2
 42
140.9
  3
DIMSTYLE_5
100
AcDbAlignedDimension
 13
331.2075136975
 23
168.5896114365
 14
190.3075136975
 24
220.5746809299
 50
180.0
100
AcDbRotatedDimension
  0
DIMENSION
  5
26F
100
AcDbEntity
  8
0
100
AcDbDimension
 62
2
  6
CONTINUOUS
  2
*D6
 10
344.6096489605
 20
178.5896114365
 11
343.1414431823
 21
166.2815751282
 70
160
 71
2
 42
20.0
  1
%%c<>
  3
DIMSTYLE_6
100
AcDbAlignedDimension
 13
331.2075136975
 23
158.5896114365
 14
331.2075136975
 24
178.5896114365
 50
90.0
100
AcDbRotatedDimension
  0
MTEXT
  5
270
100
AcDbEntity
  8
0
100
AcDbMText
 62
5
  6
CONTINUOUS
  7
STANDARD
 71
1
 72
1
 10
47.5370647089
 20
119.7004612786
 30
0.0
 11
1.0
 21
0.0
 31
0.0
 44
0.9
  3
Für diese Unterlage behalten wir das Ur-\Pheberrecht. Sie darf nur für den von uns \Pbestimmten Zweck benutzt und ohne unsere \PZustimmung weder vervielfältigt noch\PDritten zugänglich gemacht werden\P \PWe own the copyright of this document. It \Pde
  1
termined and may neither be copied or \Pmade accessible to outsiders without our\Ppermission.\P \PCe plan reste notre propriété. Il ne peut\Pêtre utilisé, copié ou reproduit sans notre\Paccord.\P 
 40
3.5
 41
99.162109375
  0
LINE
  5
271
100
AcDbEntity
  8
0
100
AcDbLine
 62
7
  6
CONTINUOUS
 10
0.0
 20
0.0
 11
0.0
 21
297.0
  0
LINE
  5
272
100
AcDbEntity
  8
0
100
AcDbLine
 62
7
  6
CONTINUOUS
 10
0.0
 20
0.0
 11
420.0
 21
0.0
  0
LINE
  5
273
100
AcDbEntity
  8
0
100
AcDbLine
 62
7
  6
CONTINUOUS
 10
0.0
 20
297.0
 11
420.0
 21
297.0
  0
LINE
  5
274
100
AcDbEntity
  8
0
100
AcDbLine
 62
7
  6
CONTINUOUS
 10
420.0
 20
0.0
 11
420.0
 21
297.0
  0
LINE
  5
275
100
AcDbEntity
  8
BEZUGSACHSEN
100
AcDbLine
 62
7
  6
CONTINUOUS
 10
69.4575136975
 20
186.5129981138
 11
69.4575136975
 21
150.6662247592
  0
LINE
  5
276
100
AcDbEntity
  8
BEZUGSACHSEN
100
AcDbLine
 62
9
  6
CONTINUOUS
 10
71.5967170246
 20
188.9868262729
 11
71.5967170246
 21
148.1923966001
  0
LINE
  5
277
100
AcDbEntity
  8
BEZUGSACHSEN
100
AcDbLine
 62
7
  6
CONTINUOUS
 10
175.4575136975
 20
119.8396114365
 11
179.1349184334
 21
119.8396114365
  0
LINE
  5
278
100
AcDbEntity
  8
BEZUGSACHSEN
100
AcDbLine
 62
7
  6
CONTINUOUS
 10
185.6301089617
 20
119.8396114365
 11
189.3075136975
 21
119.8396114365
  0
LINE
  5
279
100
AcDbEntity
  8
BEZUGSACHSEN
100
AcDbLine
 62
7
  6
CONTINUOUS
 10
181.0075136975
 20
122.9646114365
 11
183.7575136975
 21
122.9646114365
  0
LINE
  5
27A
100
AcDbEntity
  8
BEZUGSACHSEN
100
AcDbLine
 62
7
  6
CONTINUOUS
 10
184.2575136975
 20
214.9622067007
 11
185.6301089617
 21
217.3396114365
  0
LINE
  5
27B
100
AcDbEntity
  8
BEZUGSACHSEN
100
AcDbLine
 62
7
  6
CONTINUOUS
 10
267.2320172799
 20
134.5546306735
 11
318.5502116589
 21
138.5934601623
  0
LINE
  5
27C
100
AcDbEntity
  8
BEZUGSACHSEN
100
AcDbLine
 62
7
  6
CONTINUOUS
 10
319.645667594
 20
138.6796744141
 11
330.2859727933
 21
139.5170845944
  0
LINE
  5
27D
100
AcDbEntity
  8
BEZUGSACHSEN
100
AcDbLine
 62
7
  6
CONTINUOUS
 10
200.3075136975
 20
129.5896114365
 11
255.682662985
 21
131.0775867356
  0
LINE
  5
27E
100
AcDbEntity
  8
BEZUGSACHSEN
100
AcDbLine
 62
7
  6
CONTINUOUS
 10
191.3075136975
 20
129.5896114365
 11
200.3075136975
 21
129.5896114365
  0
LINE
  5
27F
100
AcDbEntity
  8
0
100
AcDbLine
 62
7
  6
CONTINUOUS
 10
175.4575136975
 20
130.1635460641
 11
179.1349184334
 21
130.1635460641
  0
LINE
  5
280
100
AcDbEntity
  8
0
100
AcDbLine
 62
7
  6
CONTINUOUS
 10
185.6301089617
 20
130.1635460641
 11
189.3075136975
 21
130.1635460641
  0
LINE
  5
281
100
AcDbEntity
  8
BEZUGSACHSEN
100
AcDbLine
 62
7
  6
CONTINUOUS
 10
257.1693939129
 20
132.0896114365
 11
264.730816539
 21
132.0896114365
  0
LINE
  5
282
100
AcDbEntity
  8
BEZUGSACHSEN
100
AcDbLine
 62
7
  6
CONTINUOUS
 10
71.5967170246
 20
148.1923966001
 11
170.7502084351
 21
133.7313073453
  0
LINE
  5
283
100
AcDbEntity
  8
BEZUGSACHSEN
100
AcDbLine
 62
7
  6
CONTINUOUS
 10
184.2575136975
 20
122.2170161723
 11
185.6301089617
 21
119.8396114365
  0
LINE
  5
284
100
AcDbEntity
  8
BEZUGSACHSEN
100
AcDbLine
 62
7
  6
CONTINUOUS
 10
170.7502084351
 20
203.4479155277
 11
170.7502084351
 21
133.7313073453
  0
LINE
  5
285
100
AcDbEntity
  8
BEZUGSACHSEN
100
AcDbLine
 62
7
  6
CENTER
 10
171.2075136975
 20
116.8396114365
 11
171.2075136975
 21
220.3396114365
  0
LINE
  5
286
100
AcDbEntity
  8
BEZUGSACHSEN
100
AcDbLine
 62
7
  6
CONTINUOUS
 10
171.8075136975
 20
203.1646114365
 11
171.8075136975
 21
134.0146114365
  0
LINE
  5
287
100
AcDbEntity
  8
BEZUGSACHSEN
100
AcDbLine
 62
9
  6
CONTINUOUS
 10
173.4575136975
 20
203.1646114365
 11
173.4575136975
 21
134.0146114365
  0
LINE
  5
288
100
AcDbEntity
  8
BEZUGSACHSEN
100
AcDbLine
 62
7
  6
CONTINUOUS
 10
174.4575136975
 20
216.3077009773
 11
174.4575136975
 21
181.5396114365
  0
LINE
  5
289
100
AcDbEntity
  8
BEZUGSACHSEN
100
AcDbLine
 62
7
  6
CONTINUOUS
 10
174.4575136975
 20
155.6396114365
 11
174.4575136975
 21
138.5896114365
  0
LINE
  5
28A
100
AcDbEntity
  8
BEZUGSACHSEN
100
AcDbLine
 62
7
  6
CONTINUOUS
 10
174.4575136975
 20
131.4404189823
 11
174.4575136975
 21
120.8470496805
  0
LINE
  5
28B
100
AcDbEntity
  8
0
100
AcDbLine
 62
7
  6
CONTINUOUS
 10
174.4575136975
 20
120.8396262974
 11
174.4575136975
 21
131.4404189823
  0
LINE
  5
28C
100
AcDbEntity
  8
FASEN
100
AcDbLine
 62
7
  6
CONTINUOUS
 10
174.4575136975
 20
131.4404189823
 11
174.4575136975
 21
138.5896114365
  0
LINE
  5
28D
100
AcDbEntity
  8
0
100
AcDbLine
 62
7
  6
CONTINUOUS
 10
174.4575136975
 20
138.5896114365
 11
174.4575136975
 21
155.6396114365
  0
LINE
  5
28E
100
AcDbEntity
  8
FASEN
100
AcDbLine
 62
7
  6
CONTINUOUS
 10
174.4575136975
 20
155.6396114365
 11
174.4575136975
 21
181.5396114365
  0
LINE
  5
28F
100
AcDbEntity
  8
0
100
AcDbLine
 62
7
  6
CONTINUOUS
 10
174.4575136975
 20
181.5396114365
 11
174.4575136975
 21
216.3395895713
  0
LINE
  5
290
100
AcDbEntity
  8
BEZUGSACHSEN
100
AcDbLine
 62
7
  6
CONTINUOUS
 10
171.8075136975
 20
134.0146114365
 11
173.4575136975
 21
134.0146114365
  0
LINE
  5
291
100
AcDbEntity
  8
0
100
AcDbLine
 62
7
  6
CONTINUOUS
 10
181.0075136975
 20
134.2146114365
 11
183.7575136975
 21
134.2146114365
  0
LINE
  5
292
100
AcDbEntity
  8
FASEN
100
AcDbLine
 62
7
  6
CONTINUOUS
 10
174.4575136975
 20
138.1896114365
 11
190.3075136975
 21
138.1896114365
  0
LINE
  5
293
100
AcDbEntity
  8
0
100
AcDbLine
 62
7
  6
CONTINUOUS
 10
174.4575136975
 20
138.5896114365
 11
190.3075136975
 21
138.5896114365
  0
LINE
  5
294
100
AcDbEntity
  8
0
100
AcDbLine
 62
9
  6
CONTINUOUS
 10
175.4575136975
 20
217.3396114365
 11
175.4575136975
 21
181.5396114365
  0
LINE
  5
295
100
AcDbEntity
  8
0
100
AcDbLine
 62
9
  6
CONTINUOUS
 10
175.4575136975
 20
155.6396114365
 11
175.4575136975
 21
138.5896114365
  0
LINE
  5
296
100
AcDbEntity
  8
0
100
AcDbLine
 62
9
  6
CONTINUOUS
 10
175.4575136975
 20
130.1635460641
 11
175.4575136975
 21
119.8396114365
  0
LINE
  5
297
100
AcDbEntity
  8
0
100
AcDbLine
 62
7
  6
CONTINUOUS
 10
179.1349184334
 20
119.8396114365
 11
179.1349184334
 21
130.1635460641
  0
LINE
  5
298
100
AcDbEntity
  8
0
100
AcDbLine
 62
7
  6
CONTINUOUS
 10
179.1349184334
 20
138.5896114365
 11
179.1349184334
 21
155.6396114365
  0
LINE
  5
299
100
AcDbEntity
  8
0
100
AcDbLine
 62
7
  6
CONTINUOUS
 10
179.1349184334
 20
181.5396114365
 11
179.1349184334
 21
217.3396114365
  0
LINE
  5
29A
100
AcDbEntity
  8
0
100
AcDbLine
 62
7
  6
CONTINUOUS
 10
180.5075136975
 20
214.9622057105
 11
180.5075136975
 21
212.3987250033
  0
LINE
  5
29B
100
AcDbEntity
  8
BEZUGSACHSEN
100
AcDbLine
 62
7
  6
CONTINUOUS
 10
180.5075136975
 20
212.3987250033
 11
180.5075136975
 21
212.1660352121
  0
LINE
  5
29C
100
AcDbEntity
  8
0
100
AcDbLine
 62
7
  6
CONTINUOUS
 10
180.5075136975
 20
211.922653112
 11
180.5075136975
 21
181.5396114365
  0
LINE
  5
29D
100
AcDbEntity
  8
0
100
AcDbLine
 62
7
  6
CONTINUOUS
 10
180.5075136975
 20
155.6396114365
 11
180.5075136975
 21
138.5896114365
  0
LINE
  5
29E
100
AcDbEntity
  8
0
100
AcDbLine
 62
7
  6
CONTINUOUS
 10
180.5075136975
 20
122.2170215195
 11
180.5075136975
 21
133.5536923676
  0
LINE
  5
29F
100
AcDbEntity
  8
0
100
AcDbLine
 62
9
  6
CONTINUOUS
 10
181.0075136975
 20
122.9646114365
 11
181.0075136975
 21
134.2146114365
  0
LINE
  5
2A0
100
AcDbEntity
  8
0
100
AcDbLine
 62
9
  6
CONTINUOUS
 10
181.0075136975
 20
138.5896114365
 11
181.0075136975
 21
155.6396114365
  0
LINE
  5
2A1
100
AcDbEntity
  8
0
100
AcDbLine
 62
9
  6
CONTINUOUS
 10
181.0075136975
 20
181.5396114365
 11
181.0075136975
 21
210.9446200379
  0
LINE
  5
2A2
100
AcDbEntity
  8
0
100
AcDbLine
 62
9
  6
CONTINUOUS
 10
181.0075136975
 20
211.9380987773
 11
181.0075136975
 21
214.2146114365
  0
LINE
  5
2A3
100
AcDbEntity
  8
0
100
AcDbLine
 62
9
  6
CONTINUOUS
 10
183.7575136975
 20
122.9646114365
 11
183.7575136975
 21
134.2146114365
  0
LINE
  5
2A4
100
AcDbEntity
  8
0
100
AcDbLine
 62
9
  6
CONTINUOUS
 10
183.7575136975
 20
138.5896114365
 11
183.7575136975
 21
155.6396114365
  0
LINE
  5
2A5
100
AcDbEntity
  8
0
100
AcDbLine
 62
9
  6
CONTINUOUS
 10
183.7575136975
 20
181.5396114365
 11
183.7575136975
 21
210.9446200379
  0
LINE
  5
2A6
100
AcDbEntity
  8
0
100
AcDbLine
 62
9
  6
CONTINUOUS
 10
183.7575136975
 20
211.9380987773
 11
183.7575136975
 21
214.2146114365
  0
LINE
  5
2A7
100
AcDbEntity
  8
BEZUGSACHSEN
100
AcDbLine
 62
7
  6
CONTINUOUS
 10
170.7502084351
 20
133.7313073453
 11
171.8075136975
 21
134.0146114365
  0
LINE
  5
2A8
100
AcDbEntity
  8
BEZUGSACHSEN
100
AcDbLine
 62
7
  6
CONTINUOUS
 10
184.2575136975
 20
212.3987250033
 11
184.2575136975
 21
212.1660352121
  0
LINE
  5
2A9
100
AcDbEntity
  8
0
100
AcDbLine
 62
7
  6
CONTINUOUS
 10
184.2575136975
 20
211.922653112
 11
184.2575136975
 21
181.5396114365
  0
LINE
  5
2AA
100
AcDbEntity
  8
0
100
AcDbLine
 62
7
  6
CONTINUOUS
 10
184.2575136975
 20
122.2170215195
 11
184.2575136975
 21
133.5536923676
  0
LINE
  5
2AB
100
AcDbEntity
  8
0
100
AcDbLine
 62
7
  6
CONTINUOUS
 10
184.2575136975
 20
138.5896114365
 11
184.2575136975
 21
155.6396114365
  0
LINE
  5
2AC
100
AcDbEntity
  8
0
100
AcDbLine
 62
7
  6
CONTINUOUS
 10
184.2575136975
 20
212.3987250033
 11
184.2575136975
 21
214.9622057105
  0
LINE
  5
2AD
100
AcDbEntity
  8
0
100
AcDbLine
 62
7
  6
CONTINUOUS
 10
185.6301089617
 20
217.3396114365
 11
185.6301089617
 21
181.5396114365
  0
LINE
  5
2AE
100
AcDbEntity
  8
0
100
AcDbLine
 62
7
  6
CONTINUOUS
 10
185.6301089617
 20
155.6396114365
 11
185.6301089617
 21
138.5896114365
  0
LINE
  5
2AF
100
AcDbEntity
  8
0
100
AcDbLine
 62
7
  6
CONTINUOUS
 10
185.6301089617
 20
130.1635460641
 11
185.6301089617
 21
119.8396114365
  0
LINE
  5
2B0
100
AcDbEntity
  8
0
100
AcDbLine
 62
9
  6
CONTINUOUS
 10
189.3075136975
 20
119.8396114365
 11
189.3075136975
 21
130.1635460641
  0
LINE
  5
2B1
100
AcDbEntity
  8
0
100
AcDbLine
 62
9
  6
CONTINUOUS
 10
189.3075136975
 20
138.5896114365
 11
189.3075136975
 21
155.6396114365
  0
LINE
  5
2B2
100
AcDbEntity
  8
0
100
AcDbLine
 62
9
  6
CONTINUOUS
 10
189.3075136975
 20
181.5396114365
 11
189.3075136975
 21
217.3396114365
  0
LINE
  5
2B3
100
AcDbEntity
  8
BEZUGSACHSEN
100
AcDbLine
 62
7
  6
CONTINUOUS
 10
190.3075136975
 20
216.3077009773
 11
190.3075136975
 21
181.5396114365
  0
LINE
  5
2B4
100
AcDbEntity
  8
0
100
AcDbLine
 62
7
  6
CONTINUOUS
 10
190.3075136975
 20
216.3395895713
 11
190.3075136975
 21
181.5396114365
  0
LINE
  5
2B5
100
AcDbEntity
  8
FASEN
100
AcDbLine
 62
7
  6
CONTINUOUS
 10
190.3075136975
 20
181.5396114365
 11
190.3075136975
 21
181.3497525452
  0
LINE
  5
2B6
100
AcDbEntity
  8
FASEN
100
AcDbLine
 62
7
  6
CONTINUOUS
 10
190.3075136975
 20
155.8294703277
 11
190.3075136975
 21
155.6396114365
  0
LINE
  5
2B7
100
AcDbEntity
  8
0
100
AcDbLine
 62
7
  6
CONTINUOUS
 10
190.3075136975
 20
155.6396114365
 11
190.3075136975
 21
138.5896114365
  0
LINE
  5
2B8
100
AcDbEntity
  8
BEZUGSACHSEN
100
AcDbLine
 62
7
  6
CONTINUOUS
 10
190.3075136975
 20
131.4404189823
 11
190.3075136975
 21
120.8470496805
  0
LINE
  5
2B9
100
AcDbEntity
  8
0
100
AcDbLine
 62
7
  6
CONTINUOUS
 10
190.3075136975
 20
131.4404189823
 11
190.3075136975
 21
120.8396262974
  0
LINE
  5
2BA
100
AcDbEntity
  8
FASEN
100
AcDbLine
 62
7
  6
CONTINUOUS
 10
190.3075136975
 20
131.4404189823
 11
190.3075136975
 21
138.5896114365
  0
LINE
  5
2BB
100
AcDbEntity
  8
0
100
AcDbLine
 62
9
  6
CONTINUOUS
 10
191.3075136975
 20
207.5896114365
 11
191.3075136975
 21
178.5751009087
  0
LINE
  5
2BC
100
AcDbEntity
  8
0
100
AcDbLine
 62
9
  6
CONTINUOUS
 10
191.3075136975
 20
158.6041219643
 11
191.3075136975
 21
129.5896114365
  0
LINE
  5
2BD
100
AcDbEntity
  8
0
100
AcDbLine
 62
7
  6
CONTINUOUS
 10
174.4575136975
 20
155.6396114365
 11
190.3075136975
 21
155.6396114365
  0
LINE
  5
2BE
100
AcDbEntity
  8
FASEN
100
AcDbLine
 62
7
  6
CONTINUOUS
 10
174.4575136975
 20
156.0396114365
 11
190.3435346134
 21
156.0396114365
  0
LINE
  5
2BF
100
AcDbEntity
  8
BEZUGSACHSEN
100
AcDbLine
 62
8
  6
HIDDEN
 10
292.0089069567
 20
158.2896114365
 11
278.5469773645
 21
158.2896114365
  0
LINE
  5
2C0
100
AcDbEntity
  8
BEZUGSACHSEN
100
AcDbLine
 62
8
  6
HIDDEN
 10
328.2075136975
 20
158.5896114365
 11
322.5561386866
 21
158.5896114365
  0
LINE
  5
2C1
100
AcDbEntity
  8
BEZUGSACHSEN
100
AcDbLine
 62
8
  6
HIDDEN
 10
321.8588887085
 20
158.5896114365
 11
318.2075136975
 21
158.5896114365
  0
LINE
  5
2C2
100
AcDbEntity
  8
BEZUGSACHSEN
100
AcDbLine
 62
8
  6
HIDDEN
 10
316.2075136975
 20
158.5896114365
 11
312.5561386866
 21
158.5896114365
  0
LINE
  5
2C3
100
AcDbEntity
  8
BEZUGSACHSEN
100
AcDbLine
 62
8
  6
HIDDEN
 10
311.8588887085
 20
158.5896114365
 11
305.7075136975
 21
158.5896114365
  0
LINE
  5
2C4
100
AcDbEntity
  8
BEZUGSACHSEN
100
AcDbLine
 62
8
  6
HIDDEN
 10
303.7075136975
 20
158.5896114365
 11
302.5561386866
 21
158.5896114365
  0
LINE
  5
2C5
100
AcDbEntity
  8
BEZUGSACHSEN
100
AcDbLine
 62
8
  6
HIDDEN
 10
301.8588887085
 20
158.5896114365
 11
293.2075136975
 21
158.5896114365
  0
LINE
  5
2C6
100
AcDbEntity
  8
FASEN
100
AcDbLine
 62
7
  6
CONTINUOUS
 10
191.3075136975
 20
158.6041219643
 11
198.9096515548
 21
158.6041219643
  0
LINE
  5
2C7
100
AcDbEntity
  8
FASEN
100
AcDbLine
 62
7
  6
CONTINUOUS
 10
200.3075136975
 20
129.5896114365
 11
200.3075136975
 21
159.5162976617
  0
LINE
  5
2C8
100
AcDbEntity
  8
FASEN
100
AcDbLine
 62
7
  6
CONTINUOUS
 10
200.3075136975
 20
177.6629252113
 11
200.3075136975
 21
207.5896114365
  0
LINE
  5
2C9
100
AcDbEntity
  8
BEZUGSACHSEN
100
AcDbLine
 62
7
  6
CENTER
 10
336.2075136975
 20
168.5896114365
 11
66.4575136975
 21
168.5896114365
  0
LINE
  5
2CA
100
AcDbEntity
  8
0
100
AcDbLine
 62
9
  6
CONTINUOUS
 10
318.5500998557
 20
168.5896114365
 11
319.6455557908
 21
168.5896114365
  0
LINE
  5
2CB
100
AcDbEntity
  8
BEZUGSACHSEN
100
AcDbLine
 62
7
  6
CONTINUOUS
 10
179.1349184334
 20
119.8396114365
 11
180.5075136975
 21
122.2170161723
  0
LWPOLYLINE
  5
2CC
100
AcDbEntity
  8
0
100
AcDbPolyline
 62
7
  6
CONTINUOUS
 90
6
 70
0
 10
317.2460967997
 20
198.515599104
 10
317.2297756423
 20
198.5108062637
 10
317.2031243629
 20
198.5036599712
 10
317.1819889097
 20
198.498658619
 10
317.1674603716
 20
198.4956359484
 10
317.1600995847
 20
198.4942813767
  0
LINE
  5
2CD
100
AcDbEntity
  8
FASEN
100
AcDbLine
 62
7
  6
CONTINUOUS
 10
191.3075136975
 20
178.5751009087
 11
198.9096515547
 21
178.5751009087
  0
LINE
  5
2CE
100
AcDbEntity
  8
BEZUGSACHSEN
100
AcDbLine
 62
8
  6
HIDDEN
 10
328.2075136975
 20
178.5896114365
 11
318.2075136975
 21
178.5896114365
  0
LINE
  5
2CF
100
AcDbEntity
  8
BEZUGSACHSEN
100
AcDbLine
 62
8
  6
HIDDEN
 10
316.2075136975
 20
178.5896114365
 11
307.5561386866
 21
178.5896114365
  0
LINE
  5
2D0
100
AcDbEntity
  8
BEZUGSACHSEN
100
AcDbLine
 62
8
  6
HIDDEN
 10
306.8588887085
 20
178.5896114365
 11
305.7075136975
 21
178.5896114365
  0
LINE
  5
2D1
100
AcDbEntity
  8
BEZUGSACHSEN
100
AcDbLine
 62
8
  6
HIDDEN
 10
303.7075136975
 20
178.5896114365
 11
297.5561386866
 21
178.5896114365
  0
LINE
  5
2D2
100
AcDbEntity
  8
BEZUGSACHSEN
100
AcDbLine
 62
8
  6
HIDDEN
 10
296.8588887085
 20
178.5896114365
 11
293.2075136975
 21
178.5896114365
  0
LINE
  5
2D3
100
AcDbEntity
  8
BEZUGSACHSEN
100
AcDbLine
 62
8
  6
HIDDEN
 10
292.0089069567
 20
178.8896114365
 11
278.5469773645
 21
178.8896114365
  0
LINE
  5
2D4
100
AcDbEntity
  8
BEZUGSACHSEN
100
AcDbLine
 62
7
  6
CONTINUOUS
 10
179.1349184334
 20
217.3396114365
 11
180.5075136975
 21
214.9622067007
  0
LINE
  5
2D5
100
AcDbEntity
  8
FASEN
100
AcDbLine
 62
7
  6
CONTINUOUS
 10
190.3435346134
 20
181.1396114365
 11
174.4575136975
 21
181.1396114365
  0
LINE
  5
2D6
100
AcDbEntity
  8
0
100
AcDbLine
 62
7
  6
CONTINUOUS
 10
174.4575136975
 20
181.5396114365
 11
190.3075136975
 21
181.5396114365
  0
LINE
  5
2D7
100
AcDbEntity
  8
BEZUGSACHSEN
100
AcDbLine
 62
7
  6
CONTINUOUS
 10
170.7502084351
 20
203.4479155277
 11
171.8075136975
 21
203.1646114365
  0
LINE
  5
2D8
100
AcDbEntity
  8
BEZUGSACHSEN
100
AcDbLine
 62
7
  6
CONTINUOUS
 10
171.8075136975
 20
203.1646114365
 11
173.4575136975
 21
203.1646114365
  0
LINE
  5
2D9
100
AcDbEntity
  8
BEZUGSACHSEN
100
AcDbLine
 62
7
  6
CONTINUOUS
 10
257.1693939129
 20
205.0896114365
 11
264.730816539
 21
205.0896114365
  0
LINE
  5
2DA
100
AcDbEntity
  8
BEZUGSACHSEN
100
AcDbLine
 62
7
  6
CONTINUOUS
 10
71.5967170246
 20
188.9868262729
 11
170.7502084351
 21
203.4479155277
  0
LINE
  5
2DB
100
AcDbEntity
  8
BEZUGSACHSEN
100
AcDbLine
 62
7
  6
CONTINUOUS
 10
191.3075136975
 20
207.5896114365
 11
200.3075136975
 21
207.5896114365
  0
LINE
  5
2DC
100
AcDbEntity
  8
BEZUGSACHSEN
100
AcDbLine
 62
7
  6
CONTINUOUS
 10
181.0075136975
 20
214.2146114365
 11
183.7575136975
 21
214.2146114365
  0
LINE
  5
2DD
100
AcDbEntity
  8
BEZUGSACHSEN
100
AcDbLine
 62
7
  6
CONTINUOUS
 10
200.3075136975
 20
207.5896114365
 11
255.682662985
 21
206.1016361374
  0
LINE
  5
2DE
100
AcDbEntity
  8
BEZUGSACHSEN
100
AcDbLine
 62
7
  6
CONTINUOUS
 10
267.2320172799
 20
202.6245921995
 11
318.5502116589
 21
198.5857627107
  0
LINE
  5
2DF
100
AcDbEntity
  8
BEZUGSACHSEN
100
AcDbLine
 62
7
  6
CONTINUOUS
 10
319.645667594
 20
198.4995484589
 11
330.2859727933
 21
197.6621382786
  0
LINE
  5
2E0
100
AcDbEntity
  8
BEZUGSACHSEN
100
AcDbLine
 62
9
  6
CONTINUOUS
 10
255.682662985
 20
206.1016361374
 11
255.682662985
 21
131.0775867356
  0
LINE
  5
2E1
100
AcDbEntity
  8
BEZUGSACHSEN
100
AcDbLine
 62
9
  6
CONTINUOUS
 10
256.3539944138
 20
205.7019247973
 11
256.3539944138
 21
131.4772980757
  0
LINE
  5
2E2
100
AcDbEntity
  8
BEZUGSACHSEN
100
AcDbLine
 62
9
  6
CONTINUOUS
 10
256.4765735899
 20
205.4896114365
 11
256.4765735899
 21
131.6896114365
  0
LINE
  5
2E3
100
AcDbEntity
  8
BEZUGSACHSEN
100
AcDbLine
 62
9
  6
CONTINUOUS
 10
257.1693939129
 20
205.0896114365
 11
257.1693939129
 21
132.0896114365
  0
LINE
  5
2E4
100
AcDbEntity
  8
BEZUGSACHSEN
100
AcDbLine
 62
7
  6
CONTINUOUS
 10
175.4575136975
 20
217.3396114365
 11
179.1349184334
 21
217.3396114365
  0
LINE
  5
2E5
100
AcDbEntity
  8
BEZUGSACHSEN
100
AcDbLine
 62
7
  6
CONTINUOUS
 10
185.6301089617
 20
217.3396114365
 11
189.3075136975
 21
217.3396114365
  0
LINE
  5
2E6
100
AcDbEntity
  8
DEFAULT_1
100
AcDbLine
 62
7
  6
CENTER
 10
260.9575136975
 20
203.1995386746
 11
260.9575136975
 21
190.2713354443
  0
LINE
  5
2E7
100
AcDbEntity
  8
BEZUGSACHSEN
100
AcDbLine
 62
9
  6
CONTINUOUS
 10
264.730816539
 20
205.0896114365
 11
264.730816539
 21
132.0896114365
  0
LINE
  5
2E8
100
AcDbEntity
  8
BEZUGSACHSEN
100
AcDbLine
 62
9
  6
CONTINUOUS
 10
265.5968419428
 20
204.5896114365
 11
265.5968419428
 21
132.5896114365
  0
LINE
  5
2E9
100
AcDbEntity
  8
BEZUGSACHSEN
100
AcDbLine
 62
9
  6
CONTINUOUS
 10
266.4444509718
 20
203.1215095333
 11
266.4444509718
 21
134.0577133397
  0
LINE
  5
2EA
100
AcDbEntity
  8
BEZUGSACHSEN
100
AcDbLine
 62
9
  6
CONTINUOUS
 10
267.2320172799
 20
202.6245921995
 11
267.2320172799
 21
134.5546306735
  0
LINE
  5
2EB
100
AcDbEntity
  8
BEZUGSACHSEN
100
AcDbLine
 62
7
  6
CONTINUOUS
 10
256.3539944138
 20
131.4772980757
 11
256.4765735899
 21
131.6896114365
  0
LINE
  5
2EC
100
AcDbEntity
  8
BEZUGSACHSEN
100
AcDbLine
 62
7
  6
CONTINUOUS
 10
256.3539944138
 20
205.7019247973
 11
256.4765735899
 21
205.4896114365
  0
LINE
  5
2ED
100
AcDbEntity
  8
BEZUGSACHSEN
100
AcDbLine
 62
7
  6
CONTINUOUS
 10
265.5968419428
 20
132.5896114365
 11
266.4444509718
 21
134.0577133397
  0
LINE
  5
2EE
100
AcDbEntity
  8
BEZUGSACHSEN
100
AcDbLine
 62
7
  6
CONTINUOUS
 10
265.5968419428
 20
204.5896114365
 11
266.4444509718
 21
203.1215095333
  0
LINE
  5
2EF
100
AcDbEntity
  8
BEZUGSACHSEN
100
AcDbLine
 62
9
  6
CONTINUOUS
 10
278.5469773645
 20
178.8896114365
 11
278.5469773645
 21
158.2896114365
  0
LWPOLYLINE
  5
2F0
100
AcDbEntity
  8
0
100
AcDbPolyline
 62
7
  6
CONTINUOUS
 90
6
 70
0
 10
320.9611140057
 20
138.9588054966
 10
320.97135838
 20
138.9636981377
 10
320.9962779667
 20
138.9749625227
 10
321.0164033288
 20
138.983349028
 10
321.0307824528
 20
138.9888848426
 10
321.0385659461
 20
138.9916747177
  0
LINE
  5
2F1
100
AcDbEntity
  8
BEZUGSACHSEN
100
AcDbLine
 62
9
  6
CONTINUOUS
 10
330.2859727933
 20
197.6621382786
 11
330.2859727933
 21
139.5170845944
  0
LINE
  5
2F2
100
AcDbEntity
  8
0
100
AcDbLine
 62
2
  6
CONTINUOUS
 10
331.2075136975
 20
186.5383287589
 11
331.2075136975
 21
186.5198668229
  0
LINE
  5
2F3
100
AcDbEntity
  8
0
100
AcDbLine
 62
2
  6
CONTINUOUS
 10
331.2075136975
 20
183.5485882184
 11
331.2075137005
 21
183.5301358414
  0
LINE
  5
2F4
100
AcDbEntity
  8
BEZUGSACHSEN
100
AcDbLine
 62
7
  6
CONTINUOUS
 10
331.2075136975
 20
196.6652209448
 11
331.2075136975
 21
140.5140019282
  0
LINE
  5
2F5
100
AcDbEntity
  8
0
100
AcDbLine
 62
2
  6
CONTINUOUS
 10
331.2075136975
 20
166.0881133924
 11
331.2075136975
 21
166.3002376046
  0
CIRCLE
  5
2F6
100
AcDbEntity
  8
BEZUGSACHSEN
100
AcDbCircle
 62
7
  6
CONTINUOUS
 10
182.3075136975
 20
168.5896114365
 40
5.0
  0
CIRCLE
  5
2F7
100
AcDbEntity
  8
BEZUGSACHSEN
100
AcDbCircle
 62
7
  6
CONTINUOUS
 10
182.3075136975
 20
168.5896114365
 40
4.7
  0
ARC
  5
2F8
100
AcDbEntity
  8
BEZUGSACHSEN
100
AcDbCircle
 62
7
  6
CONTINUOUS
 10
71.9575136975
 20
150.6662247592
 40
2.5
100
AcDbArc
 50
180.0
 51
261.7021731718
  0
CIRCLE
  5
2F9
100
AcDbEntity
  8
BEZUGSACHSEN
100
AcDbCircle
 62
7
  6
CONTINUOUS
 10
182.3075136975
 20
168.5896114365
 40
2.0
  0
ARC
  5
2FA
100
AcDbEntity
  8
BEZUGSACHSEN
100
AcDbCircle
 62
7
  6
CONTINUOUS
 10
175.4575136975
 20
120.8396114365
 40
1.0
100
AcDbArc
 50
180.0
 51
270.0
  0
ARC
  5
2FB
100
AcDbEntity
  8
BEZUGSACHSEN
100
AcDbCircle
 62
7
  6
CONTINUOUS
 10
173.4575136975
 20
133.0146114365
 40
1.0
100
AcDbArc
 50
0.0
 51
90.0
  0
ARC
  5
2FC
100
AcDbEntity
  8
BEZUGSACHSEN
100
AcDbCircle
 62
7
  6
CONTINUOUS
 10
181.0075136975
 20
122.4646114365
 40
0.5
100
AcDbArc
 50
90.0
 51
180.0
  0
ARC
  5
2FD
100
AcDbEntity
  8
0
100
AcDbCircle
 62
7
  6
CONTINUOUS
 10
-68.3129144007
 20
242.8240497639
 40
271.8875117915
100
AcDbArc
 50
335.5207043592
 51
336.2283824415
  0
ARC
  5
2FE
100
AcDbEntity
  8
BEZUGSACHSEN
100
AcDbCircle
 62
7
  6
CONTINUOUS
 10
71.9575136975
 20
186.5129981138
 40
2.5
100
AcDbArc
 50
98.2978268282
 51
180.0
  0
ARC
  5
2FF
100
AcDbEntity
  8
BEZUGSACHSEN
100
AcDbCircle
 62
7
  6
CONTINUOUS
 10
175.4575136975
 20
216.3396114365
 40
1.0
100
AcDbArc
 50
90.0
 51
180.0
  0
ARC
  5
300
100
AcDbEntity
  8
BEZUGSACHSEN
100
AcDbCircle
 62
7
  6
CONTINUOUS
 10
173.4575136975
 20
204.1646114365
 40
1.0
100
AcDbArc
 50
270.0
 51
360.0
  0
ARC
  5
301
100
AcDbEntity
  8
BEZUGSACHSEN
100
AcDbCircle
 62
7
  6
CONTINUOUS
 10
181.0075136975
 20
214.7146114365
 40
0.5
100
AcDbArc
 50
180.0
 51
270.0
  0
ARC
  5
302
100
AcDbEntity
  8
0
100
AcDbCircle
 62
7
  6
CONTINUOUS
 10
316.2213268974
 20
168.9745360166
 40
29.7026673981
100
AcDbArc
 50
84.4423887307
 51
85.5030178521
  0
ARC
  5
303
100
AcDbEntity
  8
0
100
AcDbCircle
 62
7
  6
CONTINUOUS
 10
317.3228215504
 20
168.1694985643
 40
29.5811653278
100
AcDbArc
 50
273.4401473721
 51
274.5037586496
  0
ARC
  5
304
100
AcDbEntity
  8
0
100
AcDbCircle
 62
7
  6
CONTINUOUS
 10
317.126015445
 20
159.601323812
 40
21.0516132091
100
AcDbArc
 50
276.6830085719
 51
276.8687564602
  0
ARC
  5
305
100
AcDbEntity
  8
0
100
AcDbCircle
 62
7
  6
CONTINUOUS
 10
317.8026345337
 20
178.1608422445
 40
20.4171910461
100
AcDbArc
 50
87.7067572534
 51
87.9056243319
  0
ARC
  5
306
100
AcDbEntity
  8
FASEN
100
AcDbCircle
 62
7
  6
CONTINUOUS
 10
191.9437178654
 20
166.3730037015
 40
14.0504593668
100
AcDbArc
 50
53.4682249779
 51
60.2788167675
  0
ARC
  5
307
100
AcDbEntity
  8
FASEN
100
AcDbCircle
 62
7
  6
CONTINUOUS
 10
191.9437178863
 20
170.8062191394
 40
14.0504593287
100
AcDbArc
 50
299.7211832233
 51
306.5317750313
  0
ARC
  5
308
100
AcDbEntity
  8
FASEN
100
AcDbCircle
 62
7
  6
CONTINUOUS
 10
192.0978098059
 20
167.00810315
 40
13.4508167464
100
AcDbArc
 50
46.6553423528
 51
52.3851967965
  0
ARC
  5
309
100
AcDbEntity
  8
FASEN
100
AcDbCircle
 62
7
  6
CONTINUOUS
 10
192.097809806
 20
170.171119723
 40
13.4508167464
100
AcDbArc
 50
307.6148032035
 51
313.3446576472
  0
ARC
  5
30A
100
AcDbEntity
  8
FASEN
100
AcDbCircle
 62
7
  6
CONTINUOUS
 10
191.3075136975
 20
168.5896114365
 40
12.95
100
AcDbArc
 50
320.7105480211
 51
39.2894519789
  0
ARC
  5
30B
100
AcDbEntity
  8
FASEN
100
AcDbCircle
 62
7
  6
CONTINUOUS
 10
191.3075136975
 20
168.5896114365
 40
12.549998702
100
AcDbArc
 50
307.2826892422
 51
52.7173107578
  0
CIRCLE
  5
30C
100
AcDbEntity
  8
0
100
AcDbCircle
 62
2
  6
CONTINUOUS
 10
260.9575136961
 20
168.5896114365
 40
2.9999999985
  0
CIRCLE
  5
30D
100
AcDbEntity
  8
GEWINDE
100
AcDbCircle
 62
7
  6
CONTINUOUS
 10
260.9575136975
 20
168.5896114365
 40
2.5
  0
ARC
  5
30E
100
AcDbEntity
  8
BEZUGSACHSEN
100
AcDbCircle
 62
7
  6
CONTINUOUS
 10
330.2075136975
 20
140.5140019282
 40
1.0
100
AcDbArc
 50
274.5
 51
360.0
  0
ARC
  5
30F
100
AcDbEntity
  8
BEZUGSACHSEN
100
AcDbCircle
 62
7
  6
CONTINUOUS
 10
191.3075136975
 20
128.5896114365
 40
1.0
100
AcDbArc
 50
90.0
 51
180.0
  0
ARC
  5
310
100
AcDbEntity
  8
BEZUGSACHSEN
100
AcDbCircle
 62
7
  6
CONTINUOUS
 10
264.730816539
 20
133.0896114365
 40
1.0
100
AcDbArc
 50
270.0
 51
330.0
  0
ARC
  5
311
100
AcDbEntity
  8
BEZUGSACHSEN
100
AcDbCircle
 62
7
  6
CONTINUOUS
 10
267.3104763756
 20
133.5577133397
 40
1.0
100
AcDbArc
 50
94.5
 51
150.0
  0
ARC
  5
312
100
AcDbEntity
  8
BEZUGSACHSEN
100
AcDbCircle
 62
7
  6
CONTINUOUS
 10
189.3075136975
 20
120.8396114365
 40
1.0
100
AcDbArc
 50
270.0
 51
360.0
  0
ARC
  5
313
100
AcDbEntity
  8
BEZUGSACHSEN
100
AcDbCircle
 62
7
  6
CONTINUOUS
 10
255.6611740908
 20
131.8772980757
 40
0.8
100
AcDbArc
 50
271.5392138084
 51
330.0
  0
ARC
  5
314
100
AcDbEntity
  8
BEZUGSACHSEN
100
AcDbCircle
 62
7
  6
CONTINUOUS
 10
257.1693939129
 20
131.2896114365
 40
0.8
100
AcDbArc
 50
90.0
 51
150.0
  0
ARC
  5
315
100
AcDbEntity
  8
0
100
AcDbCircle
 62
2
  6
CONTINUOUS
 10
258.7096424041
 20
136.9796752541
 40
0.7521287066
100
AcDbArc
 50
178.5842885814
 51
179.9993186408
  0
ARC
  5
316
100
AcDbEntity
  8
0
100
AcDbCircle
 62
2
  6
CONTINUOUS
 10
263.2054281723
 20
136.9796756046
 40
0.7520855253
100
AcDbArc
 50
0.0006546937
 51
1.3889126905
  0
ARC
  5
317
100
AcDbEntity
  8
0
100
AcDbCircle
 62
2
  6
CONTINUOUS
 10
258.7057212403
 20
136.9796771232
 40
0.7482075428
100
AcDbArc
 50
179.999458202
 51
181.3925075545
  0
ARC
  5
318
100
AcDbEntity
  8
0
100
AcDbCircle
 62
2
  6
CONTINUOUS
 10
263.2093378999
 20
136.9796768624
 40
0.7481757977
100
AcDbArc
 50
358.5805534886
 51
0.0005617919
  0
ARC
  5
319
100
AcDbEntity
  8
BEZUGSACHSEN
100
AcDbCircle
 62
7
  6
CONTINUOUS
 10
183.7575136975
 20
122.4646114365
 40
0.5
100
AcDbArc
 50
0.0
 51
90.0
  0
ARC
  5
31A
100
AcDbEntity
  8
0
100
AcDbCircle
 62
7
  6
CONTINUOUS
 10
433.0779417968
 20
242.8240497643
 40
271.8875117926
100
AcDbArc
 50
203.7716175585
 51
204.4792956408
  0
ARC
  5
31B
100
AcDbEntity
  8
BEZUGSACHSEN
100
AcDbCircle
 62
7
  6
CONTINUOUS
 10
330.2075136975
 20
196.6652209448
 40
1.0
100
AcDbArc
 50
0.0
 51
85.5
  0
ARC
  5
31C
100
AcDbEntity
  8
BEZUGSACHSEN
100
AcDbCircle
 62
7
  6
CONTINUOUS
 10
191.3075136975
 20
208.5896114365
 40
1.0
100
AcDbArc
 50
180.0
 51
270.0
  0
ARC
  5
31D
100
AcDbEntity
  8
BEZUGSACHSEN
100
AcDbCircle
 62
7
  6
CONTINUOUS
 10
264.730816539
 20
204.0896114365
 40
1.0
100
AcDbArc
 50
30.0
 51
90.0
  0
ARC
  5
31E
100
AcDbEntity
  8
BEZUGSACHSEN
100
AcDbCircle
 62
7
  6
CONTINUOUS
 10
267.3104763756
 20
203.6215095333
 40
1.0
100
AcDbArc
 50
210.0
 51
265.5
  0
ARC
  5
31F
100
AcDbEntity
  8
BEZUGSACHSEN
100
AcDbCircle
 62
7
  6
CONTINUOUS
 10
189.3075136975
 20
216.3396114365
 40
1.0
100
AcDbArc
 50
0.0
 51
90.0
  0
ARC
  5
320
100
AcDbEntity
  8
BEZUGSACHSEN
100
AcDbCircle
 62
7
  6
CONTINUOUS
 10
255.6611740908
 20
205.3019247973
 40
0.8
100
AcDbArc
 50
30.0
 51
88.4607861916
  0
ARC
  5
321
100
AcDbEntity
  8
BEZUGSACHSEN
100
AcDbCircle
 62
7
  6
CONTINUOUS
 10
257.1693939129
 20
205.8896114365
 40
0.8
100
AcDbArc
 50
210.0
 51
270.0
  0
ARC
  5
322
100
AcDbEntity
  8
0
100
AcDbCircle
 62
2
  6
CONTINUOUS
 10
263.2053849913
 20
200.1995476189
 40
0.7521287063
100
AcDbArc
 50
358.584288581
 51
359.9993186409
  0
ARC
  5
323
100
AcDbEntity
  8
0
100
AcDbCircle
 62
2
  6
CONTINUOUS
 10
258.7095992228
 20
200.1995472684
 40
0.7520855253
100
AcDbArc
 50
180.0006546937
 51
181.3889126905
  0
ARC
  5
324
100
AcDbEntity
  8
0
100
AcDbCircle
 62
2
  6
CONTINUOUS
 10
263.2093061548
 20
200.1995457498
 40
0.7482075428
100
AcDbArc
 50
359.999458202
 51
1.3925075545
  0
ARC
  5
325
100
AcDbEntity
  8
0
100
AcDbCircle
 62
2
  6
CONTINUOUS
 10
258.7056894946
 20
200.1995460106
 40
0.7481757971
100
AcDbArc
 50
178.580553488
 51
180.0005617925
  0
ARC
  5
326
100
AcDbEntity
  8
BEZUGSACHSEN
100
AcDbCircle
 62
7
  6
CONTINUOUS
 10
183.7575136975
 20
214.7146114365
 40
0.5
100
AcDbArc
 50
270.0
 51
360.0
  0
SPLINE
  5
327
100
AcDbEntity
  8
0
100
AcDbSpline
 62
2
  6
CONTINUOUS
 70
0
 71
3
 72
31
 73
27
 74
0
 42
0.0000001
 43
0.0000001
 44
0.0000000001
 40
0.0
 40
0.0
 40
0.0
 40
0.0
 40
0.0416666667
 40
0.0833333333
 40
0.125
 40
0.1666666667
 40
0.2083333333
 40
0.25
 40
0.2916666667
 40
0.3333333333
 40
0.375
 40
0.4166666667
 40
0.4583333333
 40
0.5
 40
0.5416666667
 40
0.5833333333
 40
0.625
 40
0.6666666667
 40
0.7083333333
 40
0.75
 40
0.7916666667
 40
0.8333333333
 40
0.875
 40
0.9166666667
 40
0.9583333333
 40
1.0
 40
1.0
 40
1.0
 40
1.0
 10
257.957734661
 20
136.9614945956
 30
0.0
 10
257.9592879051
 20
136.8976211894
 30
0.0
 10
257.9787837796
 20
136.7711018457
 30
0.0
 10
258.0569606114
 20
136.5878695254
 30
0.0
 10
258.1826167539
 20
136.4144117245
 30
0.0
 10
258.3534867146
 20
136.2531480766
 30
0.0
 10
258.5669894772
 20
136.1057569186
 30
0.0
 10
258.8231941393
 20
135.9726086728
 30
0.0
 10
259.1160958421
 20
135.857165089
 30
0.0
 10
259.4383231255
 20
135.7613134102
 30
0.0
 10
259.7883465949
 20
135.6847810613
 30
0.0
 10
260.1666311272
 20
135.6281971749
 30
0.0
 10
260.5606620084
 20
135.5941009015
 30
0.0
 10
260.957265202
 20
135.5829094692
 30
0.0
 10
261.353900967
 20
135.5940735668
 30
0.0
 10
261.7479689412
 20
135.6281474288
 30
0.0
 10
262.126203521
 20
135.6846962504
 30
0.0
 10
262.4761617124
 20
135.7611760223
 30
0.0
 10
262.7984272461
 20
135.8569915128
 30
0.0
 10
263.0913993387
 20
135.9724124633
 30
0.0
 10
263.3476365814
 20
136.1055199261
 30
0.0
 10
263.5611740087
 20
136.2528551216
 30
0.0
 10
263.7321371774
 20
136.4141018059
 30
0.0
 10
263.857880869
 20
136.5875441978
 30
0.0
 10
263.9361463048
 20
136.770764024
 30
0.0
 10
263.9557009073
 20
136.8972744283
 30
0.0
 10
263.9572841122
 20
136.9611434398
 30
0.0
  0
SPLINE
  5
328
100
AcDbEntity
  8
0
100
AcDbSpline
 62
2
  6
CONTINUOUS
 70
0
 71
3
 72
31
 73
27
 74
0
 42
0.0000001
 43
0.0000001
 44
0.0000000001
 40
0.0
 40
0.0
 40
0.0
 40
0.0
 40
0.0416666667
 40
0.0833333333
 40
0.125
 40
0.1666666667
 40
0.2083333333
 40
0.25
 40
0.2916666667
 40
0.3333333333
 40
0.375
 40
0.4166666667
 40
0.4583333333
 40
0.5
 40
0.5416666667
 40
0.5833333333
 40
0.625
 40
0.6666666667
 40
0.7083333333
 40
0.75
 40
0.7916666667
 40
0.8333333333
 40
0.875
 40
0.9166666667
 40
0.9583333333
 40
1.0
 40
1.0
 40
1.0
 40
1.0
 10
263.9572927341
 20
136.9979051991
 30
0.0
 10
263.95573949
 20
137.0619997096
 30
0.0
 10
263.9362436155
 20
137.1913036186
 30
0.0
 10
263.8580667837
 20
137.3855021592
 30
0.0
 10
263.7324106412
 20
137.5759792238
 30
0.0
 10
263.5615406805
 20
137.7591814319
 30
0.0
 10
263.3480379179
 20
137.9320452921
 30
0.0
 10
263.0918332558
 20
138.0929047016
 30
0.0
 10
262.798931553
 20
138.2361819768
 30
0.0
 10
262.4767042696
 20
138.357926958
 30
0.0
 10
262.1266808002
 20
138.4570099418
 30
0.0
 10
261.7483962679
 20
138.5313824158
 30
0.0
 10
261.3543653867
 20
138.5766687518
 30
0.0
 10
260.9577621931
 20
138.5916095861
 30
0.0
 10
260.5611264281
 20
138.5767051896
 30
0.0
 10
260.1670584539
 20
138.5314482274
 30
0.0
 10
259.7888238741
 20
138.4571208354
 30
0.0
 10
259.4388656826
 20
138.3581034612
 30
0.0
 10
259.1166001489
 20
138.2364000663
 30
0.0
 10
258.8236280564
 20
138.0931451605
 30
0.0
 10
258.5673908137
 20
137.932327943
 30
0.0
 10
258.3538533864
 20
137.7595199345
 30
0.0
 10
258.1828902177
 20
137.576325401
 30
0.0
 10
258.057146526
 20
137.3858532149
 30
0.0
 10
257.9788810902
 20
137.191655274
 30
0.0
 10
257.9593264878
 20
137.0623519601
 30
0.0
 10
257.9577432829
 20
136.9982575801
 30
0.0
  0
SPLINE
  5
329
100
AcDbEntity
  8
0
100
AcDbSpline
 62
2
  6
CONTINUOUS
 70
0
 71
3
 72
31
 73
27
 74
0
 42
0.0000001
 43
0.0000001
 44
0.0000000001
 40
0.0
 40
0.0
 40
0.0
 40
0.0
 40
0.0416666667
 40
0.0833333333
 40
0.125
 40
0.1666666667
 40
0.2083333333
 40
0.25
 40
0.2916666667
 40
0.3333333333
 40
0.375
 40
0.4166666667
 40
0.4583333333
 40
0.5
 40
0.5416666667
 40
0.5833333333
 40
0.625
 40
0.6666666667
 40
0.7083333333
 40
0.75
 40
0.7916666667
 40
0.8333333333
 40
0.875
 40
0.9166666667
 40
0.9583333333
 40
1.0
 40
1.0
 40
1.0
 40
1.0
 10
257.957734661
 20
200.1813176738
 30
0.0
 10
257.9592879051
 20
200.1172231634
 30
0.0
 10
257.9787837796
 20
199.9879192544
 30
0.0
 10
258.0569606114
 20
199.7937207138
 30
0.0
 10
258.1826167539
 20
199.6032436492
 30
0.0
 10
258.3534867146
 20
199.4200414411
 30
0.0
 10
258.5669894772
 20
199.2471775809
 30
0.0
 10
258.8231941393
 20
199.0863181713
 30
0.0
 10
259.1160958421
 20
198.9430408962
 30
0.0
 10
259.4383231255
 20
198.821295915
 30
0.0
 10
259.7883465949
 20
198.7222129312
 30
0.0
 10
260.1666311272
 20
198.6478404572
 30
0.0
 10
260.5606620084
 20
198.6025541211
 30
0.0
 10
260.957265202
 20
198.5876132869
 30
0.0
 10
261.353900967
 20
198.6025176834
 30
0.0
 10
261.7479689412
 20
198.6477746456
 30
0.0
 10
262.126203521
 20
198.7221020375
 30
0.0
 10
262.4761617124
 20
198.8211194118
 30
0.0
 10
262.7984272461
 20
198.9428228067
 30
0.0
 10
263.0913993387
 20
199.0860777125
 30
0.0
 10
263.3476365814
 20
199.24689493
 30
0.0
 10
263.5611740087
 20
199.4197029385
 30
0.0
 10
263.7321371774
 20
199.602897472
 30
0.0
 10
263.857880869
 20
199.7933696581
 30
0.0
 10
263.9361463048
 20
199.987567599
 30
0.0
 10
263.9557009073
 20
200.1168709129
 30
0.0
 10
263.9572841122
 20
200.1809652929
 30
0.0
  0
SPLINE
  5
32A
100
AcDbEntity
  8
0
100
AcDbSpline
 62
2
  6
CONTINUOUS
 70
0
 71
3
 72
31
 73
27
 74
0
 42
0.0000001
 43
0.0000001
 44
0.0000000001
 40
0.0
 40
0.0
 40
0.0
 40
0.0
 40
0.0416666667
 40
0.0833333333
 40
0.125
 40
0.1666666667
 40
0.2083333333
 40
0.25
 40
0.2916666667
 40
0.3333333333
 40
0.375
 40
0.4166666667
 40
0.4583333333
 40
0.5
 40
0.5416666667
 40
0.5833333333
 40
0.625
 40
0.6666666667
 40
0.7083333333
 40
0.75
 40
0.7916666667
 40
0.8333333333
 40
0.875
 40
0.9166666667
 40
0.9583333333
 40
1.0
 40
1.0
 40
1.0
 40
1.0
 10
263.9572927341
 20
200.2177282773
 30
0.0
 10
263.95573949
 20
200.2816016836
 30
0.0
 10
263.9362436155
 20
200.4081210272
 30
0.0
 10
263.8580667837
 20
200.5913533476
 30
0.0
 10
263.7324106412
 20
200.7648111485
 30
0.0
 10
263.5615406805
 20
200.9260747964
 30
0.0
 10
263.3480379179
 20
201.0734659544
 30
0.0
 10
263.0918332558
 20
201.2066142002
 30
0.0
 10
262.798931553
 20
201.322057784
 30
0.0
 10
262.4767042696
 20
201.4179094628
 30
0.0
 10
262.1266808002
 20
201.4944418117
 30
0.0
 10
261.7483962679
 20
201.5510256981
 30
0.0
 10
261.3543653867
 20
201.5851219715
 30
0.0
 10
260.9577621931
 20
201.5963134038
 30
0.0
 10
260.5611264281
 20
201.5851493062
 30
0.0
 10
260.1670584539
 20
201.5510754442
 30
0.0
 10
259.7888238741
 20
201.4945266226
 30
0.0
 10
259.4388656826
 20
201.4180468507
 30
0.0
 10
259.1166001489
 20
201.3222313602
 30
0.0
 10
258.8236280564
 20
201.2068104097
 30
0.0
 10
258.5673908137
 20
201.0737029469
 30
0.0
 10
258.3538533864
 20
200.9263677514
 30
0.0
 10
258.1828902177
 20
200.7651210671
 30
0.0
 10
258.057146526
 20
200.5916786751
 30
0.0
 10
257.9788810902
 20
200.408458849
 30
0.0
 10
257.9593264878
 20
200.2819484447
 30
0.0
 10
257.9577432829
 20
200.2180794332
 30
0.0
  0
LINE
  5
32B
100
AcDbEntity
  8
0
100
AcDbLine
 62
2
  6
CONTINUOUS
 10
331.2075136975
 20
154.4292065005
 11
331.2075136975
 21
154.6414510184
  0
SPLINE
  5
32C
100
AcDbEntity
  8
BEZUGSACHSEN
100
AcDbSpline
 62
7
  6
CONTINUOUS
 70
0
 71
3
 72
12
 73
8
 74
0
 42
0.0000001
 43
0.0000001
 44
0.0000000001
 40
0.0
 40
0.0
 40
0.0
 40
0.0
 40
0.2285589907
 40
0.464792377
 40
0.7163327566
 40
0.8543262108
 40
1.0
 40
1.0
 40
1.0
 40
1.0
 10
181.0075136975
 20
210.9446200379
 30
0.0
 10
180.9397302843
 20
210.9684889054
 30
0.0
 10
180.8117841221
 20
211.0466435007
 30
0.0
 10
180.6617823425
 20
211.2175125228
 30
0.0
 10
180.5700094984
 20
211.3939440219
 30
0.0
 10
180.520448162
 20
211.5549982926
 30
0.0
 10
180.5075136975
 20
211.6441607953
 30
0.0
 10
180.5075136975
 20
211.6899633208
 30
0.0
  0
SPLINE
  5
32D
100
AcDbEntity
  8
BEZUGSACHSEN
100
AcDbSpline
 62
7
  6
CONTINUOUS
 70
0
 71
3
 72
13
 73
9
 74
0
 42
0.0000001
 43
0.0000001
 44
0.0000000001
 40
0.0
 40
0.0
 40
0.0
 40
0.0
 40
0.1112941313
 40
0.234175102
 40
0.4999999999
 40
0.765824894
 40
0.8887058669
 40
1.0
 40
1.0
 40
1.0
 40
1.0
 10
183.7575136975
 20
210.9446200379
 30
0.0
 10
183.6598328465
 20
210.9102232558
 30
0.0
 10
183.4499230444
 20
210.8500597529
 30
0.0
 10
182.9924664307
 20
210.7628101076
 30
0.0
 10
182.3825137013
 20
210.7207571033
 30
0.0
 10
181.7725609701
 20
210.7628101077
 30
0.0
 10
181.3151043558
 20
210.8500597512
 30
0.0
 10
181.1051945502
 20
210.9102232552
 30
0.0
 10
181.0075136975
 20
210.9446200379
 30
0.0
  0
SPLINE
  5
32E
100
AcDbEntity
  8
BEZUGSACHSEN
100
AcDbSpline
 62
7
  6
CONTINUOUS
 70
0
 71
3
 72
11
 73
7
 74
0
 42
0.0000001
 43
0.0000001
 44
0.0000000001
 40
0.0
 40
0.0
 40
0.0
 40
0.0
 40
0.3179775427
 40
0.5986030959
 40
0.8295300049
 40
1.0
 40
1.0
 40
1.0
 40
1.0
 10
180.5075136975
 20
211.922653112
 30
0.0
 10
180.4897366716
 20
211.9686459646
 30
0.0
 10
180.4574654268
 20
212.0556881597
 30
0.0
 10
180.4176671612
 20
212.1781203637
 30
0.0
 10
180.3915311613
 20
212.2805755222
 30
0.0
 10
180.3825136975
 20
212.3426115989
 30
0.0
 10
180.3825136975
 20
212.3690464333
 30
0.0
  0
SPLINE
  5
32F
100
AcDbEntity
  8
0
100
AcDbSpline
 62
7
  6
CONTINUOUS
 70
0
 71
3
 72
16
 73
12
 74
0
 42
0.0000001
 43
0.0000001
 44
0.0000000001
 40
0.0
 40
0.0
 40
0.0
 40
0.0
 40
0.1296172136
 40
0.2637308138
 40
0.3995974471
 40
0.5348373855
 40
0.6668230576
 40
0.7922101985
 40
0.9060172595
 40
0.9561377318
 40
1.0
 40
1.0
 40
1.0
 40
1.0
 10
318.2760359588
 20
140.0037442805
 30
0.0
 10
318.4290130094
 20
139.9593625459
 30
0.0
 10
318.743289214
 20
139.879448371
 30
0.0
 10
319.2236141702
 20
139.7770833385
 30
0.0
 10
319.7130997032
 20
139.6853526189
 30
0.0
 10
320.2012660044
 20
139.6012420091
 30
0.0
 10
320.677201943
 20
139.5220369393
 30
0.0
 10
321.1268396091
 20
139.4453804392
 30
0.0
 10
321.4764209989
 20
139.3801650633
 30
0.0
 10
321.725650496
 20
139.3244913539
 30
0.0
 10
321.8374252363
 20
139.2951695978
 30
0.0
 10
321.8890554432
 20
139.2796864912
 30
0.0
  0
SPLINE
  5
330
100
AcDbEntity
  8
0
100
AcDbSpline
 62
7
  6
CONTINUOUS
 70
0
 71
3
 72
16
 73
12
 74
0
 42
0.0000001
 43
0.0000001
 44
0.0000000001
 40
0.0
 40
0.0
 40
0.0
 40
0.0
 40
0.1298831053
 40
0.2646809508
 40
0.4012644215
 40
0.5371018033
 40
0.6695014289
 40
0.7949382859
 40
0.9080646499
 40
0.9573809281
 40
1.0
 40
1.0
 40
1.0
 40
1.0
 10
320.060788192
 20
196.9886585555
 30
0.0
 10
319.9026392248
 20
197.0619612863
 30
0.0
 10
319.5748379834
 20
197.1994225483
 30
0.0
 10
319.069923438
 20
197.3868445711
 30
0.0
 10
318.552920983
 20
197.5641283012
 30
0.0
 10
318.0365222683
 20
197.7329611184
 30
0.0
 10
317.5334671235
 20
197.8944522891
 30
0.0
 10
317.0601845579
 20
198.048877129
 30
0.0
 10
316.6948615106
 20
198.1749020738
 30
0.0
 10
316.4382525643
 20
198.2744180759
 30
0.0
 10
316.3249869531
 20
198.3235500937
 30
0.0
 10
316.2734319675
 20
198.348321652
 30
0.0
  0
SPLINE
  5
331
100
AcDbEntity
  8
BEZUGSACHSEN
100
AcDbSpline
 62
7
  6
CONTINUOUS
 70
0
 71
3
 72
19
 73
15
 74
0
 42
0.0000001
 43
0.0000001
 44
0.0000000001
 40
0.0
 40
0.0
 40
0.0
 40
0.0
 40
0.0491057732
 40
0.1017974132
 40
0.1593650792
 40
0.2221228123
 40
0.3605458985
 40
0.5088370576
 40
0.655008067
 40
0.7877492795
 40
0.8470625075
 40
0.9014154816
 40
0.951764503
 40
1.0
 40
1.0
 40
1.0
 40
1.0
 10
278.7575136975
 20
143.2121642645
 30
0.0
 10
278.7575136975
 20
143.2744423037
 30
0.0
 10
278.7781592238
 20
143.4041468563
 30
0.0
 10
278.864511132
 20
143.5891576781
 30
0.0
 10
279.0015666927
 20
143.7626713108
 30
0.0
 10
279.2521343331
 20
143.9770772319
 30
0.0
 10
279.6567831778
 20
144.1751882622
 30
0.0
 10
280.2016320196
 20
144.2796953049
 30
0.0
 10
280.748184414
 20
144.2439473458
 30
0.0
 10
281.1594631164
 20
144.094564982
 30
0.0
 10
281.4130918568
 20
143.9085729821
 30
0.0
 10
281.5512025952
 20
143.7503072654
 30
0.0
 10
281.637768166
 20
143.5739930465
 30
0.0
 10
281.6575136975
 20
143.4481766972
 30
0.0
 10
281.6575136975
 20
143.3870023795
 30
0.0
  0
SPLINE
  5
332
100
AcDbEntity
  8
GEWINDE
100
AcDbSpline
 62
7
  6
CONTINUOUS
 70
0
 71
3
 72
23
 73
19
 74
0
 42
0.0000001
 43
0.0000001
 44
0.0000000001
 40
0.0
 40
0.0
 40
0.0
 40
0.0
 40
0.0410939487
 40
0.0870621514
 40
0.1401329323
 40
0.2008693984
 40
0.2687049778
 40
0.3423631723
 40
0.4201248688
 40
0.5000002616
 40
0.5798756763
 40
0.6576372192
 40
0.7312951605
 40
0.7991306812
 40
0.8598670656
 40
0.9129378362
 40
0.9589060606
 40
1.0
 40
1.0
 40
1.0
 40
1.0
 10
263.4575137312
 20
200.1995384228
 30
0.0
 10
263.4575137312
 20
200.1157434538
 30
0.0
 10
263.4200648554
 20
199.9371301461
 30
0.0
 10
263.2679709206
 20
199.6905346345
 30
0.0
 10
263.0307104035
 20
199.4634194192
 30
0.0
 10
262.7172874555
 20
199.2626931393
 30
0.0
 10
262.338642046
 20
199.0959268289
 30
0.0
 10
261.9082857143
 20
198.9706213002
 30
0.0
 10
261.4420767269
 20
198.8928160911
 30
0.0
 10
260.957512021
 20
198.8664355441
 30
0.0
 10
260.4729476595
 20
198.8928165063
 30
0.0
 10
260.0067394785
 20
198.9706217691
 30
0.0
 10
259.5763841477
 20
199.0959273179
 30
0.0
 10
259.1977395123
 20
199.2626933762
 30
0.0
 10
258.8843168549
 20
199.4634195361
 30
0.0
 10
258.6470564613
 20
199.6905346619
 30
0.0
 10
258.4949625037
 20
199.9371301766
 30
0.0
 10
258.4575136698
 20
200.1157435167
 30
0.0
 10
258.4575136698
 20
200.1995384669
 30
0.0
  0
SPLINE
  5
333
100
AcDbEntity
  8
BEZUGSACHSEN
100
AcDbSpline
 62
7
  6
CONTINUOUS
 70
0
 71
3
 72
26
 73
22
 74
0
 42
0.0000001
 43
0.0000001
 44
0.0000000001
 40
0.0
 40
0.0
 40
0.0
 40
0.0
 40
0.0149738342
 40
0.0308634345
 40
0.0485104579
 40
0.0684887224
 40
0.1164457472
 40
0.1754750544
 40
0.2446021053
 40
0.3219848412
 40
0.4052619154
 40
0.4917666814
 40
0.5786785096
 40
0.6631697654
 40
0.7425413661
 40
0.8143426869
 40
0.8765402682
 40
0.92780557
 40
0.9492948968
 40
0.9682088071
 40
1.0
 40
1.0
 40
1.0
 40
1.0
 10
281.6575136975
 20
199.5051881607
 30
0.0
 10
281.6575136975
 20
199.4888698013
 30
0.0
 10
281.6524848986
 20
199.4550565637
 30
0.0
 10
281.6303749689
 20
199.4064322193
 30
0.0
 10
281.5944972351
 20
199.3599323171
 30
0.0
 10
281.5248646139
 20
199.2973132464
 30
0.0
 10
281.4033251033
 20
199.2283865291
 30
0.0
 10
281.2222609627
 20
199.1632996253
 30
0.0
 10
281.0032391155
 20
199.1140535863
 30
0.0
 10
280.7543966766
 20
199.0832738119
 30
0.0
 10
280.4849545386
 20
199.072732956
 30
0.0
 10
280.2051488439
 20
199.0832334948
 30
0.0
 10
279.9255685526
 20
199.1144876967
 30
0.0
 10
279.6567317753
 20
199.1651365183
 30
0.0
 10
279.4086860225
 20
199.2328462517
 30
0.0
 10
279.190494356
 20
199.3144593821
 30
0.0
 10
279.010186686
 20
199.4062819145
 30
0.0
 10
278.889778713
 20
199.4925156024
 30
0.0
 10
278.8205764452
 20
199.5651462392
 30
0.0
 10
278.7755349411
 20
199.6296598186
 30
0.0
 10
278.7575136975
 20
199.6850130823
 30
0.0
 10
278.7575136975
 20
199.7196588588
 30
0.0
  0
SPLINE
  5
334
100
AcDbEntity
  8
0
100
AcDbSpline
 62
7
  6
CONTINUOUS
 70
0
 71
3
 72
9
 73
5
 74
0
 42
0.0000001
 43
0.0000001
 44
0.0000000001
 40
0.0
 40
0.0
 40
0.0
 40
0.0
 40
0.2531327905
 40
1.0
 40
1.0
 40
1.0
 40
1.0
 10
318.5502116589
 20
138.5934601623
 30
0.0
 10
318.6368979084
 20
138.6002825181
 30
0.0
 10
318.9792301094
 20
138.6287226576
 30
0.0
 10
319.3211076471
 20
138.662890762
 30
0.0
 10
319.575922213
 20
138.6927519924
 30
0.0
  0
SPLINE
  5
335
100
AcDbEntity
  8
0
100
AcDbSpline
 62
7
  6
CONTINUOUS
 70
0
 71
3
 72
12
 73
8
 74
0
 42
0.0000001
 43
0.0000001
 44
0.0000000001
 40
0.0
 40
0.0
 40
0.0
 40
0.0
 40
0.3058890953
 40
0.5864788486
 40
0.825512551
 40
0.9224212091
 40
1.0
 40
1.0
 40
1.0
 40
1.0
 10
319.6436929748
 20
138.7008042356
 30
0.0
 10
319.7799337417
 20
138.7172179482
 30
0.0
 10
320.040878328
 20
138.7512225052
 30
0.0
 10
320.4065728492
 20
138.8095985211
 30
0.0
 10
320.6778981749
 20
138.8649845968
 30
0.0
 10
320.8562899377
 20
138.916012257
 30
0.0
 10
320.9298137671
 20
138.9436143151
 30
0.0
 10
320.9611259841
 20
138.9588059453
 30
0.0
  0
SPLINE
  5
336
100
AcDbEntity
  8
GEWINDE
100
AcDbSpline
 62
7
  6
CONTINUOUS
 70
0
 71
3
 72
23
 73
19
 74
0
 42
0.0000001
 43
0.0000001
 44
0.0000000001
 40
0.0
 40
0.0
 40
0.0
 40
0.0
 40
0.0410939383
 40
0.0870621592
 40
0.1401329262
 40
0.200869308
 40
0.2687048277
 40
0.3423627694
 40
0.4201243141
 40
0.4999997313
 40
0.579875127
 40
0.6576368263
 40
0.7312950231
 40
0.7991306038
 40
0.8598670701
 40
0.9129378501
 40
0.9589060516
 40
1.0
 40
1.0
 40
1.0
 40
1.0
 10
263.4575137356
 20
136.9796841703
 30
0.0
 10
263.4575137356
 20
137.0634791233
 30
0.0
 10
263.4200649989
 20
137.2420924783
 30
0.0
 10
263.2679710799
 20
137.4886880327
 30
0.0
 10
263.0307107255
 20
137.7158031968
 30
0.0
 10
262.7172880792
 20
137.9165293944
 30
0.0
 10
262.3386434381
 20
138.0832954881
 30
0.0
 10
261.9082880842
 20
138.2086010676
 30
0.0
 10
261.4420798672
 20
138.286406354
 30
0.0
 10
260.9575154612
 20
138.3127873306
 30
0.0
 10
260.4729507074
 20
138.286406788
 30
0.0
 10
260.0067416743
 20
138.2086015731
 30
0.0
 10
259.5763853038
 20
138.0832960297
 30
0.0
 10
259.1977398675
 20
137.9165296973
 30
0.0
 10
258.8843169054
 20
137.7158033906
 30
0.0
 10
258.6470563978
 20
137.4886881448
 30
0.0
 10
258.4949624723
 20
137.2420926011
 30
0.0
 10
258.4575136615
 20
137.0634792756
 30
0.0
 10
258.4575136615
 20
136.9796843019
 30
0.0
  0
SPLINE
  5
337
100
AcDbEntity
  8
0
100
AcDbSpline
 62
7
  6
CONTINUOUS
 70
0
 71
3
 72
9
 73
5
 74
0
 42
0.0000001
 43
0.0000001
 44
0.0000000001
 40
0.0
 40
0.0
 40
0.0
 40
0.0
 40
0.2539212893
 40
1.0
 40
1.0
 40
1.0
 40
1.0
 10
319.645667594
 20
198.4995484589
 30
0.0
 10
319.5589277214
 20
198.5063750349
 30
0.0
 10
319.2172141414
 20
198.5317765314
 30
0.0
 10
318.8750520824
 20
198.5514566291
 30
0.0
 10
318.6196070146
 20
198.5616815944
 30
0.0
  0
SPLINE
  5
338
100
AcDbEntity
  8
0
100
AcDbSpline
 62
7
  6
CONTINUOUS
 70
0
 71
3
 72
12
 73
8
 74
0
 42
0.0000001
 43
0.0000001
 44
0.0000000001
 40
0.0
 40
0.0
 40
0.0
 40
0.0
 40
0.3073634831
 40
0.5880283637
 40
0.8260981524
 40
0.922559045
 40
1.0
 40
1.0
 40
1.0
 40
1.0
 10
318.5487932625
 20
198.5643943217
 30
0.0
 10
318.4149815496
 20
198.5692854154
 30
0.0
 10
318.1588547207
 20
198.5761445041
 30
0.0
 10
317.7989783392
 20
198.5753141161
 30
0.0
 10
317.5309317428
 20
198.5629230222
 30
0.0
 10
317.3527907339
 20
198.5407833665
 30
0.0
 10
317.2783658131
 20
198.5253918469
 30
0.0
 10
317.2460811081
 20
198.5156009245
 30
0.0
  0
SPLINE
  5
339
100
AcDbEntity
  8
BEZUGSACHSEN
100
AcDbSpline
 62
7
  6
CONTINUOUS
 70
0
 71
3
 72
11
 73
7
 74
0
 42
0.0000001
 43
0.0000001
 44
0.0000000001
 40
0.0
 40
0.0
 40
0.0
 40
0.0
 40
0.170469925
 40
0.40139684
 40
0.6820224314
 40
1.0
 40
1.0
 40
1.0
 40
1.0
 10
184.3825136975
 20
212.3690464333
 30
0.0
 10
184.3825136975
 20
212.3426116098
 30
0.0
 10
184.3734962356
 20
212.2805755431
 30
0.0
 10
184.3473602422
 20
212.1781203871
 30
0.0
 10
184.3075619727
 20
212.0556881729
 30
0.0
 10
184.2752907249
 20
211.9686459684
 30
0.0
 10
184.2575136975
 20
211.922653112
 30
0.0
  0
SPLINE
  5
33A
100
AcDbEntity
  8
BEZUGSACHSEN
100
AcDbSpline
 62
7
  6
CONTINUOUS
 70
0
 71
3
 72
12
 73
8
 74
0
 42
0.0000001
 43
0.0000001
 44
0.0000000001
 40
0.0
 40
0.0
 40
0.0
 40
0.0
 40
0.1456716826
 40
0.283665259
 40
0.5352057812
 40
0.7714390827
 40
1.0
 40
1.0
 40
1.0
 40
1.0
 10
184.2575136975
 20
211.6899633208
 30
0.0
 10
184.2575136975
 20
211.6441614578
 30
0.0
 10
184.2445793988
 20
211.5549995909
 30
0.0
 10
184.1950186414
 20
211.3939457409
 30
0.0
 10
184.1032459988
 20
211.2175140852
 30
0.0
 10
183.9532443725
 20
211.0466441059
 30
0.0
 10
183.8252976819
 20
210.9684891065
 30
0.0
 10
183.7575136975
 20
210.9446200379
 30
0.0
  0
SPLINE
  5
33B
100
AcDbEntity
  8
0
100
AcDbSpline
 62
7
  6
CONTINUOUS
 70
0
 71
3
 72
107
 73
103
 74
0
 42
0.0000001
 43
0.0000001
 44
0.0000000001
 40
0.0
 40
0.0
 40
0.0
 40
0.0
 40
0.0012380283
 40
0.0021741696
 40
0.0028727488
 40
0.0035189901
 40
0.0043361621
 40
0.0054354332
 40
0.006844099
 40
0.0085489049
 40
0.0105232465
 40
0.0127351973
 40
0.0177488575
 40
0.0233844174
 40
0.0294746309
 40
0.0358900312
 40
0.0425405026
 40
0.0562784528
 40
0.0702481319
 40
0.0840920795
 40
0.0974240284
 40
0.1037402108
 40
0.1067764897
 40
0.1097134705
 40
0.1152335763
 40
0.1201865301
 40
0.1245160387
 40
0.1283287266
 40
0.1301705114
 40
0.1320596509
 40
0.1362142205
 40
0.1411071692
 40
0.1467446018
 40
0.1529995067
 40
0.1597353787
 40
0.1668383803
 40
0.1742125261
 40
0.1895032474
 40
0.2052067051
 40
0.2210453849
 40
0.2367720941
 40
0.2520824844
 40
0.2594611315
 40
0.2665731271
 40
0.2733501006
 40
0.279751437
 40
0.2858265328
 40
0.29175601
 40
0.2978111104
 40
0.3041908182
 40
0.3109616265
 40
0.3180929978
 40
0.3331711565
 40
0.3489801142
 40
0.3651959123
 40
0.381608464
 40
0.3980521571
 40
0.4143760265
 40
0.4304099047
 40
0.4382763405
 40
0.4460257681
 40
0.4536801079
 40
0.461311682
 40
0.4690339303
 40
0.4769615543
 40
0.4851506456
 40
0.493595923
 40
0.5022584779
 40
0.5110915553
 40
0.5291136666
 40
0.5474449636
 40
0.5659470956
 40
0.5845328184
 40
0.603132675
 40
0.6216778396
 40
0.6400790386
 40
0.6492087387
 40
0.6582773807
 40
0.6672957102
 40
0.6762949216
 40
0.6853179595
 40
0.6943986944
 40
0.7127418949
 40
0.731332
 40
0.7500854988
 40
0.768946459
 40
0.7878805538
 40
0.8068674219
 40
0.8258951247
 40
0.8449595404
 40
0.8545154223
 40
0.8640887862
 40
0.87368509
 40
0.8833102663
 40
0.8929687407
 40
0.9026594045
 40
0.9123757154
 40
0.9221082317
 40
0.9415792063
 40
0.9610612499
 40
0.9805368013
 40
1.0
 40
1.0
 40
1.0
 40
1.0
 10
320.9611259841
 20
138.9588059453
 30
0.0
 10
320.9769764826
 20
138.9664960719
 30
0.0
 10
321.0041992998
 20
138.9814910756
 30
0.0
 10
321.0361194189
 20
139.0074421352
 30
0.0
 10
321.0526303701
 20
139.0375575841
 30
0.0
 10
321.045879209
 20
139.0698015397
 30
0.0
 10
321.020384838
 20
139.097136306
 30
0.0
 10
320.9808617484
 20
139.1233317574
 30
0.0
 10
320.9265282411
 20
139.1490634709
 30
0.0
 10
320.8587370462
 20
139.1745638458
 30
0.0
 10
320.7787252368
 20
139.1997039063
 30
0.0
 10
320.6524253914
 20
139.2342342251
 30
0.0
 10
320.4740127317
 20
139.2753112103
 30
0.0
 10
320.2404175355
 20
139.3220105458
 30
0.0
 10
319.9864411661
 20
139.3683144762
 30
0.0
 10
319.717835226
 20
139.4147929232
 30
0.0
 10
319.3417156975
 20
139.4782002417
 30
0.0
 10
318.8595442237
 20
139.5591791895
 30
0.0
 10
318.2776100646
 20
139.6641830186
 30
0.0
 10
317.7041663762
 20
139.7827795991
 30
0.0
 10
317.2417239531
 20
139.899498148
 30
0.0
 10
316.9340096353
 20
139.9974948572
 30
0.0
 10
316.7697683878
 20
140.0576644442
 30
0.0
 10
316.6182316621
 20
140.1192426323
 30
0.0
 10
316.4457192273
 20
140.20158643
 30
0.0
 10
316.2677357645
 20
140.3156949127
 30
0.0
 10
316.1315588789
 20
140.4454562087
 30
0.0
 10
316.0631991733
 20
140.5745498255
 30
0.0
 10
316.04742059
 20
140.6816571175
 30
0.0
 10
316.0559963431
 20
140.7943873699
 30
0.0
 10
316.1149709734
 20
140.9418881019
 30
0.0
 10
316.2404710966
 20
141.1103904033
 30
0.0
 10
316.4111433033
 20
141.2783436238
 30
0.0
 10
316.6171935567
 20
141.4454922334
 30
0.0
 10
316.8502092647
 20
141.6114397356
 30
0.0
 10
317.1034488954
 20
141.7758446545
 30
0.0
 10
317.465116902
 20
141.9964526325
 30
0.0
 10
317.9388238787
 20
142.2680662044
 30
0.0
 10
318.5200092582
 20
142.5941673953
 30
0.0
 10
319.1032860679
 20
142.9293225711
 30
0.0
 10
319.6711723163
 20
143.279486159
 30
0.0
 10
320.1187316505
 20
143.5948509732
 30
0.0
 10
320.4427512118
 20
143.8689472447
 30
0.0
 10
320.6576332012
 20
144.082688991
 30
0.0
 10
320.8385389658
 20
144.3088542642
 30
0.0
 10
320.9737481936
 20
144.5489669169
 30
0.0
 10
321.0505665365
 20
144.8022808744
 30
0.0
 10
321.0547906024
 20
145.062804828
 30
0.0
 10
320.9861582347
 20
145.317914408
 30
0.0
 10
320.857420716
 20
145.5609092311
 30
0.0
 10
320.6813688647
 20
145.790777708
 30
0.0
 10
320.3940000047
 20
146.0874064169
 30
0.0
 10
319.9731439075
 20
146.4296102887
 30
0.0
 10
319.4228570145
 20
146.8124512582
 30
0.0
 10
318.8449243366
 20
147.1881921124
 30
0.0
 10
318.2584469521
 20
147.5672008822
 30
0.0
 10
317.6801655432
 20
147.9617474914
 30
0.0
 10
317.1285678249
 20
148.3843537035
 30
0.0
 10
316.7100816335
 20
148.7780209662
 30
0.0
 10
316.4258761919
 20
149.1284135731
 30
0.0
 10
316.2489777489
 20
149.4095819817
 30
0.0
 10
316.1192107952
 20
149.712392742
 30
0.0
 10
316.0485358692
 20
150.0343630714
 30
0.0
 10
316.0464025742
 20
150.3681623483
 30
0.0
 10
316.1138983582
 20
150.7026991392
 30
0.0
 10
316.2402218796
 20
151.0299980662
 30
0.0
 10
316.4138536395
 20
151.3462630177
 30
0.0
 10
316.6233439004
 20
151.6507485489
 30
0.0
 10
316.9398294112
 20
152.0452399834
 30
0.0
 10
317.3822129969
 20
152.5130572364
 30
0.0
 10
317.9497030369
 20
153.0491858541
 30
0.0
 10
318.5351874048
 20
153.5775602055
 30
0.0
 10
319.121975611
 20
154.1101570247
 30
0.0
 10
319.6930392095
 20
154.6608929202
 30
0.0
 10
320.2268805601
 20
155.2447278999
 30
0.0
 10
320.6121901772
 20
155.7790720612
 30
0.0
 10
320.8510725367
 20
156.2431204637
 30
0.0
 10
320.9822738815
 20
156.6090223394
 30
0.0
 10
321.0524486799
 20
156.9899810863
 30
0.0
 10
321.0532690988
 20
157.3769895181
 30
0.0
 10
320.9831930246
 20
157.7582695974
 30
0.0
 10
320.8086311384
 20
158.248547341
 30
0.0
 10
320.4718060566
 20
158.8161637806
 30
0.0
 10
319.9689003979
 20
159.4300517571
 30
0.0
 10
319.4126983764
 20
160.0055026864
 30
0.0
 10
318.830839752
 20
160.5614070708
 30
0.0
 10
318.2420496289
 20
161.1147550542
 30
0.0
 10
317.6618212657
 20
161.6807601438
 30
0.0
 10
317.1091765887
 20
162.2765726863
 30
0.0
 10
316.6932581293
 20
162.8145928944
 30
0.0
 10
316.413734286
 20
163.2815384768
 30
0.0
 10
316.2395983432
 20
163.6523084312
 30
0.0
 10
316.1130331967
 20
164.04344863
 30
0.0
 10
316.0470742937
 20
164.4508795086
 30
0.0
 10
316.04841805
 20
164.8650815617
 30
0.0
 10
316.117435866
 20
165.2746602121
 30
0.0
 10
316.246519848
 20
165.6700406239
 30
0.0
 10
316.4805933903
 20
166.1731321584
 30
0.0
 10
316.8618345158
 20
166.7552910877
 30
0.0
 10
317.3925453173
 20
167.3962274709
 30
0.0
 10
317.9626778268
 20
168.0017189536
 30
0.0
 10
318.3542416424
 20
168.3937792203
 30
0.0
 10
318.5500998553
 20
168.5896114361
 30
0.0
  0
SPLINE
  5
33C
100
AcDbEntity
  8
0
100
AcDbSpline
 62
7
  6
CONTINUOUS
 70
0
 71
3
 72
13
 73
9
 74
0
 42
0.0000001
 43
0.0000001
 44
0.0000000001
 40
0.0
 40
0.0
 40
0.0
 40
0.0
 40
0.2498938715
 40
0.4995255124
 40
0.6247145638
 40
0.7498526754
 40
0.8749420061
 40
1.0
 40
1.0
 40
1.0
 40
1.0
 10
190.3075136975
 20
131.4404189823
 30
0.0
 10
190.3075136975
 20
131.2913112818
 30
0.0
 10
190.2673540891
 20
130.9917496774
 30
0.0
 10
190.1101769843
 20
130.6459112787
 30
0.0
 10
189.91730369
 20
130.4160243414
 30
0.0
 10
189.7390461632
 20
130.2771231735
 30
0.0
 10
189.5322082846
 20
130.1852059029
 30
0.0
 10
189.3821338144
 20
130.1635460641
 30
0.0
 10
189.3075136975
 20
130.1635460641
 30
0.0
  0
SPLINE
  5
33D
100
AcDbEntity
  8
0
100
AcDbSpline
 62
7
  6
CONTINUOUS
 70
0
 71
3
 72
106
 73
102
 74
0
 42
0.0000001
 43
0.0000001
 44
0.0000000001
 40
0.0
 40
0.0
 40
0.0
 40
0.0
 40
0.0012201302
 40
0.00214441
 40
0.0028340603
 40
0.0034707842
 40
0.0042789286
 40
0.0053720127
 40
0.0067801001
 40
0.0084910172
 40
0.012710093
 40
0.0177909354
 40
0.0235271009
 40
0.0297493475
 40
0.036322982
 40
0.0431546805
 40
0.0573141215
 40
0.0717848454
 40
0.0862204332
 40
0.1002522089
 40
0.1069662337
 40
0.1133740943
 40
0.1193635739
 40
0.1248012873
 40
0.1295762418
 40
0.1336867003
 40
0.1355777181
 40
0.1374399831
 40
0.1413515571
 40
0.1458648204
 40
0.1510805114
 40
0.1569091299
 40
0.1632223888
 40
0.1699060369
 40
0.1768630973
 40
0.1913180298
 40
0.2061771064
 40
0.2211501523
 40
0.23598043
 40
0.2503647575
 40
0.2572772568
 40
0.263935222
 40
0.270293743
 40
0.2763561214
 40
0.2822224721
 40
0.2881110578
 40
0.2942864421
 40
0.3009069293
 40
0.3079959417
 40
0.3154879583
 40
0.3313517487
 40
0.3479821853
 40
0.3650346394
 40
0.3822967428
 40
0.3996078894
 40
0.4168171429
 40
0.4337352231
 40
0.4420196441
 40
0.4501423267
 40
0.4580846746
 40
0.4658715431
 40
0.4735850628
 40
0.4813496987
 40
0.4892650681
 40
0.4973710958
 40
0.505662166
 40
0.5141104284
 40
0.5313560259
 40
0.5489224963
 40
0.5666770591
 40
0.5845311894
 40
0.6024156517
 40
0.6202723266
 40
0.6380490128
 40
0.6469182657
 40
0.6557865116
 40
0.6646861374
 40
0.673659792
 40
0.6827447351
 40
0.6919534971
 40
0.7106586271
 40
0.7296529789
 40
0.7488035962
 40
0.7680404876
 40
0.787325911
 40
0.8066382712
 40
0.8259618938
 40
0.8356266564
 40
0.8452893422
 40
0.854949063
 40
0.8646038735
 40
0.8742522623
 40
0.8838940467
 40
0.893533685
 40
0.9031768537
 40
0.9128284997
 40
0.9224898631
 40
0.9418236834
 40
0.9611939171
 40
0.9805879517
 40
1.0
 40
1.0
 40
1.0
 40
1.0
 10
317.2460811081
 20
198.5156009245
 30
0.0
 10
317.2294604436
 20
198.5105604066
 30
0.0
 10
317.2006071213
 20
198.5001678947
 30
0.0
 10
317.1654736839
 20
198.4798773758
 30
0.0
 10
317.1445501209
 20
198.4531947405
 30
0.0
 10
317.1461067353
 20
198.4206602458
 30
0.0
 10
317.1669863401
 20
198.3900500897
 30
0.0
 10
317.201949841
 20
198.3583439438
 30
0.0
 10
317.2518278467
 20
198.3247556924
 30
0.0
 10
317.3430497605
 20
198.2737856883
 30
0.0
 10
317.4860071391
 20
198.208999814
 30
0.0
 10
317.685035541
 20
198.1302647885
 30
0.0
 10
317.9132508821
 20
198.0480110956
 30
0.0
 10
318.1629781718
 20
197.9630005447
 30
0.0
 10
318.4283671749
 20
197.8756451399
 30
0.0
 10
318.8017377326
 20
197.755007027
 30
0.0
 10
319.2824446283
 20
197.600960377
 30
0.0
 10
319.8645642834
 20
197.4086782818
 30
0.0
 10
320.4408784393
 20
197.2049786181
 30
0.0
 10
320.9069081939
 20
197.0209214323
 30
0.0
 10
321.2587456038
 20
196.8606519516
 30
0.0
 10
321.5009203888
 20
196.736419584
 30
0.0
 10
321.7188425742
 20
196.6056760132
 30
0.0
 10
321.9041273425
 20
196.4672998818
 30
0.0
 10
322.0474665964
 20
196.3208115744
 30
0.0
 10
322.1245074877
 20
196.1843254198
 30
0.0
 10
322.1468706325
 20
196.0737346172
 30
0.0
 10
322.1441862435
 20
195.9637456921
 30
0.0
 10
322.090938155
 20
195.8229980874
 30
0.0
 10
321.9673409515
 20
195.6709238464
 30
0.0
 10
321.797722284
 20
195.5274217328
 30
0.0
 10
321.5918624552
 20
195.3901971691
 30
0.0
 10
321.358581942
 20
195.2580221839
 30
0.0
 10
321.1049063384
 20
195.1300921215
 30
0.0
 10
320.7423965566
 20
194.9610854103
 30
0.0
 10
320.268323393
 20
194.7564151257
 30
0.0
 10
319.6874723632
 20
194.5114686453
 30
0.0
 10
319.1049714705
 20
194.2565453612
 30
0.0
 10
318.5382338314
 20
193.9833717156
 30
0.0
 10
318.0908380465
 20
193.7277241877
 30
0.0
 10
317.7665543083
 20
193.4964359988
 30
0.0
 10
317.5510655643
 20
193.3111196966
 30
0.0
 10
317.3687415318
 20
193.1084617785
 30
0.0
 10
317.2304991131
 20
192.8858014027
 30
0.0
 10
317.1490141588
 20
192.6425554485
 30
0.0
 10
317.1382647528
 20
192.3840978486
 30
0.0
 10
317.1988104393
 20
192.1224513943
 30
0.0
 10
317.3192263225
 20
191.864623117
 30
0.0
 10
317.4880054445
 20
191.6134331829
 30
0.0
 10
317.7670153315
 20
191.281116161
 30
0.0
 10
318.1803468778
 20
190.8878172805
 30
0.0
 10
318.7256920791
 20
190.4404058407
 30
0.0
 10
319.3014430943
 20
189.9993691147
 30
0.0
 10
319.8879503887
 20
189.5566405693
 30
0.0
 10
320.4685147737
 20
189.102249116
 30
0.0
 10
321.0247791851
 20
188.6256839857
 30
0.0
 10
321.4495257473
 20
188.1943462762
 30
0.0
 10
321.7416049646
 20
187.8197827355
 30
0.0
 10
321.9255543967
 20
187.5250151131
 30
0.0
 10
322.0636598976
 20
187.2132810782
 30
0.0
 10
322.1430761619
 20
186.8869595313
 30
0.0
 10
322.152480954
 20
186.5532545667
 30
0.0
 10
322.0895494919
 20
186.2238854518
 30
0.0
 10
321.9652728703
 20
185.9072603712
 30
0.0
 10
321.7920104178
 20
185.6065594232
 30
0.0
 10
321.5820267439
 20
185.3213258993
 30
0.0
 10
321.264253432
 20
184.9560671945
 30
0.0
 10
320.8199840983
 20
184.5283178875
 30
0.0
 10
320.2515040486
 20
184.0416703148
 30
0.0
 10
319.665778598
 20
183.562192827
 30
0.0
 10
319.0794271506
 20
183.0763583982
 30
0.0
 10
318.5094408937
 20
182.56871629
 30
0.0
 10
317.9766423196
 20
182.0230881196
 30
0.0
 10
317.5920228646
 20
181.5155061456
 30
0.0
 10
317.3528461672
 20
181.0688037305
 30
0.0
 10
317.220196036
 20
180.7120639727
 30
0.0
 10
317.1465547248
 20
180.3367009683
 30
0.0
 10
317.1400309335
 20
179.9509140587
 30
0.0
 10
317.2028859461
 20
179.5659814814
 30
0.0
 10
317.3681714073
 20
179.0641094903
 30
0.0
 10
317.6952752844
 20
178.4761030175
 30
0.0
 10
318.1897433444
 20
177.8339976072
 30
0.0
 10
318.7410204676
 20
177.2304928544
 30
0.0
 10
319.3206656273
 20
176.64905953
 30
0.0
 10
319.9093872186
 20
176.0735905554
 30
0.0
 10
320.4915938302
 20
175.4897448856
 30
0.0
 10
320.9562928985
 20
174.9823083798
 30
0.0
 10
321.3021941155
 20
174.5541890498
 30
0.0
 10
321.5431508552
 20
174.2188704429
 30
0.0
 10
321.7582984615
 20
173.8663722685
 30
0.0
 10
321.9389400264
 20
173.4949018267
 30
0.0
 10
322.07297219
 20
173.1039004616
 30
0.0
 10
322.1461453053
 20
172.6968046968
 30
0.0
 10
322.1502153224
 20
172.2830518803
 30
0.0
 10
322.0837498879
 20
171.8746603553
 30
0.0
 10
321.9554211718
 20
171.4815615757
 30
0.0
 10
321.7208714365
 20
170.9827251696
 30
0.0
 10
321.3374040047
 20
170.4071227185
 30
0.0
 10
320.8042391687
 20
169.7741008011
 30
0.0
 10
320.2327007857
 20
169.1744292426
 30
0.0
 10
319.841240593
 20
168.7847079066
 30
0.0
 10
319.6455557908
 20
168.5896114365
 30
0.0
  0
SPLINE
  5
33E
100
AcDbEntity
  8
BEZUGSACHSEN
100
AcDbSpline
 62
7
  6
CONTINUOUS
 70
0
 71
3
 72
13
 73
9
 74
0
 42
0.0000001
 43
0.0000001
 44
0.0000000001
 40
0.0
 40
0.0
 40
0.0
 40
0.0
 40
0.1104395335
 40
0.2331386188
 40
0.5
 40
0.7668613771
 40
0.8895604644
 40
1.0
 40
1.0
 40
1.0
 40
1.0
 10
181.0075136975
 20
211.9380987773
 30
0.0
 10
181.1055861299
 20
211.9670759069
 30
0.0
 10
181.3160835792
 20
212.0166612771
 30
0.0
 10
181.774061942
 20
212.0867121112
 30
0.0
 10
182.3825136937
 20
212.1190702957
 30
0.0
 10
182.9909654471
 20
212.0867121112
 30
0.0
 10
183.4489438102
 20
212.0166612786
 30
0.0
 10
183.6594412633
 20
211.9670759074
 30
0.0
 10
183.7575136975
 20
211.9380987773
 30
0.0
  0
SPLINE
  5
33F
100
AcDbEntity
  8
FASEN
100
AcDbSpline
 62
7
  6
CONTINUOUS
 70
0
 71
3
 72
9
 73
5
 74
0
 42
0.0000001
 43
0.0000001
 44
0.0000000001
 40
0.0
 40
0.0
 40
0.0
 40
0.0
 40
0.2481693994
 40
1.0
 40
1.0
 40
1.0
 40
1.0
 10
190.3075136975
 20
181.3497525452
 30
0.0
 10
190.3075136975
 20
181.3320683446
 30
0.0
 10
190.3105281276
 20
181.2608321695
 30
0.0
 10
190.3258840317
 20
181.1901947518
 30
0.0
 10
190.3435346134
 20
181.1396114365
 30
0.0
  0
SPLINE
  5
340
100
AcDbEntity
  8
0
100
AcDbSpline
 62
7
  6
CONTINUOUS
 70
0
 71
3
 72
26
 73
22
 74
0
 42
0.0000001
 43
0.0000001
 44
0.0000000001
 40
0.0
 40
0.0
 40
0.0
 40
0.0
 40
0.0484412453
 40
0.067443232
 40
0.082722407
 40
0.1032630559
 40
0.1117166933
 40
0.1219132656
 40
0.1352298721
 40
0.1520834679
 40
0.1724437296
 40
0.1960600143
 40
0.2226317459
 40
0.2518811411
 40
0.3172808858
 40
0.3901701948
 40
0.4687574767
 40
0.5516456605
 40
0.6377925508
 40
0.8166470801
 40
1.0
 40
1.0
 40
1.0
 40
1.0
 10
316.2734319675
 20
198.348321652
 30
0.0
 10
316.2322192409
 20
198.3681238776
 30
0.0
 10
316.1756080681
 20
198.3971178212
 30
0.0
 10
316.1103255243
 20
198.4411311459
 30
0.0
 10
316.0718959347
 20
198.4740314595
 30
0.0
 10
316.0443799576
 20
198.5130795808
 30
0.0
 10
316.0561620474
 20
198.5505865648
 30
0.0
 10
316.0791457264
 20
198.5713289863
 30
0.0
 10
316.1130205184
 20
198.5890418524
 30
0.0
 10
316.158312641
 20
198.6044565821
 30
0.0
 10
316.2142007602
 20
198.6177823928
 30
0.0
 10
316.2798517014
 20
198.6291329676
 30
0.0
 10
316.3542503826
 20
198.6385875433
 30
0.0
 10
316.4681956555
 20
198.649173207
 30
0.0
 10
316.6261650233
 20
198.6575563665
 30
0.0
 10
316.830848751
 20
198.6617663629
 30
0.0
 10
317.0520788467
 20
198.6611732575
 30
0.0
 10
317.2857689142
 20
198.6564639853
 30
0.0
 10
317.6139547315
 20
198.6452173383
 30
0.0
 10
318.0366158387
 20
198.6232758346
 30
0.0
 10
318.3776799536
 20
198.5993412504
 30
0.0
 10
318.5502116589
 20
198.5857627107
 30
0.0
  0
SPLINE
  5
341
100
AcDbEntity
  8
FASEN
100
AcDbSpline
 62
7
  6
CONTINUOUS
 70
0
 71
3
 72
9
 73
5
 74
0
 42
0.0000001
 43
0.0000001
 44
0.0000000001
 40
0.0
 40
0.0
 40
0.0
 40
0.0
 40
0.2534643045
 40
1.0
 40
1.0
 40
1.0
 40
1.0
 10
190.3435346134
 20
156.0396114365
 30
0.0
 10
190.3375842174
 20
156.0225586979
 30
0.0
 10
190.3168321944
 20
155.954362987
 30
0.0
 10
190.3075136975
 20
155.8826661858
 30
0.0
 10
190.3075136975
 20
155.8294703277
 30
0.0
  0
SPLINE
  5
342
100
AcDbEntity
  8
BEZUGSACHSEN
100
AcDbSpline
 62
7
  6
CONTINUOUS
 70
0
 71
3
 72
12
 73
8
 74
0
 42
0.0000001
 43
0.0000001
 44
0.0000000001
 40
0.0
 40
0.0
 40
0.0
 40
0.0
 40
0.3104843681
 40
0.5691999949
 40
0.788938214
 40
0.8921857156
 40
1.0
 40
1.0
 40
1.0
 40
1.0
 10
183.7575136975
 20
211.9380987773
 30
0.0
 10
183.8066998499
 20
211.9235659113
 30
0.0
 10
183.8998730238
 20
211.9056393074
 30
0.0
 10
184.0310459844
 20
211.9085028638
 30
0.0
 10
184.1251836697
 20
211.935672254
 30
0.0
 10
184.1851145594
 20
211.9750546972
 30
0.0
 10
184.2087920637
 20
212.001372163
 30
0.0
 10
184.2187182078
 20
212.0161591027
 30
0.0
  0
SPLINE
  5
343
100
AcDbEntity
  8
BEZUGSACHSEN
100
AcDbSpline
 62
7
  6
CONTINUOUS
 70
0
 71
3
 72
9
 73
5
 74
0
 42
0.0000001
 43
0.0000001
 44
0.0000000001
 40
0.0
 40
0.0
 40
0.0
 40
0.0
 40
0.4174036158
 40
1.0
 40
1.0
 40
1.0
 40
1.0
 10
184.2187182078
 20
212.0161591027
 30
0.0
 10
184.2308589511
 20
212.0342451227
 30
0.0
 10
184.2523690842
 20
212.0828683831
 30
0.0
 10
184.2575136975
 20
212.1356312282
 30
0.0
 10
184.2575136975
 20
212.1660352121
 30
0.0
  0
SPLINE
  5
344
100
AcDbEntity
  8
BEZUGSACHSEN
100
AcDbSpline
 62
7
  6
CONTINUOUS
 70
0
 71
3
 72
14
 73
10
 74
0
 42
0.0000001
 43
0.0000001
 44
0.0000000001
 40
0.0
 40
0.0
 40
0.0
 40
0.0
 40
0.1549967483
 40
0.2740726966
 40
0.3672842133
 40
0.4534893752
 40
0.5525091864
 40
0.6751278704
 40
1.0
 40
1.0
 40
1.0
 40
1.0
 10
180.3825136975
 20
212.3690464333
 30
0.0
 10
180.3825136975
 20
212.3785724171
 30
0.0
 10
180.3835021542
 20
212.3954686712
 30
0.0
 10
180.3894509387
 20
212.4175027211
 30
0.0
 10
180.4007702471
 20
212.4328513229
 30
0.0
 10
180.4174254457
 20
212.4394576492
 30
0.0
 10
180.4366856235
 20
212.4377619616
 30
0.0
 10
180.468413193
 20
212.4262430229
 30
0.0
 10
180.4914972362
 20
212.4106468314
 30
0.0
 10
180.5075136975
 20
212.3987250033
 30
0.0
  0
SPLINE
  5
345
100
AcDbEntity
  8
GEWINDE
100
AcDbSpline
 62
7
  6
CONTINUOUS
 70
0
 71
3
 72
25
 73
21
 74
0
 42
0.0000001
 43
0.0000001
 44
0.0000000001
 40
0.0
 40
0.0
 40
0.0
 40
0.0
 40
0.020474298
 40
0.0413113559
 40
0.0860419262
 40
0.1375894231
 40
0.1972585021
 40
0.2648571168
 40
0.3391748207
 40
0.4183271315
 40
0.4999997323
 40
0.5816723122
 40
0.6608247814
 40
0.7351427445
 40
0.8027414194
 40
0.8624105795
 40
0.9139580863
 40
0.9586886356
 40
0.9795256999
 40
1.0
 40
1.0
 40
1.0
 40
1.0
 10
263.4575137312
 20
200.1995384228
 30
0.0
 10
263.4575137312
 20
200.2403457697
 30
0.0
 10
263.4493159013
 20
200.3229179085
 30
0.0
 10
263.3990057377
 20
200.4878890484
 30
0.0
 10
263.2682014901
 20
200.6869926312
 30
0.0
 10
263.0290322819
 20
200.8898018411
 30
0.0
 10
262.7147751968
 20
201.0617131994
 30
0.0
 10
262.3360968445
 20
201.1994355988
 30
0.0
 10
261.9062951879
 20
201.300202489
 30
0.0
 10
261.4409955162
 20
201.3616197557
 30
0.0
 10
260.9575153688
 20
201.3822545502
 30
0.0
 10
260.47403489
 20
201.3616200547
 30
0.0
 10
260.0087344069
 20
201.3002028859
 30
0.0
 10
259.5789317656
 20
201.1994359982
 30
0.0
 10
259.2002526305
 20
201.0617134027
 30
0.0
 10
258.8859952535
 20
200.8898019441
 30
0.0
 10
258.6468259203
 20
200.6869926572
 30
0.0
 10
258.5160216869
 20
200.4878890827
 30
0.0
 10
258.4657115066
 20
200.322917974
 30
0.0
 10
258.4575136698
 20
200.240345818
 30
0.0
 10
258.4575136698
 20
200.1995384669
 30
0.0
  0
SPLINE
  5
346
100
AcDbEntity
  8
0
100
AcDbSpline
 62
7
  6
CONTINUOUS
 70
0
 71
3
 72
13
 73
9
 74
0
 42
0.0000001
 43
0.0000001
 44
0.0000000001
 40
0.0
 40
0.0
 40
0.0
 40
0.0
 40
0.1250030229
 40
0.2500714455
 40
0.3752156917
 40
0.5004019476
 40
0.7500699455
 40
1.0
 40
1.0
 40
1.0
 40
1.0
 10
181.0075136975
 20
134.2146114365
 30
0.0
 10
180.969467495
 20
134.2146114365
 30
0.0
 10
180.8928942121
 20
134.2027750083
 30
0.0
 10
180.7885249034
 20
134.1532514988
 30
0.0
 10
180.6997020836
 20
134.0797877493
 30
0.0
 10
180.6044794869
 20
133.959985908
 30
0.0
 10
180.5274152936
 20
133.7824981769
 30
0.0
 10
180.5075136975
 20
133.6297616439
 30
0.0
 10
180.5075136975
 20
133.5536923676
 30
0.0
  0
SPLINE
  5
347
100
AcDbEntity
  8
0
100
AcDbSpline
 62
7
  6
CONTINUOUS
 70
0
 71
3
 72
13
 73
9
 74
0
 42
0.0000001
 43
0.0000001
 44
0.0000000001
 40
0.0
 40
0.0
 40
0.0
 40
0.0
 40
0.1250292831
 40
0.2500966333
 40
0.3752296121
 40
0.5004245968
 40
0.7500730896
 40
1.0
 40
1.0
 40
1.0
 40
1.0
 10
175.4575136975
 20
130.1635460641
 30
0.0
 10
175.3829107328
 20
130.1635460641
 30
0.0
 10
175.2328669999
 20
130.1851957563
 30
0.0
 10
175.0260527491
 20
130.277081764
 30
0.0
 10
174.8477920763
 20
130.4159581488
 30
0.0
 10
174.654892227
 20
130.6458370982
 30
0.0
 10
174.4976832542
 20
130.9916998059
 30
0.0
 10
174.4575136975
 20
131.2912916097
 30
0.0
 10
174.4575136975
 20
131.4404189823
 30
0.0
  0
SPLINE
  5
348
100
AcDbEntity
  8
FASEN
100
AcDbSpline
 62
7
  6
CONTINUOUS
 70
0
 71
3
 72
20
 73
16
 74
0
 42
0.0000001
 43
0.0000001
 44
0.0000000001
 40
0.0
 40
0.0
 40
0.0
 40
0.0
 40
0.1250223797
 40
0.2500429598
 40
0.3750614276
 40
0.5000753736
 40
0.6250785052
 40
0.6875881675
 40
0.7500947631
 40
0.8125940549
 40
0.8750681115
 40
0.9063256205
 40
0.9375781292
 40
0.9688043183
 40
1.0
 40
1.0
 40
1.0
 40
1.0
 10
190.3435346134
 20
181.1396114365
 30
0.0
 10
190.3538927234
 20
181.0207554316
 30
0.0
 10
190.3790171064
 20
180.7834039818
 30
0.0
 10
190.4302959249
 20
180.4290944272
 30
0.0
 10
190.4962106293
 20
180.0771867687
 30
0.0
 10
190.5788675928
 20
179.7288277244
 30
0.0
 10
190.6649240956
 20
179.4429706284
 30
0.0
 10
190.7481515588
 20
179.2192834476
 30
0.0
 10
190.8197234873
 20
179.0551309146
 30
0.0
 10
190.9033735879
 20
178.8967923128
 30
0.0
 10
190.9875411222
 20
178.7729494257
 30
0.0
 10
191.068386688
 20
178.6849130831
 30
0.0
 10
191.1378447689
 20
178.627887474
 30
0.0
 10
191.2178081898
 20
178.5860003049
 30
0.0
 10
191.2777442472
 20
178.5751009087
 30
0.0
 10
191.3075136975
 20
178.5751009087
 30
0.0
  0
SPLINE
  5
349
100
AcDbEntity
  8
FASEN
100
AcDbSpline
 62
7
  6
CONTINUOUS
 70
0
 71
3
 72
20
 73
16
 74
0
 42
0.0000001
 43
0.0000001
 44
0.0000000001
 40
0.0
 40
0.0
 40
0.0
 40
0.0
 40
0.0311952578
 40
0.062419965
 40
0.0936717428
 40
0.124929151
 40
0.1874033077
 40
0.2499030723
 40
0.3124099424
 40
0.3749197986
 40
0.4999232564
 40
0.6249375255
 40
0.7499563302
 40
0.8749772626
 40
1.0
 40
1.0
 40
1.0
 40
1.0
 10
191.3075136975
 20
158.6041219643
 30
0.0
 10
191.2777446534
 20
158.6041219643
 30
0.0
 10
191.2178102888
 20
158.593223384
 30
0.0
 10
191.1378493308
 20
158.5513371462
 30
0.0
 10
191.068391852
 20
158.4943143791
 30
0.0
 10
190.9875462145
 20
158.4062790063
 30
0.0
 10
190.9033764497
 20
158.2824371135
 30
0.0
 10
190.8197264009
 20
158.1240974924
 30
0.0
 10
190.7481534766
 20
157.959944465
 30
0.0
 10
190.6649255556
 20
157.7362566368
 30
0.0
 10
190.5788685496
 20
157.4503988782
 30
0.0
 10
190.4962112361
 20
157.1020389642
 30
0.0
 10
190.4302962208
 20
156.7501304023
 30
0.0
 10
190.3790172241
 20
156.395819883
 30
0.0
 10
190.3538927524
 20
156.1584677748
 30
0.0
 10
190.3435346134
 20
156.0396114365
 30
0.0
  0
SPLINE
  5
34A
100
AcDbEntity
  8
BEZUGSACHSEN
100
AcDbSpline
 62
7
  6
CONTINUOUS
 70
0
 71
3
 72
27
 73
23
 74
0
 42
0.0000001
 43
0.0000001
 44
0.0000000001
 40
0.0
 40
0.0
 40
0.0
 40
0.0
 40
0.0149976318
 40
0.0306158804
 40
0.0478141164
 40
0.0672806806
 40
0.1143219118
 40
0.1728352028
 40
0.2419404729
 40
0.3197816456
 40
0.4039151719
 40
0.4915274573
 40
0.5795979506
 40
0.6650653882
 40
0.7450063935
 40
0.8168211042
 40
0.8784570293
 40
0.9287473324
 40
0.9497155595
 40
0.9681873342
 40
0.9846847413
 40
1.0
 40
1.0
 40
1.0
 40
1.0
 10
278.7575136975
 20
199.7196588588
 30
0.0
 10
278.7575136975
 20
199.7357866965
 30
0.0
 10
278.7623897631
 20
199.7689188528
 30
0.0
 10
278.7845186227
 20
199.816009588
 30
0.0
 10
278.8205140742
 20
199.8598019024
 30
0.0
 10
278.8904093673
 20
199.9171904756
 30
0.0
 10
279.0122803771
 20
199.9772618584
 30
0.0
 10
279.1927842886
 20
200.0305919941
 30
0.0
 10
279.4109105758
 20
200.0682922397
 30
0.0
 10
279.6587204936
 20
200.089456809
 30
0.0
 10
279.9272720177
 20
200.0937326151
 30
0.0
 10
280.206546246
 20
200.0812222234
 30
0.0
 10
280.4860593139
 20
200.0524746426
 30
0.0
 10
280.7552443091
 20
200.0084399116
 30
0.0
 10
281.0038847539
 20
199.9504678727
 30
0.0
 10
281.2227461525
 20
199.880268864
 30
0.0
 10
281.4036744027
 20
199.7999460251
 30
0.0
 10
281.5248997252
 20
199.7220839167
 30
0.0
 10
281.5944369481
 20
199.6547040258
 30
0.0
 10
281.6302499235
 20
199.6059160078
 30
0.0
 10
281.6523636533
 20
199.5560229092
 30
0.0
 10
281.6575136975
 20
199.5216575613
 30
0.0
 10
281.6575136975
 20
199.5051881607
 30
0.0
  0
SPLINE
  5
34B
100
AcDbEntity
  8
BEZUGSACHSEN
100
AcDbSpline
 62
7
  6
CONTINUOUS
 70
0
 71
3
 72
14
 73
10
 74
0
 42
0.0000001
 43
0.0000001
 44
0.0000000001
 40
0.0
 40
0.0
 40
0.0
 40
0.0
 40
0.3248720194
 40
0.4474906438
 40
0.5465104138
 40
0.6327155214
 40
0.7259269576
 40
0.8450033001
 40
1.0
 40
1.0
 40
1.0
 40
1.0
 10
184.2575136975
 20
212.3987250033
 30
0.0
 10
184.273530154
 20
212.4106468278
 30
0.0
 10
184.2966141867
 20
212.4262430153
 30
0.0
 10
184.3283417473
 20
212.4377619527
 30
0.0
 10
184.3476019093
 20
212.4394576412
 30
0.0
 10
184.3642571176
 20
212.4328513766
 30
0.0
 10
184.3755764665
 20
212.4175027685
 30
0.0
 10
184.381525183
 20
212.3954686817
 30
0.0
 10
184.3825136975
 20
212.3785724145
 30
0.0
 10
184.3825136975
 20
212.3690464333
 30
0.0
  0
SPLINE
  5
34C
100
AcDbEntity
  8
BEZUGSACHSEN
100
AcDbSpline
 62
7
  6
CONTINUOUS
 70
0
 71
3
 72
20
 73
16
 74
0
 42
0.0000001
 43
0.0000001
 44
0.0000000001
 40
0.0
 40
0.0
 40
0.0
 40
0.0
 40
0.0492823012
 40
0.1014337341
 40
0.158208983
 40
0.2203613396
 40
0.3590416017
 40
0.5091915927
 40
0.6569819035
 40
0.7259555858
 40
0.7899419252
 40
0.8484574736
 40
0.9018775216
 40
0.9516071053
 40
1.0
 40
1.0
 40
1.0
 40
1.0
 10
281.6575136975
 20
143.3870023795
 30
0.0
 10
281.6575136975
 20
143.3253334434
 30
0.0
 10
281.6373392883
 20
143.1977014358
 30
0.0
 10
281.5507011093
 20
143.0171839025
 30
0.0
 10
281.4128350857
 20
142.8510448406
 30
0.0
 10
281.1599327458
 20
142.6484238394
 30
0.0
 10
280.752600363
 20
142.4662692596
 30
0.0
 10
280.2104703217
 20
142.3707216538
 30
0.0
 10
279.746703057
 20
142.3953634079
 30
0.0
 10
279.4058052453
 20
142.4846644763
 30
0.0
 10
279.1851693185
 20
142.5810408083
 30
0.0
 10
279.0019675837
 20
142.7058436101
 30
0.0
 10
278.8634622116
 20
142.8562632011
 30
0.0
 10
278.7767459199
 20
143.0279260929
 30
0.0
 10
278.7575136975
 20
143.1516082787
 30
0.0
 10
278.7575136975
 20
143.2121642645
 30
0.0
  0
SPLINE
  5
34D
100
AcDbEntity
  8
0
100
AcDbSpline
 62
7
  6
CONTINUOUS
 70
0
 71
3
 72
89
 73
85
 74
0
 42
0.0000001
 43
0.0000001
 44
0.0000000001
 40
0.0
 40
0.0
 40
0.0
 40
0.0
 40
0.0370656229
 40
0.0556129534
 40
0.0741616666
 40
0.0926927027
 40
0.1111661059
 40
0.1203870422
 40
0.129581208
 40
0.1387479213
 40
0.1478900164
 40
0.1570111761
 40
0.1661163843
 40
0.1842817341
 40
0.2024153645
 40
0.220517019
 40
0.2566019939
 40
0.2745616907
 40
0.2924377213
 40
0.3101946743
 40
0.3277801485
 40
0.3451363409
 40
0.3537467211
 40
0.3623236528
 40
0.3708959153
 40
0.3794921754
 40
0.3967943148
 40
0.4142946493
 40
0.431927081
 40
0.4496257173
 40
0.4673392334
 40
0.4850210391
 40
0.502620663
 40
0.5200741258
 40
0.5372843973
 40
0.5541013816
 40
0.5702964312
 40
0.5780981139
 40
0.5856836351
 40
0.5930845066
 40
0.6003742132
 40
0.607639839
 40
0.6149514789
 40
0.6223490581
 40
0.6298435718
 40
0.6450838611
 40
0.6605852204
 40
0.6762233696
 40
0.6918915373
 40
0.7074813999
 40
0.722869434
 40
0.7378992091
 40
0.7523363884
 40
0.7592399514
 40
0.7658695472
 40
0.7721859556
 40
0.7781852474
 40
0.7839335552
 40
0.7895801731
 40
0.7953212288
 40
0.8013047656
 40
0.8075930081
 40
0.8141817951
 40
0.8210284117
 40
0.8280826282
 40
0.8426458614
 40
0.857583485
 40
0.8726686546
 40
0.8877237956
 40
0.9025726428
 40
0.9169980727
 40
0.9306845147
 40
0.9431287735
 40
0.948677425
 40
0.953644848
 40
0.9579768528
 40
0.9617575233
 40
0.9652670787
 40
0.968911595
 40
0.9729784082
 40
0.9775573885
 40
0.9826261723
 40
0.9881095032
 40
1.0
 40
1.0
 40
1.0
 40
1.0
 10
319.6455557908
 20
168.5896114365
 30
0.0
 10
319.3086647304
 20
168.2537332489
 30
0.0
 10
318.802875496
 20
167.7494592872
 30
0.0
 10
318.1761322358
 20
167.0323997867
 30
0.0
 10
317.7480188351
 20
166.4596232772
 30
0.0
 10
317.3937755707
 20
165.8379971112
 30
0.0
 10
317.2010981272
 20
165.2705406774
 30
0.0
 10
317.1414257197
 20
164.7993816636
 30
0.0
 10
317.1470176662
 20
164.4442145269
 30
0.0
 10
317.2022611188
 20
164.0944340669
 30
0.0
 10
317.303098294
 20
163.7561789102
 30
0.0
 10
317.441445288
 20
163.432624041
 30
0.0
 10
317.6649187886
 20
163.0218570515
 30
0.0
 10
318.0019053985
 20
162.5442599594
 30
0.0
 10
318.4584476585
 20
162.0152997015
 30
0.0
 10
319.1062347229
 20
161.3500211826
 30
0.0
 10
319.7847149705
 20
160.7196147494
 30
0.0
 10
320.4526933441
 20
160.082524508
 30
0.0
 10
320.9356184604
 20
159.5924261615
 30
0.0
 10
321.3844039507
 20
159.0765432963
 30
0.0
 10
321.7743859576
 20
158.5218676299
 30
0.0
 10
322.0145841455
 20
158.0116431373
 30
0.0
 10
322.1228538168
 20
157.5802467425
 30
0.0
 10
322.1540875131
 20
157.2497065438
 30
0.0
 10
322.1323186387
 20
156.9186226024
 30
0.0
 10
322.0367672055
 20
156.4850877989
 30
0.0
 10
321.8060309144
 20
155.9721160055
 30
0.0
 10
321.4242593962
 20
155.4156821375
 30
0.0
 10
320.979578849
 20
154.9025788299
 30
0.0
 10
320.4997329441
 20
154.4192645982
 30
0.0
 10
320.0010267549
 20
153.954761867
 30
0.0
 10
319.4955362276
 20
153.4996815408
 30
0.0
 10
318.993666379
 20
153.0455433044
 30
0.0
 10
318.5061852335
 20
152.5846458882
 30
0.0
 10
318.0477815578
 20
152.1081189673
 30
0.0
 10
317.6399577562
 20
151.6078665692
 30
0.0
 10
317.3661193683
 20
151.1572161574
 30
0.0
 10
317.2194184175
 20
150.7781486545
 30
0.0
 10
317.1536629514
 20
150.4919041243
 30
0.0
 10
317.1380922245
 20
150.2048626074
 30
0.0
 10
317.1744399853
 20
149.9238832259
 30
0.0
 10
317.2580688829
 20
149.6546591104
 30
0.0
 10
317.3824609567
 20
149.4004926731
 30
0.0
 10
317.5395864706
 20
149.1620150313
 30
0.0
 10
317.7841724582
 20
148.8618128377
 30
0.0
 10
318.1377514338
 20
148.5193415618
 30
0.0
 10
318.6036887151
 20
148.1482081012
 30
0.0
 10
319.0944530808
 20
147.8013590868
 30
0.0
 10
319.597097462
 20
147.4702028071
 30
0.0
 10
320.1007802664
 20
147.1466135441
 30
0.0
 10
320.5947540596
 20
146.8230074738
 30
0.0
 10
321.0663662559
 20
146.4926673206
 30
0.0
 10
321.4310464
 20
146.1999992207
 30
0.0
 10
321.689229484
 20
145.9501358681
 30
0.0
 10
321.8568236152
 20
145.7577174425
 30
0.0
 10
321.9944693057
 20
145.5563607371
 30
0.0
 10
322.0939671554
 20
145.3455907124
 30
0.0
 10
322.1475241605
 20
145.1269610291
 30
0.0
 10
322.1476421352
 20
144.9047741809
 30
0.0
 10
322.0937564707
 20
144.6864721336
 30
0.0
 10
321.9937552931
 20
144.4766651661
 30
0.0
 10
321.8559500051
 20
144.2767266056
 30
0.0
 10
321.6882000965
 20
144.0865635794
 30
0.0
 10
321.4974062146
 20
143.905228034
 30
0.0
 10
321.2165857807
 20
143.6712587656
 30
0.0
 10
320.8339937352
 20
143.3987303969
 30
0.0
 10
320.3494813802
 20
143.094028802
 30
0.0
 10
319.8499311808
 20
142.8020618088
 30
0.0
 10
319.3469119941
 20
142.5185423006
 30
0.0
 10
318.8509603927
 20
142.2397561817
 30
0.0
 10
318.3741856897
 20
141.9626301988
 30
0.0
 10
317.9337025272
 20
141.6851743389
 30
0.0
 10
317.6051845844
 20
141.4439609521
 30
0.0
 10
317.3887197943
 20
141.2434324712
 30
0.0
 10
317.2641624108
 20
141.0983725689
 30
0.0
 10
317.1781721831
 20
140.9527642438
 30
0.0
 10
317.1380032346
 20
140.8063490909
 30
0.0
 10
317.1537557928
 20
140.6631639899
 30
0.0
 10
317.2238816803
 20
140.5341722875
 30
0.0
 10
317.3352874611
 20
140.4207351304
 30
0.0
 10
317.4798955897
 20
140.3192587266
 30
0.0
 10
317.6517335385
 20
140.2280753103
 30
0.0
 10
317.9168748067
 20
140.1149767573
 30
0.0
 10
318.1294704832
 20
140.0462658877
 30
0.0
 10
318.2760359588
 20
140.0037442805
 30
0.0
  0
SPLINE
  5
34E
100
AcDbEntity
  8
0
100
AcDbSpline
 62
7
  6
CONTINUOUS
 70
0
 71
3
 72
86
 73
82
 74
0
 42
0.0000001
 43
0.0000001
 44
0.0000000001
 40
0.0
 40
0.0
 40
0.0
 40
0.0
 40
0.0370467388
 40
0.0555470054
 40
0.0740253003
 40
0.0924713283
 40
0.1108721046
 40
0.1200787344
 40
0.1292833214
 40
0.1384893869
 40
0.14769969
 40
0.1569144541
 40
0.1661337217
 40
0.1845720399
 40
0.2030191929
 40
0.2214627518
 40
0.2583003538
 40
0.2766688177
 40
0.2949746891
 40
0.3131775591
 40
0.33120765
 40
0.3489503985
 40
0.3576945063
 40
0.3663390565
 40
0.3748971467
 40
0.3833959899
 40
0.3918653524
 40
0.4003298623
 40
0.4172798282
 40
0.4342992776
 40
0.451361362
 40
0.4684283493
 40
0.5024027787
 40
0.5191995264
 40
0.5357635959
 40
0.5519707204
 40
0.5676576704
 40
0.5752788302
 40
0.5827576364
 40
0.5901418859
 40
0.5975123494
 40
0.6049531749
 40
0.6125194173
 40
0.628063985
 40
0.6440858888
 40
0.660411779
 40
0.676892399
 40
0.6934126514
 40
0.709869419
 40
0.7261486313
 40
0.7421062165
 40
0.7575235713
 40
0.7720739792
 40
0.7788978602
 40
0.7853467719
 40
0.7914149999
 40
0.7971685604
 40
0.8027587813
 40
0.8083747037
 40
0.8141577163
 40
0.8201782167
 40
0.8329252316
 40
0.8464293355
 40
0.8604156519
 40
0.8746436908
 40
0.8889228408
 40
0.9030751118
 40
0.9168950937
 40
0.9301081436
 40
0.9422808877
 40
0.9477948256
 40
0.9528083454
 40
0.9572535901
 40
0.961159395
 40
0.9647396203
 40
0.9683767484
 40
0.9724241144
 40
0.9770224436
 40
0.9821610815
 40
0.9877655031
 40
1.0
 40
1.0
 40
1.0
 40
1.0
 10
318.5500998553
 20
168.5896114361
 30
0.0
 10
318.8847005715
 20
168.9241677393
 30
0.0
 10
319.3879513745
 20
169.4247571364
 30
0.0
 10
320.0144895828
 20
170.1334444558
 30
0.0
 10
320.4431670811
 20
170.6981644865
 30
0.0
 10
320.7991312643
 20
171.3114141699
 30
0.0
 10
320.9938379443
 20
171.8728967473
 30
0.0
 10
321.0546466535
 20
172.3406689155
 30
0.0
 10
321.0488099776
 20
172.6946160393
 30
0.0
 10
320.9926582863
 20
173.0440555939
 30
0.0
 10
320.8905472511
 20
173.3828151544
 30
0.0
 10
320.7510689846
 20
173.7078319666
 30
0.0
 10
320.5262860131
 20
174.1222519723
 30
0.0
 10
320.188659672
 20
174.6067068944
 30
0.0
 10
319.732355492
 20
175.1469102602
 30
0.0
 10
319.0857576988
 20
175.8318959563
 30
0.0
 10
318.4106685579
 20
176.4871363892
 30
0.0
 10
317.7477442434
 20
177.1520677614
 30
0.0
 10
317.2687329307
 20
177.6640387691
 30
0.0
 10
316.8241371728
 20
178.2011765218
 30
0.0
 10
316.4370573854
 20
178.7734147191
 30
0.0
 10
316.1954792209
 20
179.2928721093
 30
0.0
 10
316.0815604812
 20
179.7281451445
 30
0.0
 10
316.0434868633
 20
180.0586021633
 30
0.0
 10
316.0561537431
 20
180.387905465
 30
0.0
 10
316.1173422782
 20
180.7093099535
 30
0.0
 10
316.2222389567
 20
181.0177385904
 30
0.0
 10
316.4106974128
 20
181.4082522177
 30
0.0
 10
316.7172199117
 20
181.8585297038
 30
0.0
 10
317.150759208
 20
182.3464321938
 30
0.0
 10
317.6225403387
 20
182.7989406544
 30
0.0
 10
318.2787268727
 20
183.3701690327
 30
0.0
 10
318.9528018012
 20
183.9147110915
 30
0.0
 10
319.6073702598
 20
184.4726345534
 30
0.0
 10
320.0715282101
 20
184.9037902333
 30
0.0
 10
320.4905453265
 20
185.3603167624
 30
0.0
 10
320.7801957087
 20
185.7776876748
 30
0.0
 10
320.9444549044
 20
186.1361687038
 30
0.0
 10
321.0257078299
 20
186.4128406109
 30
0.0
 10
321.058538944
 20
186.6964847094
 30
0.0
 10
321.0382034287
 20
186.9808510826
 30
0.0
 10
320.968085672
 20
187.2592616638
 30
0.0
 10
320.8158236879
 20
187.6198944733
 30
0.0
 10
320.5363953545
 20
188.0388676878
 30
0.0
 10
320.1250015958
 20
188.4928684352
 30
0.0
 10
319.665279297
 20
188.9151397731
 30
0.0
 10
319.178874562
 20
189.3157505635
 30
0.0
 10
318.6795108723
 20
189.7026708254
 30
0.0
 10
318.1780121475
 20
190.0825010218
 30
0.0
 10
317.6849536461
 20
190.4615583769
 30
0.0
 10
317.2121419787
 20
190.8451276893
 30
0.0
 10
316.7770732792
 20
191.2389888609
 30
0.0
 10
316.4592998693
 20
191.5874085826
 30
0.0
 10
316.2565005193
 20
191.8799933027
 30
0.0
 10
316.1415356904
 20
192.0995672221
 30
0.0
 10
316.0675372502
 20
192.3222337576
 30
0.0
 10
316.0414597851
 20
192.5449787069
 30
0.0
 10
316.0679843301
 20
192.7620815037
 30
0.0
 10
316.1438004184
 20
192.9671853162
 30
0.0
 10
316.2604345875
 20
193.1579633759
 30
0.0
 10
316.4641612576
 20
193.3975798352
 30
0.0
 10
316.7844471447
 20
193.661149668
 30
0.0
 10
317.2205359797
 20
193.9340917626
 30
0.0
 10
317.6934812364
 20
194.1803587045
 30
0.0
 10
318.1858479762
 20
194.408858855
 30
0.0
 10
318.6856932624
 20
194.6257714839
 30
0.0
 10
319.1825578968
 20
194.8362995889
 30
0.0
 10
319.6652850868
 20
195.0454080113
 30
0.0
 10
320.1190258996
 20
195.2572770436
 30
0.0
 10
320.466364084
 20
195.4461800504
 30
0.0
 10
320.7060664026
 20
195.6098266814
 30
0.0
 10
320.852836759
 20
195.7331321824
 30
0.0
 10
320.9660657519
 20
195.8621650975
 30
0.0
 10
321.0379390415
 20
195.998929611
 30
0.0
 10
321.0584905185
 20
196.1430023411
 30
0.0
 10
321.0212924767
 20
196.285403031
 30
0.0
 10
320.9350842788
 20
196.4185270005
 30
0.0
 10
320.8108777414
 20
196.5443442016
 30
0.0
 10
320.6551932093
 20
196.6640058079
 30
0.0
 10
320.4066723987
 20
196.8205764773
 30
0.0
 10
320.2025601374
 20
196.9229466452
 30
0.0
 10
320.060788192
 20
196.9886585555
 30
0.0
  0
SPLINE
  5
34F
100
AcDbEntity
  8
0
100
AcDbSpline
 62
7
  6
CONTINUOUS
 70
0
 71
3
 72
13
 73
9
 74
0
 42
0.0000001
 43
0.0000001
 44
0.0000000001
 40
0.0
 40
0.0
 40
0.0
 40
0.0
 40
0.2499306903
 40
0.4995981101
 40
0.6247841849
 40
0.7499276244
 40
0.8749960266
 40
1.0
 40
1.0
 40
1.0
 40
1.0
 10
184.2575136975
 20
133.5536923676
 30
0.0
 10
184.2575136975
 20
133.6297618397
 30
0.0
 10
184.2376120569
 20
133.782498393
 30
0.0
 10
184.1605478389
 20
133.9599860924
 30
0.0
 10
184.0653254284
 20
134.0797874523
 30
0.0
 10
183.976503071
 20
134.153251258
 30
0.0
 10
183.8721337578
 20
134.202774887
 30
0.0
 10
183.7955601906
 20
134.2146114365
 30
0.0
 10
183.7575136975
 20
134.2146114365
 30
0.0
  0
SPLINE
  5
350
100
AcDbEntity
  8
BEZUGSACHSEN
100
AcDbSpline
 62
7
  6
CONTINUOUS
 70
0
 71
3
 72
9
 73
5
 74
0
 42
0.0000001
 43
0.0000001
 44
0.0000000001
 40
0.0
 40
0.0
 40
0.0
 40
0.0
 40
0.5825990071
 40
1.0
 40
1.0
 40
1.0
 40
1.0
 10
180.5075136975
 20
212.1660352121
 30
0.0
 10
180.5075136975
 20
212.1356300365
 30
0.0
 10
180.5126586789
 20
212.08286528
 30
0.0
 10
180.5341706522
 20
212.0342407183
 30
0.0
 10
180.5463122561
 20
212.0161545306
 30
0.0
  0
SPLINE
  5
351
100
AcDbEntity
  8
BEZUGSACHSEN
100
AcDbSpline
 62
7
  6
CONTINUOUS
 70
0
 71
3
 72
12
 73
8
 74
0
 42
0.0000001
 43
0.0000001
 44
0.0000000001
 40
0.0
 40
0.0
 40
0.0
 40
0.0
 40
0.1078131349
 40
0.2110604942
 40
0.4307992741
 40
0.6895153141
 40
1.0
 40
1.0
 40
1.0
 40
1.0
 10
180.5463122561
 20
212.0161545306
 30
0.0
 10
180.5562386069
 20
212.0013681937
 30
0.0
 10
180.5799163673
 20
211.9750518137
 30
0.0
 10
180.6398471518
 20
211.9356709336
 30
0.0
 10
180.7339840767
 20
211.9085026295
 30
0.0
 10
180.8651558025
 20
211.9056395111
 30
0.0
 10
180.9583280344
 20
211.9235660559
 30
0.0
 10
181.0075136975
 20
211.9380987773
 30
0.0
  0
SPLINE
  5
352
100
AcDbEntity
  8
0
100
AcDbSpline
 62
7
  6
CONTINUOUS
 70
0
 71
3
 72
27
 73
23
 74
0
 42
0.0000001
 43
0.0000001
 44
0.0000000001
 40
0.0
 40
0.0
 40
0.0
 40
0.0
 40
0.0484040734
 40
0.0675478463
 40
0.0830421301
 40
0.095030866
 40
0.1042890478
 40
0.1127156304
 40
0.1227889729
 40
0.1360101634
 40
0.1528424918
 40
0.1732776493
 40
0.1970544156
 40
0.223843186
 40
0.2533428198
 40
0.3192680017
 40
0.3925889261
 40
0.4714087855
 40
0.5543345974
 40
0.64032236
 40
0.8182849836
 40
1.0
 40
1.0
 40
1.0
 40
1.0
 10
321.8890554432
 20
139.2796864912
 30
0.0
 10
321.9335865842
 20
139.2663322855
 30
0.0
 10
321.9953904161
 20
139.2460119718
 30
0.0
 10
322.06797104
 20
139.2127322401
 30
0.0
 10
322.1063991604
 20
139.1893963596
 30
0.0
 10
322.1328534994
 20
139.165665666
 30
0.0
 10
322.1469265654
 20
139.1394832348
 30
0.0
 10
322.1435901304
 20
139.1114395859
 30
0.0
 10
322.1244367073
 20
139.0866291493
 30
0.0
 10
322.0934771596
 20
139.0634301866
 30
0.0
 10
322.0504971458
 20
139.0406525676
 30
0.0
 10
321.9962337661
 20
139.0183316949
 30
0.0
 10
321.9316150032
 20
138.9964326497
 30
0.0
 10
321.8577281025
 20
138.9750544324
 30
0.0
 10
321.7439176812
 20
138.946251237
 30
0.0
 10
321.5852980839
 20
138.9127028309
 30
0.0
 10
321.37908508
 20
138.8759446423
 30
0.0
 10
321.1559546606
 20
138.8413977391
 30
0.0
 10
320.9202163658
 20
138.8090444496
 30
0.0
 10
320.5895424577
 20
138.768332254
 30
0.0
 10
320.1638281756
 20
138.7234088039
 30
0.0
 10
319.8196604193
 20
138.6933679464
 30
0.0
 10
319.645667594
 20
138.6796744141
 30
0.0
  0
SPLINE
  5
353
100
AcDbEntity
  8
GEWINDE
100
AcDbSpline
 62
7
  6
CONTINUOUS
 70
0
 71
3
 72
25
 73
21
 74
0
 42
0.0000001
 43
0.0000001
 44
0.0000000001
 40
0.0
 40
0.0
 40
0.0
 40
0.0
 40
0.0204742973
 40
0.0413113555
 40
0.0860419266
 40
0.1375894245
 40
0.1972585036
 40
0.2648571173
 40
0.339174819
 40
0.418327127
 40
0.4999997249
 40
0.5816723023
 40
0.6608247699
 40
0.735142733
 40
0.8027414095
 40
0.8624105727
 40
0.9139580832
 40
0.9586886352
 40
0.9795257005
 40
1.0
 40
1.0
 40
1.0
 40
1.0
 10
258.4575136615
 20
136.9796843019
 30
0.0
 10
258.4575136615
 20
136.9388769589
 30
0.0
 10
258.4657115194
 20
136.8563048272
 30
0.0
 10
258.5160217207
 20
136.6913337117
 30
0.0
 10
258.6468259846
 20
136.4922301553
 30
0.0
 10
258.8859951988
 20
136.2894209775
 30
0.0
 10
259.2002522702
 20
136.1175096433
 30
0.0
 10
259.5789305954
 20
135.9797872627
 30
0.0
 10
260.0087322135
 20
135.8790203843
 30
0.0
 10
260.4740318397
 20
135.8176031221
 30
0.0
 10
260.9575119398
 20
135.7969683241
 30
0.0
 10
261.4409923743
 20
135.8176028084
 30
0.0
 10
261.9062928217
 20
135.8790199585
 30
0.0
 10
262.3360954398
 20
135.9797868208
 30
0.0
 10
262.7147745688
 20
136.1175093847
 30
0.0
 10
263.0290319564
 20
136.289420808
 30
0.0
 10
263.268201326
 20
136.4922300504
 30
0.0
 10
263.3990055989
 20
136.6913335948
 30
0.0
 10
263.4493158475
 20
136.8563046734
 30
0.0
 10
263.4575137356
 20
136.9388768228
 30
0.0
 10
263.4575137356
 20
136.9796841703
 30
0.0
  0
ENDSEC
  0
SECTION
  2
OBJECTS
  0
DICTIONARY
  5
C
100
AcDbDictionary
280
0
281
1
  3
ACAD_GROUP
350
D
  3
ACAD_MLINESTYLE
350
17
  3
ACAD_LAYOUT
350
1A
  3
ACAD_PLOTSETTINGS
350
19
  3
ACAD_PLOTSTYLENAME
350
E
  0
DICTIONARY
  5
D
102
{ACAD_REACTORS
330
C
102
}
100
AcDbDictionary
280
0
281
1
  0
ACDBDICTIONARYWDFLT
  5
E
102
{ACAD_REACTORS
330
C
102
}
100
AcDbDictionary
281
1
  3
Normal
350
F
100
AcDbDictionaryWithDefault
340
F
  0
DICTIONARY
  5
17
102
{ACAD_REACTORS
330
C
102
}
100
AcDbDictionary
280
0
281
1
  3
Standard
350
18
  0
DICTIONARY
  5
19
102
{ACAD_REACTORS
330
C
102
}
100
AcDbDictionary
281
1
  0
DICTIONARY
  5
1A
102
{ACAD_REACTORS
330
C
102
}
100
AcDbDictionary
281
1
  3
Model
350
354
  3
Layout1
350
355
  0
ACDBPLACEHOLDER
  5
F
102
{ACAD_REACTORS
330
E
102
}
  0
MLINESTYLE
  5
18
102
{ACAD_REACTORS
330
17
102
}
100
AcDbMlineStyle
  2
STANDARD
 70
0
  3

 62
256
 51
90.0
 52
90.0
 71
2
 49
0.5
 62
256
  6
BYLAYER
 49
-0.5
 62
256
  6
BYLAYER
  0
LAYOUT
  5
354
102
{ACAD_REACTORS
330
1A
102
}
100
AcDbPlotSettings
  1

  2
none_device
  4
ISO_A3_(420.00_x_297.00_MM)
  6

 40
0.0
 41
0.0
 42
0.0
 43
0.0
 44
420.0
 45
297.0
 46
0.0
 47
0.0
 48
0.0
 49
0.0
140
0.0
141
0.0
142
1.0
143
1.0
 70
1024
 72
1
 73
0
 74
0
  7

 75
0
147
1.0
148
0.0
149
0.0
100
AcDbLayout
  1
Model
 70
0
 71
0
 10
0.0
 20
0.0
 11
420.0
 21
297.0
 12
0.0
 22
0.0
 32
0.0
 14
0.0
 24
0.0
 34
0.0
 15
0.0
 25
0.0
 35
0.0
146
0.0
 13
0.0
 23
0.0
 33
0.0
 16
1.0
 26
0.0
 36
0.0
 17
0.0
 27
1.0
 37
0.0
 76
0
330
217
345
0
346
0
  0
LAYOUT
  5
355
102
{ACAD_REACTORS
330
1A
102
}
100
AcDbPlotSettings
  1

  2
none_device
  4
ISO_A3_(420.00_x_297.00_MM)
  6

 40
0.0
 41
0.0
 42
0.0
 43
0.0
 44
420.0
 45
297.0
 46
0.0
 47
0.0
 48
0.0
 49
0.0
140
0.0
141
0.0
142
1.0
143
1.0
 70
0
 72
1
 73
0
 74
0
  7

 75
0
147
1.0
148
0.0
149
0.0
100
AcDbLayout
  1
Layout1
 70
0
 71
1
 10
0.0
 20
0.0
 11
420.0
 21
297.0
 12
0.0
 22
0.0
 32
0.0
 14
0.0
 24
0.0
 34
0.0
 15
0.0
 25
0.0
 35
0.0
146
0.0
 13
0.0
 23
0.0
 33
0.0
 16
1.0
 26
0.0
 36
0.0
 17
0.0
 27
1.0
 37
0.0
 76
0
330
218
345
0
346
0
  0
ENDSEC
  0
EOF
