999
DXF file: a100-140-16-6.dxf
999
Pro/ENGINEER 2010430 by Parametric Technology Corporation
  0
SECTION
  2
HEADER
  9
$ACADVER
  1
AC1021
  9
$DWGCODEPAGE
  3
ANSI_1252
  9
$EXTMAX
 10
297.0
 20
210.0
 30
0.0
  9
$EXTMIN
 10
0.0
 20
0.0
 30
0.0
  9
$LIMMIN
 10
0.0
 20
0.0
  9
$LIMMAX
 10
297.0
 20
210.0
  9
$VIEWCTR
 10
148.5
 20
105.0
  9
$VIEWSIZE
 40
210.0
  9
$CLAYER
  8
0
  9
$LTSCALE
 40
16.335
  9
$CELTYPE
  6
BYLAYER
  9
$DIMSCALE
 40
1.0
  9
$DIMASZ
 40
3.5
  9
$DIMEXO
 40
1.85625
  9
$DIMDLI
 40
11.286
  9
$DIMEXE
 40
5.346
  9
$DIMCEN
 40
2.673
  9
$DIMLFAC
 40
1.0
  9
$DIMBLK
  1
_FILLED
  9
$DIMTXT
 40
3.5
  9
$DIMTOL
 70
1
  9
$DIMLIM
 70
0
  9
$DIMTFAC
 40
1.0
  9
$DIMTP
 40
0.005
  9
$DIMTM
 40
0.005
  9
$PDMODE
 70
3
  9
$PDSIZE
 40
0.3125
  9
$HANDSEED
  5
31A
  9
$TILEMODE
 70
1
  9
$MEASUREMENT
 70
1
  9
$INSUNITS
 70
4
  0
ENDSEC
  0
SECTION
  2
CLASSES
  0
CLASS
  1
ACDBDICTIONARYWDFLT
  2
AcDbDictionaryWithDefault
  3
AutoCAD 2000
 90
0
 91
1
280
0
281
0
  0
CLASS
  1
ACDBPLACEHOLDER
  2
AcDbPlaceHolder
  3
AutoCAD 2000
 90
0
 91
1
280
0
281
0
  0
CLASS
  1
LAYOUT
  2
AcDbLayout
  3
AutoCAD 2000
 90
0
 91
0
280
0
281
0
  0
ENDSEC
  0
SECTION
  2
TABLES
  0
TABLE
  2
VPORT
  5
8
100
AcDbSymbolTable
 70
2
  0
VPORT
  5
1F4
100
AcDbSymbolTableRecord
100
AcDbViewportTableRecord
  2
*ACTIVE
 70
0
 10
0.0
 20
0.0
 11
1.0
 21
1.0
 12
148.5
 22
105.0
 13
0.0
 23
0.0
 14
1.0
 24
1.0
 15
0.0
 25
0.0
 16
0.0
 26
0.0
 36
1.0
 17
0.0
 27
0.0
 37
0.0
 40
210.0
 41
1.4142857143
 42
50.0
 43
0.0
 44
0.0
 50
0.0
 51
0.0
 71
0
 72
100
 73
1
 74
1
 75
0
 76
0
 77
0
 78
0
  0
ENDTAB
  0
TABLE
  2
LTYPE
  5
5
100
AcDbSymbolTable
 70
6
  0
LTYPE
  5
14
100
AcDbSymbolTableRecord
100
AcDbLinetypeTableRecord
  2
BYBLOCK
 70
0
  3

 72
65
 73
0
 40
0.0
  0
LTYPE
  5
15
100
AcDbSymbolTableRecord
100
AcDbLinetypeTableRecord
  2
BYLAYER
 70
0
  3

 72
65
 73
0
 40
0.0
  0
LTYPE
  5
16
100
AcDbSymbolTableRecord
100
AcDbLinetypeTableRecord
  2
CONTINUOUS
 70
64
  3
Solid line
 72
65
 73
0
 40
0.0
  0
LTYPE
  5
1F5
100
AcDbSymbolTableRecord
100
AcDbLinetypeTableRecord
  2
CENTER
 70
64
  3
____ _ ____ _ ____ _ ____ _ ____ _ ____ _ ____
 72
65
 73
4
 40
0.6
 49
0.375
 74
0
 49
-0.075
 74
0
 49
0.075
 74
0
 49
-0.075
 74
0
  0
LTYPE
  5
1F6
100
AcDbSymbolTableRecord
100
AcDbLinetypeTableRecord
  2
HIDDEN
 70
64
  3
- - - - - - - - - - - - - - - - - - - -
 72
65
 73
2
 40
0.2
 49
0.1
 74
0
 49
-0.1
 74
0
  0
LTYPE
  5
1F7
100
AcDbSymbolTableRecord
100
AcDbLinetypeTableRecord
  2
PHANTOM
 70
64
  3
_____ _ _ _____ _ _ _____ _ _ _____
 72
65
 73
6
 40
0.8
 49
0.45
 74
0
 49
-0.05
 74
0
 49
0.1
 74
0
 49
-0.05
 74
0
 49
0.1
 74
0
 49
-0.05
 74
0
  0
LTYPE
  5
1F8
100
AcDbSymbolTableRecord
100
AcDbLinetypeTableRecord
  2
DOT
 70
64
  3
. . . . . . . . . . . . . . . . . . . .
 72
65
 73
2
 40
0.2
 49
0.1
 74
0
 49
-0.1
 74
0
  0
LTYPE
  5
1F9
100
AcDbSymbolTableRecord
100
AcDbLinetypeTableRecord
  2
DASHED
 70
64
  3
- - - - - - - - - - - - - - - - - - - -
 72
65
 73
2
 40
0.2
 49
0.1
 74
0
 49
-0.1
 74
0
  0
ENDTAB
  0
TABLE
  2
LAYER
  5
2
100
AcDbSymbolTable
 70
36
  0
LAYER
  5
10
100
AcDbSymbolTableRecord
100
AcDbLayerTableRecord
  2
0
 70
0
 62
7
  6
CONTINUOUS
370
-3
390
F
  0
LAYER
  5
1FA
100
AcDbSymbolTableRecord
100
AcDbLayerTableRecord
  2
DEFAULT_1
 70
0
 62
7
  6
CENTER
370
-3
390
F
  0
LAYER
  5
1FB
100
AcDbSymbolTableRecord
100
AcDbLayerTableRecord
  2
DEFAULT_2
 70
0
 62
8
  6
HIDDEN
370
-3
390
F
  0
LAYER
  5
1FC
100
AcDbSymbolTableRecord
100
AcDbLayerTableRecord
  2
DEFAULT_3
 70
0
 62
7
  6
PHANTOM
370
-3
390
F
  0
LAYER
  5
1FD
100
AcDbSymbolTableRecord
100
AcDbLayerTableRecord
  2
ANALYSEN
 70
0
 62
7
  6
CONTINUOUS
370
-3
390
F
  0
LAYER
  5
1FE
100
AcDbSymbolTableRecord
100
AcDbLayerTableRecord
  2
AUSSENKONTUR
 70
0
 62
7
  6
CONTINUOUS
370
-3
390
F
  0
LAYER
  5
1FF
100
AcDbSymbolTableRecord
100
AcDbLayerTableRecord
  2
BEZUGSACHSEN
 70
0
 62
7
  6
CONTINUOUS
370
-3
390
F
  0
LAYER
  5
200
100
AcDbSymbolTableRecord
100
AcDbLayerTableRecord
  2
BEZUGSACHSENKENNZEICHEN
 70
0
 62
7
  6
CONTINUOUS
370
-3
390
F
  0
LAYER
  5
201
100
AcDbSymbolTableRecord
100
AcDbLayerTableRecord
  2
BEZUGSEBENEN
 70
0
 62
7
  6
CONTINUOUS
370
-3
390
F
  0
LAYER
  5
202
100
AcDbSymbolTableRecord
100
AcDbLayerTableRecord
  2
BEZUGSPUNKTE
 70
0
 62
7
  6
CONTINUOUS
370
-3
390
F
  0
LAYER
  5
203
100
AcDbSymbolTableRecord
100
AcDbLayerTableRecord
  2
BOHRUNGEN
 70
0
 62
7
  6
CONTINUOUS
370
-3
390
F
  0
LAYER
  5
204
100
AcDbSymbolTableRecord
100
AcDbLayerTableRecord
  2
FASEN
 70
0
 62
7
  6
CONTINUOUS
370
-3
390
F
  0
LAYER
  5
205
100
AcDbSymbolTableRecord
100
AcDbLayerTableRecord
  2
FLAECHEN
 70
0
 62
7
  6
CONTINUOUS
370
-3
390
F
  0
LAYER
  5
206
100
AcDbSymbolTableRecord
100
AcDbLayerTableRecord
  2
GEWINDE
 70
0
 62
7
  6
CONTINUOUS
370
-3
390
F
  0
LAYER
  5
207
100
AcDbSymbolTableRecord
100
AcDbLayerTableRecord
  2
HILFEN
 70
0
 62
7
  6
CONTINUOUS
370
-3
390
F
  0
LAYER
  5
208
100
AcDbSymbolTableRecord
100
AcDbLayerTableRecord
  2
INNENKONTUR
 70
0
 62
7
  6
CONTINUOUS
370
-3
390
F
  0
LAYER
  5
209
100
AcDbSymbolTableRecord
100
AcDbLayerTableRecord
  2
KURVEN
 70
0
 62
7
  6
CONTINUOUS
370
-3
390
F
  0
LAYER
  5
20A
100
AcDbSymbolTableRecord
100
AcDbLayerTableRecord
  2
MAKINO
 70
0
 62
7
  6
CONTINUOUS
370
-3
390
F
  0
LAYER
  5
20B
100
AcDbSymbolTableRecord
100
AcDbLayerTableRecord
  2
OELVERDR_RILLE
 70
0
 62
7
  6
CONTINUOUS
370
-3
390
F
  0
LAYER
  5
20C
100
AcDbSymbolTableRecord
100
AcDbLayerTableRecord
  2
PLATZIERUNG
 70
0
 62
7
  6
CONTINUOUS
370
-3
390
F
  0
LAYER
  5
20D
100
AcDbSymbolTableRecord
100
AcDbLayerTableRecord
  2
PUNKTE
 70
0
 62
7
  6
CONTINUOUS
370
-3
390
F
  0
LAYER
  5
20E
100
AcDbSymbolTableRecord
100
AcDbLayerTableRecord
  2
RUNDUNGEN
 70
0
 62
7
  6
CONTINUOUS
370
-3
390
F
  0
LAYER
  5
20F
100
AcDbSymbolTableRecord
100
AcDbLayerTableRecord
  2
TEIL_STARTBEZUEGE
 70
0
 62
7
  6
CONTINUOUS
370
-3
390
F
  0
LAYER
  5
210
100
AcDbSymbolTableRecord
100
AcDbLayerTableRecord
  2
VERERBUNG
 70
0
 62
7
  6
CONTINUOUS
370
-3
390
F
  0
LAYER
  5
211
100
AcDbSymbolTableRecord
100
AcDbLayerTableRecord
  2
VOLUMEN
 70
0
 62
7
  6
CONTINUOUS
370
-3
390
F
  0
LAYER
  5
212
100
AcDbSymbolTableRecord
100
AcDbLayerTableRecord
  2
ZEICHNUNG
 70
0
 62
7
  6
CONTINUOUS
370
-3
390
F
  0
LAYER
  5
213
100
AcDbSymbolTableRecord
100
AcDbLayerTableRecord
  2
ZEICHNUNGSBEMASSUNGEN
 70
0
 62
7
  6
CONTINUOUS
370
-3
390
F
  0
ENDTAB
  0
TABLE
  2
STYLE
  5
3
100
AcDbSymbolTable
 70
1
  0
STYLE
  5
11
100
AcDbSymbolTableRecord
100
AcDbTextStyleTableRecord
  2
STANDARD
 70
0
 40
0.0
 41
0.7
 50
0.0
 71
0
 42
0.2
  3
txt
  4

  0
STYLE
  5
214
100
AcDbSymbolTableRecord
100
AcDbTextStyleTableRecord
  2
TEXTSTYLE_1
 70
0
 40
0.0
 41
0.8
 50
0.0
 71
0
 42
0.2
  3
gdt
  4

  0
STYLE
  5
215
100
AcDbSymbolTableRecord
100
AcDbTextStyleTableRecord
  2
TEXTSTYLE_2
 70
0
 40
0.0
 41
0.7
 50
0.0
 71
0
 42
0.2
  3
gdt
  4

  0
ENDTAB
  0
TABLE
  2
VIEW
  5
6
100
AcDbSymbolTable
 70
0
  0
ENDTAB
  0
TABLE
  2
UCS
  5
7
100
AcDbSymbolTable
 70
0
  0
ENDTAB
  0
TABLE
  2
APPID
  5
9
100
AcDbSymbolTable
 70
1
  0
APPID
  5
216
100
AcDbSymbolTableRecord
100
AcDbRegAppTableRecord
  2
ACAD
 70
0
  0
ENDTAB
  0
TABLE
  2
BLOCK_RECORD
  5
1
100
AcDbSymbolTable
 70
0
  0
BLOCK_RECORD
  5
217
100
AcDbSymbolTableRecord
100
AcDbBlockTableRecord
  2
*Model_Space
  0
BLOCK_RECORD
  5
218
100
AcDbSymbolTableRecord
100
AcDbBlockTableRecord
  2
*Paper_Space
  0
BLOCK_RECORD
  5
219
100
AcDbSymbolTableRecord
100
AcDbBlockTableRecord
  2
_FILLED
  0
BLOCK_RECORD
  5
21A
100
AcDbSymbolTableRecord
100
AcDbBlockTableRecord
  2
*D0
  0
BLOCK_RECORD
  5
21B
100
AcDbSymbolTableRecord
100
AcDbBlockTableRecord
  2
*D1
  0
BLOCK_RECORD
  5
21C
100
AcDbSymbolTableRecord
100
AcDbBlockTableRecord
  2
*D2
  0
BLOCK_RECORD
  5
21D
100
AcDbSymbolTableRecord
100
AcDbBlockTableRecord
  2
*D3
  0
BLOCK_RECORD
  5
21E
100
AcDbSymbolTableRecord
100
AcDbBlockTableRecord
  2
*D4
  0
BLOCK_RECORD
  5
21F
100
AcDbSymbolTableRecord
100
AcDbBlockTableRecord
  2
*D5
  0
ENDTAB
  0
TABLE
  2
DIMSTYLE
  5
A
100
AcDbSymbolTable
 70
1
100
AcDbDimStyleTable
 71
0
  0
DIMSTYLE
105
220
100
AcDbSymbolTableRecord
100
AcDbDimStyleTableRecord
  2
STANDARD
 70
0
  3

  4

 40
1.0
 41
3.5
 42
0.0625
 43
0.38
 44
0.18
 45
0.0
 46
0.0
 47
0.005
 48
0.005
140
3.5
141
0.09
142
0.0
143
25.4
144
1.0
145
0.0
146
1.0
147
0.09
 71
1.0
 72
0.0
 73
0
 74
0
 75
0
 76
0
 77
1
 78
8
170
0
171
2
172
0
173
0
174
0
175
0
176
0
177
0
178
5
270
2
271
3
272
3
273
2
274
2
275
0
280
0
281
0
282
0
283
1
284
8
285
0
286
0
287
3
288
0
340
11
341
219
342
219
343
219
344
219
  0
DIMSTYLE
105
221
100
AcDbSymbolTableRecord
100
AcDbDimStyleTableRecord
  2
DIMSTYLE_1
 70
0
  3

  4

 40
1.0
 41
3.5
 42
0.0625
 43
0.38
 44
0.18
 45
0.0
 46
0.0
 47
0.3
 48
0.3
140
3.5
141
0.09
142
0.0
143
25.4
144
1.0
145
0.0
146
1.0
147
0.09
 71
0.0
 72
0.0
 73
0
 74
0
 75
0
 76
0
 77
1
 78
8
170
0
171
2
172
0
173
0
174
0
175
0
176
0
177
0
178
5
270
2
271
3
272
3
273
2
274
2
275
0
280
0
281
0
282
0
283
1
284
8
285
0
286
0
287
3
288
0
340
11
341
219
342
219
343
219
344
219
  0
DIMSTYLE
105
222
100
AcDbSymbolTableRecord
100
AcDbDimStyleTableRecord
  2
DIMSTYLE_2
 70
0
  3

  4

 40
1.0
 41
3.5
 42
0.0625
 43
0.38
 44
0.18
 45
0.0
 46
0.0
 47
0.25
 48
0.25
140
3.5
141
0.09
142
0.0
143
25.4
144
1.0
145
0.0
146
1.0
147
0.09
 71
0.0
 72
0.0
 73
0
 74
0
 75
0
 76
0
 77
1
 78
8
170
0
171
2
172
0
173
0
174
0
175
0
176
0
177
0
178
5
270
2
271
2
272
2
273
2
274
2
275
0
280
0
281
0
282
0
283
1
284
8
285
0
286
0
287
3
288
0
340
11
341
219
342
219
343
219
344
219
  0
DIMSTYLE
105
223
100
AcDbSymbolTableRecord
100
AcDbDimStyleTableRecord
  2
DIMSTYLE_3
 70
0
  3

  4

 40
1.0
 41
3.5
 42
0.0625
 43
0.38
 44
0.18
 45
0.0
 46
0.0
 47
0.0
 48
0.1
140
3.5
141
0.09
142
0.0
143
25.4
144
1.0
145
0.0
146
1.0
147
0.09
 71
0.0
 72
0.0
 73
0
 74
0
 75
0
 76
0
 77
1
 78
8
170
0
171
2
172
0
173
0
174
0
175
0
176
0
177
0
178
5
270
2
271
2
272
2
273
2
274
2
275
0
280
0
281
0
282
0
283
1
284
8
285
0
286
0
287
3
288
0
340
11
341
219
342
219
343
219
344
219
  0
DIMSTYLE
105
224
100
AcDbSymbolTableRecord
100
AcDbDimStyleTableRecord
  2
DIMSTYLE_4
 70
0
  3

  4

 40
1.0
 41
3.5
 42
0.0625
 43
0.38
 44
0.18
 45
0.0
 46
0.0
 47
0.5
 48
0.5
140
3.5
141
0.09
142
0.0
143
25.4
144
1.0
145
0.0
146
1.0
147
0.09
 71
0.0
 72
0.0
 73
0
 74
0
 75
0
 76
0
 77
1
 78
8
170
0
171
2
172
0
173
0
174
0
175
0
176
0
177
0
178
5
270
2
271
2
272
2
273
2
274
2
275
0
280
0
281
0
282
0
283
1
284
8
285
0
286
0
287
3
288
0
340
11
341
219
342
219
343
219
344
219
  0
DIMSTYLE
105
225
100
AcDbSymbolTableRecord
100
AcDbDimStyleTableRecord
  2
DIMSTYLE_5
 70
0
  3

  4

 40
1.0
 41
3.5
 42
0.0625
 43
0.38
 44
0.18
 45
0.0
 46
0.0
 47
0.3
 48
0.3
140
3.5
141
0.09
142
0.0
143
25.4
144
1.0
145
0.0
146
1.0
147
0.09
 71
0.0
 72
0.0
 73
0
 74
0
 75
0
 76
0
 77
1
 78
8
170
0
171
2
172
0
173
0
174
0
175
0
176
0
177
0
178
5
270
2
271
2
272
2
273
2
274
2
275
0
280
0
281
0
282
0
283
1
284
8
285
0
286
0
287
3
288
0
340
11
341
219
342
219
343
219
344
219
  0
DIMSTYLE
105
226
100
AcDbSymbolTableRecord
100
AcDbDimStyleTableRecord
  2
DIMSTYLE_6
 70
0
  3

  4

 40
1.0
 41
3.5
 42
0.0625
 43
0.38
 44
0.18
 45
0.0
 46
0.0
 47
0.2
 48
0.2
140
3.5
141
0.09
142
0.0
143
25.4
144
1.0
145
0.0
146
1.0
147
0.09
 71
0.0
 72
0.0
 73
0
 74
0
 75
0
 76
0
 77
1
 78
8
170
0
171
2
172
0
173
0
174
0
175
0
176
0
177
0
178
5
270
2
271
2
272
2
273
2
274
2
275
0
280
0
281
0
282
0
283
1
284
8
285
0
286
0
287
3
288
0
340
11
341
219
342
219
343
219
344
219
  0
ENDTAB
  0
ENDSEC
  0
SECTION
  2
BLOCKS
  0
BLOCK
  5
20
100
AcDbEntity
  8
0
100
AcDbBlockBegin
  2
*Model_Space
 70
0
 10
0.0
 20
0.0
 30
0.0
  3
*Model_Space
  1

  0
ENDBLK
  5
21
100
AcDbEntity
  8
0
100
AcDbBlockEnd
  0
BLOCK
  5
1C
100
AcDbEntity
  8
0
100
AcDbBlockBegin
  2
*Paper_Space
 70
0
 10
0.0
 20
0.0
 30
0.0
  3
*Paper_Space
  1

  0
ENDBLK
  5
1D
100
AcDbEntity
  8
0
100
AcDbBlockEnd
  0
BLOCK
  5
227
100
AcDbEntity
  8
0
100
AcDbBlockBegin
  2
_FILLED
 70
64
 10
0.0
 20
0.0
  3
_FILLED
  1

  0
SOLID
  5
228
100
AcDbEntity
  8
0
  6
BYBLOCK
 62
0
100
AcDbTrace
 10
0.0
 20
0.0
 11
-1.0
 21
0.125
 12
-1.0
 22
-0.125
 13
-1.0
 23
-0.125
  0
ENDBLK
  5
229
100
AcDbEntity
  8
0
  6
BYBLOCK
 62
0
100
AcDbBlockEnd
  0
BLOCK
  5
22A
100
AcDbEntity
  8
0
100
AcDbBlockBegin
 62
2
  6
CONTINUOUS
  2
*D0
 70
65
 10
0.0
 20
0.0
  3
*D0
  1

  0
MTEXT
  5
22B
100
AcDbEntity
  8
0
100
AcDbMText
 62
5
  6
CONTINUOUS
  7
STANDARD
 71
2
 72
1
 10
194.0039845554
 20
190.5068665211
 30
0.0
 11
1.0
 21
0.0
 31
0.0
 44
0.9
  1
100
 40
3.5
 41
8.490234375
  0
LINE
  5
22C
100
AcDbEntity
  8
0
100
AcDbLine
 62
2
  6
CONTINUOUS
 10
244.0039845554
 20
120.1574598882
 11
244.0039845554
 21
187.6318665211
  0
LINE
  5
22D
100
AcDbEntity
  8
0
100
AcDbLine
 62
2
  6
CONTINUOUS
 10
144.0039845554
 20
172.5425432853
 11
144.0039845554
 21
187.6318665211
  0
LINE
  5
22E
100
AcDbEntity
  8
0
100
AcDbLine
 62
2
  6
CONTINUOUS
 10
244.0039845554
 20
186.1318665211
 11
194.0039845554
 21
186.1318665211
  0
LINE
  5
22F
100
AcDbEntity
  8
0
100
AcDbLine
 62
2
  6
CONTINUOUS
 10
144.0039845554
 20
186.1318665211
 11
194.0039845554
 21
186.1318665211
  0
INSERT
  5
230
100
AcDbEntity
  8
0
100
AcDbBlockReference
 62
2
  6
CONTINUOUS
  2
_FILLED
 10
244.0039845554
 20
186.1318665211
 41
3.5
 42
3.5
 43
3.5
  0
INSERT
  5
231
100
AcDbEntity
  8
0
100
AcDbBlockReference
 62
2
  6
CONTINUOUS
  2
_FILLED
 10
144.0039845554
 20
186.1318665211
 41
3.5
 42
3.5
 43
3.5
 50
180.0
  0
ENDBLK
  5
232
100
AcDbEntity
  8
0
  6
BYBLOCK
 62
0
100
AcDbBlockEnd
  0
BLOCK
  5
233
100
AcDbEntity
  8
0
100
AcDbBlockBegin
 62
2
  6
CONTINUOUS
  2
*D1
 70
65
 10
0.0
 20
0.0
  3
*D1
  1

  0
MTEXT
  5
234
100
AcDbEntity
  8
0
100
AcDbMText
 62
5
  6
CONTINUOUS
  7
STANDARD
 71
2
 72
1
 10
219.5182549727
 20
163.4243116082
 30
0.0
 11
0.1276592063
 21
0.9918180917
 31
0.0
 44
0.9
  1
4\Fgdt;{\Fgdt;~}\Ftxt;30'
 40
3.5
 41
12.2454427083
  0
LINE
  5
235
100
AcDbEntity
  8
0
100
AcDbLine
 62
2
  6
CONTINUOUS
 10
243.0824436511
 20
145.7299867302
 11
223.3729019385
 21
147.2811613038
  0
LINE
  5
236
100
AcDbEntity
  8
0
100
AcDbLine
 62
2
  6
CONTINUOUS
 10
226.7395062089
 20
122.6574598882
 11
222.4054340749
 21
122.6574598882
  0
ARC
  5
237
100
AcDbEntity
  8
0
100
AcDbCircle
 62
2
  6
CONTINUOUS
 10
536.2466934874
 20
122.6574598882
 40
312.3412594125
100
AcDbArc
 50
172.6656523434
 51
180.0
  0
SOLID
  5
238
100
AcDbEntity
  8
0
100
AcDbTrace
 62
2
  6
CONTINUOUS
 10
225.0495616314
 20
143.640896547
 11
224.8682779391
 21
147.1634726602
 12
224.1768880131
 22
143.7046598262
 13
224.1768880131
 23
143.7046598262
  0
SOLID
  5
239
100
AcDbEntity
  8
0
100
AcDbTrace
 62
2
  6
CONTINUOUS
 10
223.4875508006
 20
126.1598561848
 11
223.9054340749
 21
122.6574598882
 12
224.3625370666
 22
126.1549537202
 13
224.3625370666
 23
126.1549537202
  0
ENDBLK
  5
23A
100
AcDbEntity
  8
0
  6
BYBLOCK
 62
0
100
AcDbBlockEnd
  0
BLOCK
  5
23B
100
AcDbEntity
  8
0
100
AcDbBlockBegin
 62
2
  6
CONTINUOUS
  2
*D2
 70
65
 10
0.0
 20
0.0
  3
*D2
  1

  0
MTEXT
  5
23C
100
AcDbEntity
  8
0
100
AcDbMText
 62
5
  6
CONTINUOUS
  7
TEXTSTYLE_2
 71
2
 72
1
 10
259.3874172161
 20
122.6574598882
 30
0.0
 11
0.0
 21
1.0
 31
0.0
 44
0.9
  1
{\Fgdt;n}\Ftxt;46
 40
3.5
 41
10.3268229167
  0
LINE
  5
23D
100
AcDbEntity
  8
0
100
AcDbLine
 62
2
  6
CONTINUOUS
 10
244.0039845554
 20
99.6574598882
 11
265.2624172161
 21
99.6574598882
  0
LINE
  5
23E
100
AcDbEntity
  8
0
100
AcDbLine
 62
2
  6
CONTINUOUS
 10
244.0039845554
 20
145.6574598882
 11
265.2624172161
 21
145.6574598882
  0
LINE
  5
23F
100
AcDbEntity
  8
0
100
AcDbLine
 62
2
  6
CONTINUOUS
 10
263.7624172161
 20
99.6574598882
 11
263.7624172161
 21
122.6574598882
  0
LINE
  5
240
100
AcDbEntity
  8
0
100
AcDbLine
 62
2
  6
CONTINUOUS
 10
263.7624172161
 20
145.6574598882
 11
263.7624172161
 21
122.6574598882
  0
INSERT
  5
241
100
AcDbEntity
  8
0
100
AcDbBlockReference
 62
2
  6
CONTINUOUS
  2
_FILLED
 10
263.7624172161
 20
99.6574598882
 41
3.5
 42
3.5
 43
3.5
 50
270.0
  0
INSERT
  5
242
100
AcDbEntity
  8
0
100
AcDbBlockReference
 62
2
  6
CONTINUOUS
  2
_FILLED
 10
263.7624172161
 20
145.6574598882
 41
3.5
 42
3.5
 43
3.5
 50
90.0
  0
ENDBLK
  5
243
100
AcDbEntity
  8
0
  6
BYBLOCK
 62
0
100
AcDbBlockEnd
  0
BLOCK
  5
244
100
AcDbEntity
  8
0
100
AcDbBlockBegin
 62
2
  6
CONTINUOUS
  2
*D3
 70
65
 10
0.0
 20
0.0
  3
*D3
  1

  0
MTEXT
  5
245
100
AcDbEntity
  8
0
100
AcDbMText
 62
5
  6
CONTINUOUS
  7
STANDARD
 71
2
 72
1
 10
169.0039845554
 20
196.3522392006
 30
0.0
 11
1.0
 21
0.0
 31
0.0
 44
0.9
  1
150
 40
3.5
 41
8.490234375
  0
LINE
  5
246
100
AcDbEntity
  8
0
100
AcDbLine
 62
2
  6
CONTINUOUS
 10
94.0039845554
 20
155.9467585274
 11
94.0039845554
 21
193.4772392006
  0
LINE
  5
247
100
AcDbEntity
  8
0
100
AcDbLine
 62
2
  6
CONTINUOUS
 10
244.0039845554
 20
122.6574598882
 11
244.0039845554
 21
193.4772392006
  0
LINE
  5
248
100
AcDbEntity
  8
0
100
AcDbLine
 62
2
  6
CONTINUOUS
 10
94.0039845554
 20
191.9772392006
 11
169.0039845554
 21
191.9772392006
  0
LINE
  5
249
100
AcDbEntity
  8
0
100
AcDbLine
 62
2
  6
CONTINUOUS
 10
244.0039845554
 20
191.9772392006
 11
169.0039845554
 21
191.9772392006
  0
INSERT
  5
24A
100
AcDbEntity
  8
0
100
AcDbBlockReference
 62
2
  6
CONTINUOUS
  2
_FILLED
 10
94.0039845554
 20
191.9772392006
 41
3.5
 42
3.5
 43
3.5
 50
180.0
  0
INSERT
  5
24B
100
AcDbEntity
  8
0
100
AcDbBlockReference
 62
2
  6
CONTINUOUS
  2
_FILLED
 10
244.0039845554
 20
191.9772392006
 41
3.5
 42
3.5
 43
3.5
  0
ENDBLK
  5
24C
100
AcDbEntity
  8
0
  6
BYBLOCK
 62
0
100
AcDbBlockEnd
  0
BLOCK
  5
24D
100
AcDbEntity
  8
0
100
AcDbBlockBegin
 62
2
  6
CONTINUOUS
  2
*D4
 70
65
 10
0.0
 20
0.0
  3
*D4
  1

  0
MTEXT
  5
24E
100
AcDbEntity
  8
0
100
AcDbMText
 62
5
  6
CONTINUOUS
  7
STANDARD
 71
2
 72
1
 10
208.5039845554
 20
184.5428780238
 30
0.0
 11
1.0
 21
0.0
 31
0.0
 44
0.9
  1
71
 40
3.5
 41
5.66015625
  0
LINE
  5
24F
100
AcDbEntity
  8
0
100
AcDbLine
 62
2
  6
CONTINUOUS
 10
244.0039845554
 20
122.6574598882
 11
244.0039845554
 21
181.6678780238
  0
LINE
  5
250
100
AcDbEntity
  8
0
100
AcDbLine
 62
2
  6
CONTINUOUS
 10
173.0039845554
 20
170.5212618084
 11
173.0039845554
 21
181.6678780238
  0
LINE
  5
251
100
AcDbEntity
  8
0
100
AcDbLine
 62
2
  6
CONTINUOUS
 10
244.0039845554
 20
180.1678780238
 11
208.5039845554
 21
180.1678780238
  0
LINE
  5
252
100
AcDbEntity
  8
0
100
AcDbLine
 62
2
  6
CONTINUOUS
 10
173.0039845554
 20
180.1678780238
 11
208.5039845554
 21
180.1678780238
  0
INSERT
  5
253
100
AcDbEntity
  8
0
100
AcDbBlockReference
 62
2
  6
CONTINUOUS
  2
_FILLED
 10
244.0039845554
 20
180.1678780238
 41
3.5
 42
3.5
 43
3.5
  0
INSERT
  5
254
100
AcDbEntity
  8
0
100
AcDbBlockReference
 62
2
  6
CONTINUOUS
  2
_FILLED
 10
173.0039845554
 20
180.1678780238
 41
3.5
 42
3.5
 43
3.5
 50
180.0
  0
ENDBLK
  5
255
100
AcDbEntity
  8
0
  6
BYBLOCK
 62
0
100
AcDbBlockEnd
  0
BLOCK
  5
256
100
AcDbEntity
  8
0
100
AcDbBlockBegin
 62
2
  6
CONTINUOUS
  2
*D5
 70
65
 10
0.0
 20
0.0
  3
*D5
  1

  0
MTEXT
  5
257
100
AcDbEntity
  8
0
100
AcDbMText
 62
5
  6
CONTINUOUS
  7
TEXTSTYLE_2
 71
2
 72
1
 10
251.3353568418
 20
122.6574598882
 30
0.0
 11
0.0
 21
1.0
 31
0.0
 44
0.9
  1
{\Fgdt;n}\Ftxt;16
 40
3.5
 41
10.3268229167
  0
LINE
  5
258
100
AcDbEntity
  8
0
100
AcDbLine
 62
2
  6
CONTINUOUS
 10
244.0039845554
 20
114.6574598882
 11
257.2103568418
 21
114.6574598882
  0
LINE
  5
259
100
AcDbEntity
  8
0
100
AcDbLine
 62
2
  6
CONTINUOUS
 10
244.0039845554
 20
130.6574598882
 11
257.2103568418
 21
130.6574598882
  0
LINE
  5
25A
100
AcDbEntity
  8
0
100
AcDbLine
 62
2
  6
CONTINUOUS
 10
255.7103568418
 20
114.6574598882
 11
255.7103568418
 21
122.6574598882
  0
LINE
  5
25B
100
AcDbEntity
  8
0
100
AcDbLine
 62
2
  6
CONTINUOUS
 10
255.7103568418
 20
130.6574598882
 11
255.7103568418
 21
122.6574598882
  0
INSERT
  5
25C
100
AcDbEntity
  8
0
100
AcDbBlockReference
 62
2
  6
CONTINUOUS
  2
_FILLED
 10
255.7103568418
 20
114.6574598882
 41
3.5
 42
3.5
 43
3.5
 50
270.0
  0
INSERT
  5
25D
100
AcDbEntity
  8
0
100
AcDbBlockReference
 62
2
  6
CONTINUOUS
  2
_FILLED
 10
255.7103568418
 20
130.6574598882
 41
3.5
 42
3.5
 43
3.5
 50
90.0
  0
ENDBLK
  5
25E
100
AcDbEntity
  8
0
  6
BYBLOCK
 62
0
100
AcDbBlockEnd
  0
ENDSEC
  0
SECTION
  2
ENTITIES
  0
DIMENSION
  5
25F
100
AcDbEntity
  8
0
100
AcDbDimension
 62
2
  6
CONTINUOUS
  2
*D0
 10
144.0039845554
 20
186.1318665211
 11
189.7588673679
 21
188.7568665211
 70
160
 71
2
 42
100.0
  3
DIMSTYLE_1
100
AcDbAlignedDimension
 13
244.0039845554
 23
120.1574598882
 14
144.0039845554
 24
172.5425432853
 50
180.0
100
AcDbRotatedDimension
  0
DIMENSION
  5
260
100
AcDbEntity
  8
0
100
AcDbDimension
 62
2
  6
CONTINUOUS
  2
*D1
 10
222.4054340749
 20
122.6574598882
 11
219.8286362334
 21
161.1370741812
 70
162
 71
2
 42
0.0785398163
  3
DIMSTYLE_2
100
AcDb2LineAngularDimension
 13
223.3729019385
 23
147.2811613038
 14
243.0824436511
 24
145.7299867302
 15
226.7395062089
 25
122.6574598882
 16
224.1462378665
 26
134.9199201867
  0
DIMENSION
  5
261
100
AcDbEntity
  8
0
100
AcDbDimension
 62
2
  6
CONTINUOUS
  2
*D2
 10
263.7624172161
 20
145.6574598882
 11
262.2942114379
 21
120.3494235799
 70
160
 71
2
 42
46.0
  1
%%c<>
  3
DIMSTYLE_3
100
AcDbAlignedDimension
 13
244.0039845554
 23
99.6574598882
 14
244.0039845554
 24
145.6574598882
 50
90.0
100
AcDbRotatedDimension
  0
DIMENSION
  5
262
100
AcDbEntity
  8
0
100
AcDbDimension
 62
2
  6
CONTINUOUS
  2
*D3
 10
244.0039845554
 20
191.9772392006
 11
164.7588673679
 21
194.6022392006
 70
160
 71
2
 42
150.0
  3
DIMSTYLE_4
100
AcDbAlignedDimension
 13
94.0039845554
 23
155.9467585274
 14
244.0039845554
 24
122.6574598882
100
AcDbRotatedDimension
  0
DIMENSION
  5
263
100
AcDbEntity
  8
0
100
AcDbDimension
 62
2
  6
CONTINUOUS
  2
*D4
 10
173.0039845554
 20
180.1678780238
 11
205.6739064304
 21
182.7928780238
 70
160
 71
2
 42
71.0
  3
DIMSTYLE_5
100
AcDbAlignedDimension
 13
244.0039845554
 23
122.6574598882
 14
173.0039845554
 24
170.5212618084
 50
180.0
100
AcDbRotatedDimension
  0
DIMENSION
  5
264
100
AcDbEntity
  8
0
100
AcDbDimension
 62
2
  6
CONTINUOUS
  2
*D5
 10
255.7103568418
 20
130.6574598882
 11
254.2421510637
 21
120.3494235799
 70
160
 71
2
 42
16.0
  1
%%c<>
  3
DIMSTYLE_6
100
AcDbAlignedDimension
 13
244.0039845554
 23
114.6574598882
 14
244.0039845554
 24
130.6574598882
 50
90.0
100
AcDbRotatedDimension
  0
MTEXT
  5
265
100
AcDbEntity
  8
0
100
AcDbMText
 62
5
  6
CONTINUOUS
  7
STANDARD
 71
1
 72
1
 10
10.4407901371
 20
84.5004318139
 30
0.0
 11
1.0
 21
0.0
 31
0.0
 44
0.9
  3
Für diese Unterlage behalten wir das Ur-\Pheberrecht. Sie darf nur für den von uns \Pbestimmten Zweck benutzt und ohne unsere \PZustimmung weder vervielfältigt noch\PDritten zugänglich gemacht werden\P \PWe own the copyright of this document. It \Pde
  1
termined and may neither be copied or \Pmade accessible to outsiders without our\Ppermission.\P \PCe plan reste notre propriété. Il ne peut\Pêtre utilisé, copié ou reproduit sans notre\Paccord.\P 
 40
3.5
 41
99.162109375
  0
LINE
  5
266
100
AcDbEntity
  8
0
100
AcDbLine
 62
7
  6
CONTINUOUS
 10
0.0
 20
0.0
 11
0.0
 21
210.0
  0
LINE
  5
267
100
AcDbEntity
  8
0
100
AcDbLine
 62
7
  6
CONTINUOUS
 10
0.0
 20
0.0
 11
297.0
 21
0.0
  0
LINE
  5
268
100
AcDbEntity
  8
0
100
AcDbLine
 62
7
  6
CONTINUOUS
 10
0.0
 20
210.0
 11
297.0
 21
210.0
  0
LINE
  5
269
100
AcDbEntity
  8
0
100
AcDbLine
 62
7
  6
CONTINUOUS
 10
297.0
 20
0.0
 11
297.0
 21
210.0
  0
LINE
  5
26A
100
AcDbEntity
  8
BEZUGSACHSEN
100
AcDbLine
 62
7
  6
CONTINUOUS
 10
94.0039845554
 20
89.057861218
 11
94.0039845554
 21
111.1474598882
  0
LINE
  5
26B
100
AcDbEntity
  8
BEZUGSACHSEN
100
AcDbLine
 62
7
  6
CONTINUOUS
 10
94.0039845554
 20
134.1674598882
 11
94.0039845554
 21
156.2576514501
  0
LINE
  5
26C
100
AcDbEntity
  8
BEZUGSACHSEN
100
AcDbLine
 62
7
  6
CONTINUOUS
 10
95.5039845554
 20
110.2538199398
 11
95.5039845554
 21
112.6474598882
  0
LINE
  5
26D
100
AcDbEntity
  8
BEZUGSACHSEN
100
AcDbLine
 62
7
  6
CONTINUOUS
 10
95.5039845554
 20
132.6674598882
 11
95.5039845554
 21
135.0610998365
  0
LINE
  5
26E
100
AcDbEntity
  8
BEZUGSACHSEN
100
AcDbLine
 62
9
  6
CONTINUOUS
 10
95.9039100707
 20
158.2551461565
 11
95.9039100707
 21
138.3339922744
  0
LINE
  5
26F
100
AcDbEntity
  8
BEZUGSACHSEN
100
AcDbLine
 62
9
  6
CONTINUOUS
 10
95.9039100707
 20
106.9809275019
 11
95.9039100707
 21
87.0597736198
  0
LINE
  5
270
100
AcDbEntity
  8
BEZUGSACHSEN
100
AcDbLine
 62
9
  6
CONTINUOUS
 10
102.0039845554
 20
106.2988123007
 11
102.0039845554
 21
112.6474598882
  0
LINE
  5
271
100
AcDbEntity
  8
BEZUGSACHSEN
100
AcDbLine
 62
9
  6
CONTINUOUS
 10
102.0039845554
 20
132.6674598882
 11
102.0039845554
 21
139.0161074756
  0
LINE
  5
272
100
AcDbEntity
  8
BEZUGSACHSEN
100
AcDbLine
 62
7
  6
CONTINUOUS
 10
104.0039845554
 20
135.5271154139
 11
104.0039845554
 21
109.7878043624
  0
LINE
  5
273
100
AcDbEntity
  8
BEZUGSACHSEN
100
AcDbLine
 62
7
  6
CONTINUOUS
 10
144.0039845554
 20
72.6574598882
 11
160.7563892912
 21
72.6574598882
  0
LINE
  5
274
100
AcDbEntity
  8
BEZUGSACHSEN
100
AcDbLine
 62
7
  6
CONTINUOUS
 10
167.2515798196
 20
72.6574598882
 11
173.0039845554
 21
72.6574598882
  0
LINE
  5
275
100
AcDbEntity
  8
BEZUGSACHSEN
100
AcDbLine
 62
7
  6
CONTINUOUS
 10
94.0039845554
 20
111.1474598882
 11
95.5039845554
 21
112.6474598882
  0
LINE
  5
276
100
AcDbEntity
  8
BEZUGSACHSEN
100
AcDbLine
 62
7
  6
CONTINUOUS
 10
163.1289845554
 20
76.6574598882
 11
164.8789845554
 21
76.6574598882
  0
LINE
  5
277
100
AcDbEntity
  8
BEZUGSACHSEN
100
AcDbLine
 62
7
  6
CONTINUOUS
 10
95.5039845554
 20
132.6674598882
 11
94.0039845554
 21
134.1674598882
  0
LINE
  5
278
100
AcDbEntity
  8
FASEN
100
AcDbLine
 62
7
  6
CONTINUOUS
 10
149.4054705198
 20
83.8277032575
 11
160.7563892912
 21
83.8277032575
  0
LINE
  5
279
100
AcDbEntity
  8
0
100
AcDbLine
 62
7
  6
CONTINUOUS
 10
167.2515798196
 20
83.8277032575
 11
173.0039845554
 21
83.8277032575
  0
LINE
  5
27A
100
AcDbEntity
  8
BEZUGSACHSEN
100
AcDbLine
 62
7
  6
CONTINUOUS
 10
143.3034132667
 20
84.9752098882
 11
142.3820472145
 21
84.9752098882
  0
LINE
  5
27B
100
AcDbEntity
  8
BEZUGSACHSEN
100
AcDbLine
 62
7
  6
CONTINUOUS
 10
95.9039100707
 20
87.0597736198
 11
141.5039845554
 21
84.7752098882
  0
LINE
  5
27C
100
AcDbEntity
  8
0
100
AcDbLine
 62
7
  6
CONTINUOUS
 10
163.1289845554
 20
89.1350793044
 11
164.8789845554
 21
89.1350793044
  0
LINE
  5
27D
100
AcDbEntity
  8
FASEN
100
AcDbLine
 62
7
  6
CONTINUOUS
 10
156.9758584773
 20
90.7574598882
 11
173.0039845554
 21
90.7574598882
  0
LINE
  5
27E
100
AcDbEntity
  8
0
100
AcDbLine
 62
7
  6
CONTINUOUS
 10
156.9758584773
 20
91.1574598882
 11
173.0039845554
 21
91.1574598882
  0
LINE
  5
27F
100
AcDbEntity
  8
BEZUGSACHSEN
100
AcDbLine
 62
7
  6
CONTINUOUS
 10
141.5039845554
 20
160.5397098882
 11
141.5039845554
 21
84.7752098882
  0
LINE
  5
280
100
AcDbEntity
  8
BEZUGSACHSEN
100
AcDbLine
 62
9
  6
CONTINUOUS
 10
142.1232281694
 20
84.9411357144
 11
142.1232281694
 21
160.3737840619
  0
LINE
  5
281
100
AcDbEntity
  8
BEZUGSACHSEN
100
AcDbLine
 62
9
  6
CONTINUOUS
 10
142.3820472145
 20
84.9752098882
 11
142.3820472145
 21
160.3397098882
  0
LINE
  5
282
100
AcDbEntity
  8
BEZUGSACHSEN
100
AcDbLine
 62
9
  6
CONTINUOUS
 10
143.3034132667
 20
84.9752098882
 11
143.3034132667
 21
160.3397098882
  0
LINE
  5
283
100
AcDbEntity
  8
BEZUGSACHSEN
100
AcDbLine
 62
7
  6
CONTINUOUS
 10
144.0039845554
 20
172.6574598882
 11
144.0039845554
 21
72.6574598882
  0
LINE
  5
284
100
AcDbEntity
  8
BEZUGSACHSEN
100
AcDbLine
 62
7
  6
CONTINUOUS
 10
165.8789845554
 20
170.2800551524
 11
167.2515798196
 21
172.6574598882
  0
LINE
  5
285
100
AcDbEntity
  8
BEZUGSACHSEN
100
AcDbLine
 62
7
  6
CONTINUOUS
 10
142.1232281694
 20
84.9411357144
 11
141.5039845554
 21
84.7752098882
  0
LINE
  5
286
100
AcDbEntity
  8
BEZUGSACHSEN
100
AcDbLine
 62
7
  6
CONTINUOUS
 10
182.2193935981
 20
94.7949071244
 11
231.3465118731
 21
98.661295184
  0
LINE
  5
287
100
AcDbEntity
  8
BEZUGSACHSEN
100
AcDbLine
 62
7
  6
CONTINUOUS
 10
232.4412490091
 20
98.7474528651
 11
243.0824436511
 21
99.5849330461
  0
LINE
  5
288
100
AcDbEntity
  8
BEZUGSACHSEN
100
AcDbLine
 62
7
  6
CONTINUOUS
 10
165.8789845554
 20
75.034864624
 11
167.2515798196
 21
72.6574598882
  0
LINE
  5
289
100
AcDbEntity
  8
BEZUGSACHSEN
100
AcDbLine
 62
9
  6
CONTINUOUS
 10
94.0039845554
 20
109.4719119243
 11
95.5039845554
 21
110.2538199398
  0
LINE
  5
28A
100
AcDbEntity
  8
BEZUGSACHSEN
100
AcDbLine
 62
9
  6
CONTINUOUS
 10
95.5039845554
 20
135.0610998365
 11
94.0039845554
 21
135.843007852
  0
LINE
  5
28B
100
AcDbEntity
  8
FASEN
100
AcDbLine
 62
9
  6
CONTINUOUS
 10
156.9758584773
 20
90.7574598882
 11
156.9758584773
 21
91.1574598882
  0
LINE
  5
28C
100
AcDbEntity
  8
BEZUGSACHSEN
100
AcDbLine
 62
9
  6
CONTINUOUS
 10
103.5578305023
 20
107.6474598882
 11
94.9651444601
 21
107.6474598882
  0
LWPOLYLINE
  5
28D
100
AcDbEntity
  8
0
100
AcDbPolyline
 62
7
  6
CONTINUOUS
 90
8
 70
0
 10
230.026726262
 20
98.7623477783
 10
230.0145733165
 20
98.7638486048
 10
230.0052765268
 20
98.7651568121
 10
230.0033977423
 20
98.7654499109
 10
230.0094958209
 20
98.7642629017
 10
230.0242323389
 20
98.7609789401
 10
230.0470108292
 20
98.7551476539
 10
230.0692633271
 20
98.7487420254
  0
LINE
  5
28E
100
AcDbEntity
  8
FASEN
100
AcDbLine
 62
9
  6
CONTINUOUS
 10
159.0039845554
 20
113.0574598882
 11
159.0039845554
 21
112.6574598882
  0
LINE
  5
28F
100
AcDbEntity
  8
FASEN
100
AcDbLine
 62
9
  6
CONTINUOUS
 10
159.0039845554
 20
132.2574598882
 11
159.0039845554
 21
132.6574598882
  0
LINE
  5
290
100
AcDbEntity
  8
0
100
AcDbLine
 62
7
  6
CONTINUOUS
 10
160.7563892912
 20
172.6574598882
 11
160.7563892912
 21
132.6574598882
  0
LINE
  5
291
100
AcDbEntity
  8
0
100
AcDbLine
 62
7
  6
CONTINUOUS
 10
160.7563892912
 20
112.6574598882
 11
160.7563892912
 21
91.1574598882
  0
LINE
  5
292
100
AcDbEntity
  8
0
100
AcDbLine
 62
7
  6
CONTINUOUS
 10
160.7563892912
 20
83.8277032575
 11
160.7563892912
 21
72.6574598882
  0
LINE
  5
293
100
AcDbEntity
  8
0
100
AcDbLine
 62
7
  6
CONTINUOUS
 10
162.1289845554
 20
170.2800466427
 11
162.1289845554
 21
132.6574598882
  0
LINE
  5
294
100
AcDbEntity
  8
0
100
AcDbLine
 62
7
  6
CONTINUOUS
 10
162.1289845554
 20
112.6574598882
 11
162.1289845554
 21
91.1574598882
  0
LINE
  5
295
100
AcDbEntity
  8
0
100
AcDbLine
 62
7
  6
CONTINUOUS
 10
162.1289845554
 20
75.0348764021
 11
162.1289845554
 21
87.775516135
  0
LINE
  5
296
100
AcDbEntity
  8
0
100
AcDbLine
 62
9
  6
CONTINUOUS
 10
163.1289845554
 20
76.6574598882
 11
163.1289845554
 21
89.1350793044
  0
LINE
  5
297
100
AcDbEntity
  8
0
100
AcDbLine
 62
9
  6
CONTINUOUS
 10
163.1289845554
 20
91.1574598882
 11
163.1289845554
 21
112.6574598882
  0
LINE
  5
298
100
AcDbEntity
  8
0
100
AcDbLine
 62
9
  6
CONTINUOUS
 10
163.1289845554
 20
132.6574598882
 11
163.1289845554
 21
168.6574598882
  0
LINE
  5
299
100
AcDbEntity
  8
BEZUGSACHSEN
100
AcDbLine
 62
7
  6
CONTINUOUS
 10
102.0039845554
 20
112.6474598882
 11
95.5039845554
 21
112.6474598882
  0
LINE
  5
29A
100
AcDbEntity
  8
0
100
AcDbLine
 62
7
  6
CONTINUOUS
 10
159.0039845554
 20
112.6574598882
 11
173.0039845554
 21
112.6574598882
  0
LINE
  5
29B
100
AcDbEntity
  8
FASEN
100
AcDbLine
 62
7
  6
CONTINUOUS
 10
173.0039845554
 20
113.0574598882
 11
159.0039845554
 21
113.0574598882
  0
LINE
  5
29C
100
AcDbEntity
  8
BEZUGSACHSEN
100
AcDbLine
 62
8
  6
HIDDEN
 10
206.8053778146
 20
114.3574598882
 11
193.3434482223
 21
114.3574598882
  0
LINE
  5
29D
100
AcDbEntity
  8
BEZUGSACHSEN
100
AcDbLine
 62
8
  6
HIDDEN
 10
242.0039845554
 20
114.6574598882
 11
236.3071201935
 21
114.6574598882
  0
LINE
  5
29E
100
AcDbEntity
  8
BEZUGSACHSEN
100
AcDbLine
 62
8
  6
HIDDEN
 10
235.7008489174
 20
114.6574598882
 11
232.0039845554
 21
114.6574598882
  0
LINE
  5
29F
100
AcDbEntity
  8
BEZUGSACHSEN
100
AcDbLine
 62
8
  6
HIDDEN
 10
230.0039845554
 20
114.6574598882
 11
226.3071201935
 21
114.6574598882
  0
LINE
  5
2A0
100
AcDbEntity
  8
BEZUGSACHSEN
100
AcDbLine
 62
8
  6
HIDDEN
 10
225.7008489174
 20
114.6574598882
 11
220.0039845554
 21
114.6574598882
  0
LINE
  5
2A1
100
AcDbEntity
  8
BEZUGSACHSEN
100
AcDbLine
 62
8
  6
HIDDEN
 10
218.0039845554
 20
114.6574598882
 11
216.3071201935
 21
114.6574598882
  0
LINE
  5
2A2
100
AcDbEntity
  8
BEZUGSACHSEN
100
AcDbLine
 62
8
  6
HIDDEN
 10
215.7008489174
 20
114.6574598882
 11
208.0039845554
 21
114.6574598882
  0
LINE
  5
2A3
100
AcDbEntity
  8
0
100
AcDbLine
 62
9
  6
CONTINUOUS
 10
164.8789845554
 20
76.6574598882
 11
164.8789845554
 21
89.1350793044
  0
LINE
  5
2A4
100
AcDbEntity
  8
0
100
AcDbLine
 62
9
  6
CONTINUOUS
 10
164.8789845554
 20
91.1574598882
 11
164.8789845554
 21
112.6574598882
  0
LINE
  5
2A5
100
AcDbEntity
  8
0
100
AcDbLine
 62
9
  6
CONTINUOUS
 10
164.8789845554
 20
132.6574598882
 11
164.8789845554
 21
168.6574598882
  0
LINE
  5
2A6
100
AcDbEntity
  8
0
100
AcDbLine
 62
7
  6
CONTINUOUS
 10
165.8789845554
 20
75.0348764021
 11
165.8789845554
 21
87.775516135
  0
LINE
  5
2A7
100
AcDbEntity
  8
0
100
AcDbLine
 62
7
  6
CONTINUOUS
 10
165.8789845554
 20
91.1574598882
 11
165.8789845554
 21
112.6574598882
  0
LINE
  5
2A8
100
AcDbEntity
  8
0
100
AcDbLine
 62
7
  6
CONTINUOUS
 10
165.8789845554
 20
132.6574598882
 11
165.8789845554
 21
170.2800466427
  0
LINE
  5
2A9
100
AcDbEntity
  8
0
100
AcDbLine
 62
7
  6
CONTINUOUS
 10
167.2515798196
 20
172.6574598882
 11
167.2515798196
 21
132.6574598882
  0
LINE
  5
2AA
100
AcDbEntity
  8
0
100
AcDbLine
 62
7
  6
CONTINUOUS
 10
167.2515798196
 20
112.6574598882
 11
167.2515798196
 21
91.1574598882
  0
LINE
  5
2AB
100
AcDbEntity
  8
0
100
AcDbLine
 62
7
  6
CONTINUOUS
 10
167.2515798196
 20
83.8277032575
 11
167.2515798196
 21
72.6574598882
  0
LINE
  5
2AC
100
AcDbEntity
  8
BEZUGSACHSEN
100
AcDbLine
 62
7
  6
CENTER
 10
249.0039845554
 20
122.6574598882
 11
91.0039845554
 21
122.6574598882
  0
LINE
  5
2AD
100
AcDbEntity
  8
0
100
AcDbLine
 62
9
  6
CONTINUOUS
 10
231.3467514633
 20
122.6574598882
 11
232.4415649606
 21
122.6574598882
  0
LINE
  5
2AE
100
AcDbEntity
  8
0
100
AcDbLine
 62
7
  6
CONTINUOUS
 10
173.0039845554
 20
172.6574308364
 11
173.0039845554
 21
132.6574598882
  0
LINE
  5
2AF
100
AcDbEntity
  8
0
100
AcDbLine
 62
7
  6
CONTINUOUS
 10
173.0039845554
 20
112.6574598882
 11
173.0039845554
 21
91.1574598882
  0
LINE
  5
2B0
100
AcDbEntity
  8
0
100
AcDbLine
 62
7
  6
CONTINUOUS
 10
173.0039845554
 20
83.8277032575
 11
173.0039845554
 21
72.6574888435
  0
LINE
  5
2B1
100
AcDbEntity
  8
FASEN
100
AcDbLine
 62
7
  6
CONTINUOUS
 10
173.0039845554
 20
83.8277032575
 11
173.0039845554
 21
91.1574598882
  0
LINE
  5
2B2
100
AcDbEntity
  8
FASEN
100
AcDbLine
 62
7
  6
CONTINUOUS
 10
173.0039845554
 20
112.6574598882
 11
173.0039845554
 21
132.6574598882
  0
LINE
  5
2B3
100
AcDbEntity
  8
BEZUGSACHSEN
100
AcDbLine
 62
9
  6
CONTINUOUS
 10
182.2193935981
 20
94.7949071244
 11
182.2193935981
 21
150.520012652
  0
LINE
  5
2B4
100
AcDbEntity
  8
BEZUGSACHSEN
100
AcDbLine
 62
8
  6
HIDDEN
 10
242.0039845554
 20
130.6574598882
 11
232.0039845554
 21
130.6574598882
  0
LINE
  5
2B5
100
AcDbEntity
  8
BEZUGSACHSEN
100
AcDbLine
 62
8
  6
HIDDEN
 10
230.0039845554
 20
130.6574598882
 11
221.3071201935
 21
130.6574598882
  0
LINE
  5
2B6
100
AcDbEntity
  8
BEZUGSACHSEN
100
AcDbLine
 62
8
  6
HIDDEN
 10
220.7008489174
 20
130.6574598882
 11
220.0039845554
 21
130.6574598882
  0
LINE
  5
2B7
100
AcDbEntity
  8
BEZUGSACHSEN
100
AcDbLine
 62
8
  6
HIDDEN
 10
218.0039845554
 20
130.6574598882
 11
211.3071201935
 21
130.6574598882
  0
LINE
  5
2B8
100
AcDbEntity
  8
BEZUGSACHSEN
100
AcDbLine
 62
8
  6
HIDDEN
 10
210.7008489173
 20
130.6574598882
 11
208.0039845554
 21
130.6574598882
  0
LINE
  5
2B9
100
AcDbEntity
  8
BEZUGSACHSEN
100
AcDbLine
 62
8
  6
HIDDEN
 10
206.8053778146
 20
130.9574598882
 11
193.3434482223
 21
130.9574598882
  0
LINE
  5
2BA
100
AcDbEntity
  8
FASEN
100
AcDbLine
 62
7
  6
CONTINUOUS
 10
159.0039845554
 20
132.2574598882
 11
173.0039845554
 21
132.2574598882
  0
LINE
  5
2BB
100
AcDbEntity
  8
0
100
AcDbLine
 62
7
  6
CONTINUOUS
 10
159.0039845554
 20
132.6574598882
 11
173.0039845554
 21
132.6574598882
  0
LINE
  5
2BC
100
AcDbEntity
  8
BEZUGSACHSEN
100
AcDbLine
 62
7
  6
CONTINUOUS
 10
102.0039845554
 20
132.6674598882
 11
95.5039845554
 21
132.6674598882
  0
LINE
  5
2BD
100
AcDbEntity
  8
BEZUGSACHSEN
100
AcDbLine
 62
7
  6
CONTINUOUS
 10
160.7563892912
 20
72.6574598882
 11
162.1289845554
 21
75.034864624
  0
LINE
  5
2BE
100
AcDbEntity
  8
BEZUGSACHSEN
100
AcDbLine
 62
9
  6
CONTINUOUS
 10
94.9651444601
 20
137.6674598882
 11
103.5578305023
 21
137.6674598882
  0
LINE
  5
2BF
100
AcDbEntity
  8
BEZUGSACHSEN
100
AcDbLine
 62
7
  6
CONTINUOUS
 10
160.7563892912
 20
172.6574598882
 11
162.1289845554
 21
170.2800551524
  0
LINE
  5
2C0
100
AcDbEntity
  8
BEZUGSACHSEN
100
AcDbLine
 62
9
  6
CONTINUOUS
 10
193.3434482223
 20
130.9574598882
 11
193.3434482223
 21
114.3574598882
  0
LINE
  5
2C1
100
AcDbEntity
  8
BEZUGSACHSEN
100
AcDbLine
 62
7
  6
CONTINUOUS
 10
182.2193935981
 20
150.520012652
 11
231.3465118731
 21
146.6536245923
  0
LINE
  5
2C2
100
AcDbEntity
  8
BEZUGSACHSEN
100
AcDbLine
 62
7
  6
CONTINUOUS
 10
232.4412490091
 20
146.5674669112
 11
243.0824436511
 21
145.7299867302
  0
LINE
  5
2C3
100
AcDbEntity
  8
BEZUGSACHSEN
100
AcDbLine
 62
7
  6
CONTINUOUS
 10
142.1232281694
 20
160.3737840619
 11
141.5039845554
 21
160.5397098882
  0
LINE
  5
2C4
100
AcDbEntity
  8
BEZUGSACHSEN
100
AcDbLine
 62
7
  6
CONTINUOUS
 10
95.9039100707
 20
158.2551461565
 11
141.5039845554
 21
160.5397098882
  0
LINE
  5
2C5
100
AcDbEntity
  8
BEZUGSACHSEN
100
AcDbLine
 62
7
  6
CONTINUOUS
 10
143.3034132667
 20
160.3397098882
 11
142.3820472145
 21
160.3397098882
  0
LWPOLYLINE
  5
2C6
100
AcDbEntity
  8
0
100
AcDbPolyline
 62
7
  6
CONTINUOUS
 90
8
 70
0
 10
233.7652585932
 20
146.2571241046
 10
233.7787803987
 20
146.2532905052
 10
233.7895524226
 20
146.2500331404
 10
233.79262761
 20
146.2490406985
 10
233.7875691917
 20
146.2508765452
 10
233.7738406043
 20
146.256287325
 10
233.7522118497
 20
146.2656337068
 10
233.7335917576
 20
146.2743333657
  0
LINE
  5
2C7
100
AcDbEntity
  8
BEZUGSACHSEN
100
AcDbLine
 62
7
  6
CONTINUOUS
 10
163.1289845554
 20
168.6574598882
 11
164.8789845554
 21
168.6574598882
  0
LINE
  5
2C8
100
AcDbEntity
  8
BEZUGSACHSEN
100
AcDbLine
 62
7
  6
CONTINUOUS
 10
144.0039845554
 20
172.6574598882
 11
146.0039845554
 21
172.6574598882
  0
LINE
  5
2C9
100
AcDbEntity
  8
BEZUGSACHSEN
100
AcDbLine
 62
7
  6
CONTINUOUS
 10
156.0039845554
 20
172.6574598882
 11
160.7563892912
 21
172.6574598882
  0
LINE
  5
2CA
100
AcDbEntity
  8
BEZUGSACHSEN
100
AcDbLine
 62
7
  6
CONTINUOUS
 10
167.2515798196
 20
172.6574598882
 11
173.0039845554
 21
172.6574598882
  0
LINE
  5
2CB
100
AcDbEntity
  8
BEZUGSACHSEN
100
AcDbLine
 62
9
  6
CONTINUOUS
 10
243.0824436511
 20
99.5849330461
 11
243.0824436511
 21
145.7299867302
  0
LINE
  5
2CC
100
AcDbEntity
  8
BEZUGSACHSEN
100
AcDbLine
 62
7
  6
CONTINUOUS
 10
244.0039845554
 20
144.7330693965
 11
244.0039845554
 21
100.5818503798
  0
LINE
  5
2CD
100
AcDbEntity
  8
0
100
AcDbLine
 62
2
  6
CONTINUOUS
 10
244.0039845554
 20
112.7545481619
 11
244.0039845554
 21
112.8451535586
  0
LINE
  5
2CE
100
AcDbEntity
  8
0
100
AcDbLine
 62
2
  6
CONTINUOUS
 10
244.0039845554
 20
117.3683838568
 11
244.0039845554
 21
117.5536352106
  0
LINE
  5
2CF
100
AcDbEntity
  8
0
100
AcDbLine
 62
2
  6
CONTINUOUS
 10
244.0039845554
 20
138.1139824431
 11
244.0039845554
 21
138.3750985698
  0
LINE
  5
2D0
100
AcDbEntity
  8
0
100
AcDbLine
 62
2
  6
CONTINUOUS
 10
244.0039845554
 20
139.0797161518
 11
244.0039845554
 21
139.2645776773
  0
LINE
  5
2D1
100
AcDbEntity
  8
0
100
AcDbLine
 62
2
  6
CONTINUOUS
 10
244.0039845554
 20
109.9328327995
 11
244.0039845412
 21
109.8423492194
  0
ARC
  5
2D2
100
AcDbEntity
  8
FASEN
100
AcDbCircle
 62
7
  6
CONTINUOUS
 10
161.9046352253
 20
98.1887193352
 40
19.0385897881
100
AcDbArc
 50
227.4837705849
 51
228.9651953957
  0
ARC
  5
2D3
100
AcDbEntity
  8
FASEN
100
AcDbCircle
 62
7
  6
CONTINUOUS
 10
156.9758584773
 20
83.1574598882
 40
8.0
100
AcDbArc
 50
90.0
 51
172.8323724665
  0
ARC
  5
2D4
100
AcDbEntity
  8
FASEN
100
AcDbCircle
 62
7
  6
CONTINUOUS
 10
156.9758584773
 20
83.1574598882
 40
7.5999821949
100
AcDbArc
 50
90.0
 51
174.9405171273
  0
ARC
  5
2D5
100
AcDbEntity
  8
BEZUGSACHSEN
100
AcDbCircle
 62
7
  6
CONTINUOUS
 10
99.123631916
 20
110.5528935753
 40
5.0729244851
100
AcDbArc
 50
212.6980006646
 51
214.9410603425
  0
ARC
  5
2D6
100
AcDbEntity
  8
BEZUGSACHSEN
100
AcDbCircle
 62
7
  6
CONTINUOUS
 10
102.0039845554
 20
114.6474598882
 40
2.0
100
AcDbArc
 50
270.0
 51
355.2350520604
  0
ARC
  5
2D7
100
AcDbEntity
  8
BEZUGSACHSEN
100
AcDbCircle
 62
7
  6
CONTINUOUS
 10
96.0039845554
 20
89.0572683251
 40
2.0
100
AcDbArc
 50
180.0
 51
267.1318795127
  0
ARC
  5
2D8
100
AcDbEntity
  8
BEZUGSACHSEN
100
AcDbCircle
 62
7
  6
CONTINUOUS
 10
163.1289845554
 20
75.6574598882
 40
1.0
100
AcDbArc
 50
90.0
 51
180.0
  0
ARC
  5
2D9
100
AcDbEntity
  8
BEZUGSACHSEN
100
AcDbCircle
 62
7
  6
CONTINUOUS
 10
142.3820472145
 20
83.9752098882
 40
1.0
100
AcDbArc
 50
90.0
 51
105.0
  0
ARC
  5
2DA
100
AcDbEntity
  8
BEZUGSACHSEN
100
AcDbCircle
 62
7
  6
CONTINUOUS
 10
143.3034132667
 20
83.9752098882
 40
1.0
100
AcDbArc
 50
45.5216429127
 51
90.0
  0
ARC
  5
2DB
100
AcDbEntity
  8
0
100
AcDbCircle
 62
7
  6
CONTINUOUS
 10
-80.5937953292
 20
192.0919274795
 40
264.5204223925
100
AcDbArc
 50
335.8400764706
 51
336.5770705491
  0
ARC
  5
2DC
100
AcDbEntity
  8
BEZUGSACHSEN
100
AcDbCircle
 62
7
  6
CONTINUOUS
 10
151.0191925665
 20
222.710229655
 40
50.3034002104
100
AcDbArc
 50
264.2781515102
 51
269.9826780126
  0
ARC
  5
2DD
100
AcDbEntity
  8
BEZUGSACHSEN
100
AcDbCircle
 62
7
  6
CONTINUOUS
 10
150.9887765543
 20
222.7102294543
 40
50.3034000097
100
AcDbArc
 50
270.017321976
 51
275.7218485012
  0
ARC
  5
2DE
100
AcDbEntity
  8
0
100
AcDbCircle
 62
7
  6
CONTINUOUS
 10
159.0039845554
 20
122.6574598882
 40
10.0
100
AcDbArc
 50
90.0
 51
270.0
  0
ARC
  5
2DF
100
AcDbEntity
  8
FASEN
100
AcDbCircle
 62
7
  6
CONTINUOUS
 10
159.0039845554
 20
122.6574598882
 40
9.5999998345
100
AcDbArc
 50
90.0
 51
270.0
  0
CIRCLE
  5
2E0
100
AcDbEntity
  8
BEZUGSACHSEN
100
AcDbCircle
 62
7
  6
CONTINUOUS
 10
129.0039845554
 20
122.6574598882
 40
6.0
  0
ARC
  5
2E1
100
AcDbEntity
  8
BEZUGSACHSEN
100
AcDbCircle
 62
7
  6
CONTINUOUS
 10
99.123631916
 20
134.7620262011
 40
5.0729244851
100
AcDbArc
 50
145.0589396575
 51
147.3019993354
  0
ARC
  5
2E2
100
AcDbEntity
  8
BEZUGSACHSEN
100
AcDbCircle
 62
7
  6
CONTINUOUS
 10
102.0039845554
 20
130.6674598882
 40
2.0
100
AcDbArc
 50
4.7649479111
 51
90.0
  0
ARC
  5
2E3
100
AcDbEntity
  8
BEZUGSACHSEN
100
AcDbCircle
 62
7
  6
CONTINUOUS
 10
96.0039845554
 20
156.2576514512
 40
2.0
100
AcDbArc
 50
92.8681204873
 51
180.0
  0
ARC
  5
2E4
100
AcDbEntity
  8
BEZUGSACHSEN
100
AcDbCircle
 62
7
  6
CONTINUOUS
 10
163.1289845554
 20
169.6574598882
 40
1.0
100
AcDbArc
 50
180.0
 51
270.0
  0
ARC
  5
2E5
100
AcDbEntity
  8
BEZUGSACHSEN
100
AcDbCircle
 62
7
  6
CONTINUOUS
 10
142.3820472145
 20
161.3397098882
 40
1.0
100
AcDbArc
 50
255.0
 51
270.0
  0
ARC
  5
2E6
100
AcDbEntity
  8
BEZUGSACHSEN
100
AcDbCircle
 62
7
  6
CONTINUOUS
 10
143.3034132667
 20
161.3397098882
 40
1.0
100
AcDbArc
 50
270.0
 51
314.4783570873
  0
ARC
  5
2E7
100
AcDbEntity
  8
BEZUGSACHSEN
100
AcDbCircle
 62
7
  6
CONTINUOUS
 10
280.3340311569
 20
-1483.3852994309
 40
1632.1727637273
100
AcDbArc
 50
96.2726189838
 51
96.4880906898
  0
ARC
  5
2E8
100
AcDbEntity
  8
0
100
AcDbCircle
 62
7
  6
CONTINUOUS
 10
230.4543972611
 20
121.4030366663
 40
25.2427443166
100
AcDbArc
 50
85.4859419519
 51
86.7379339972
  0
ARC
  5
2E9
100
AcDbEntity
  8
0
100
AcDbCircle
 62
7
  6
CONTINUOUS
 10
230.8448054319
 20
115.2804334706
 40
16.6020609773
100
AcDbArc
 50
271.4976820931
 51
271.7279795985
  0
ARC
  5
2EA
100
AcDbEntity
  8
BEZUGSACHSEN
100
AcDbCircle
 62
7
  6
CONTINUOUS
 10
183.0039845554
 20
84.825733787
 40
10.0
100
AcDbArc
 50
94.5
 51
180.0
  0
ARC
  5
2EB
100
AcDbEntity
  8
BEZUGSACHSEN
100
AcDbCircle
 62
7
  6
PHANTOM
 10
243.0039845554
 20
100.5818503798
 40
1.0
100
AcDbArc
 50
274.5
 51
360.0
  0
ARC
  5
2EC
100
AcDbEntity
  8
BEZUGSACHSEN
100
AcDbCircle
 62
7
  6
CONTINUOUS
 10
164.8789845554
 20
75.6574598882
 40
1.0
100
AcDbArc
 50
0.0
 51
90.0
  0
ARC
  5
2ED
100
AcDbEntity
  8
0
100
AcDbCircle
 62
7
  6
CONTINUOUS
 10
230.2319538922
 20
99.2873720918
 40
0.5626712304
100
AcDbArc
 50
251.442602472
 51
253.1916901664
  0
ARC
  5
2EE
100
AcDbEntity
  8
BEZUGSACHSEN
100
AcDbCircle
 62
7
  6
CONTINUOUS
 10
280.3340311568
 20
1728.7002192067
 40
1632.1727637268
100
AcDbArc
 50
263.5119093102
 51
263.7273810162
  0
ARC
  5
2EF
100
AcDbEntity
  8
0
100
AcDbCircle
 62
7
  6
CONTINUOUS
 10
408.6017644383
 20
192.0919274787
 40
264.5204223907
100
AcDbArc
 50
203.4229294509
 51
204.1599235294
  0
ARC
  5
2F0
100
AcDbEntity
  8
0
100
AcDbCircle
 62
7
  6
CONTINUOUS
 10
229.3491397789
 20
124.1018101317
 40
25.5188028151
100
AcDbArc
 50
274.489904409
 51
275.7171573646
  0
ARC
  5
2F1
100
AcDbEntity
  8
BEZUGSACHSEN
100
AcDbCircle
 62
7
  6
CONTINUOUS
 10
183.0039845554
 20
160.4891859893
 40
10.0
100
AcDbArc
 50
180.0
 51
265.5
  0
ARC
  5
2F2
100
AcDbEntity
  8
BEZUGSACHSEN
100
AcDbCircle
 62
7
  6
CONTINUOUS
 10
243.0039845554
 20
144.7330693965
 40
1.0
100
AcDbArc
 50
0.0
 51
85.5
  0
ARC
  5
2F3
100
AcDbEntity
  8
BEZUGSACHSEN
100
AcDbCircle
 62
7
  6
CONTINUOUS
 10
164.8789845554
 20
169.6574598882
 40
1.0
100
AcDbArc
 50
270.0
 51
360.0
  0
LINE
  5
2F4
100
AcDbEntity
  8
0
100
AcDbLine
 62
2
  6
CONTINUOUS
 10
244.0039845554
 20
138.6281392477
 11
244.0039845554
 21
138.8654016881
  0
LINE
  5
2F5
100
AcDbEntity
  8
0
100
AcDbLine
 62
2
  6
CONTINUOUS
 10
244.0039845554
 20
117.7680815764
 11
244.0039845554
 21
118.0051989344
  0
SPLINE
  5
2F6
100
AcDbEntity
  8
0
100
AcDbSpline
 62
7
  6
CONTINUOUS
 70
0
 71
3
 72
12
 73
8
 74
0
 42
0.0000001
 43
0.0000001
 44
0.0000000001
 40
0.0
 40
0.0
 40
0.0
 40
0.0
 40
0.0835010703
 40
0.1834886818
 40
0.4226344325
 40
0.6992664287
 40
1.0
 40
1.0
 40
1.0
 40
1.0
 10
230.0692458936
 20
98.7487395448
 30
0.0
 10
230.1015990077
 20
98.7389501152
 30
0.0
 10
230.1742985634
 20
98.7228569083
 30
0.0
 10
230.343740009
 20
98.6987846205
 30
0.0
 10
230.5927879421
 20
98.6827743012
 30
0.0
 10
230.9232882808
 20
98.6773107105
 30
0.0
 10
231.1570281045
 20
98.6808645848
 30
0.0
 10
231.2787253155
 20
98.6840440371
 30
0.0
  0
SPLINE
  5
2F7
100
AcDbEntity
  8
0
100
AcDbSpline
 62
7
  6
CONTINUOUS
 70
0
 71
3
 72
9
 73
5
 74
0
 42
0.0000001
 43
0.0000001
 44
0.0000000001
 40
0.0
 40
0.0
 40
0.0
 40
0.0
 40
0.243812325
 40
1.0
 40
1.0
 40
1.0
 40
1.0
 10
231.3454299837
 20
98.6859222168
 30
0.0
 10
231.4345802354
 20
98.6886099692
 30
0.0
 10
231.8001432286
 20
98.7024910944
 30
0.0
 10
232.1653202971
 20
98.7257427229
 30
0.0
 10
232.4410945418
 20
98.7474404469
 30
0.0
  0
SPLINE
  5
2F8
100
AcDbEntity
  8
0
100
AcDbSpline
 62
7
  6
CONTINUOUS
 70
0
 71
3
 72
14
 73
10
 74
0
 42
0.0000001
 43
0.0000001
 44
0.0000000001
 40
0.0
 40
0.0
 40
0.0
 40
0.0
 40
0.0998397744
 40
0.2144792251
 40
0.3382397675
 40
0.4676575013
 40
0.7343078977
 40
0.8681122355
 40
1.0
 40
1.0
 40
1.0
 40
1.0
 10
229.194868689
 20
99.0252504776
 30
0.0
 10
229.3010988589
 20
99.0755940308
 30
0.0
 10
229.5340911881
 20
99.1734994255
 30
0.0
 10
229.9063155155
 20
99.3150876454
 30
0.0
 10
230.3134918845
 20
99.4626934066
 30
0.0
 10
230.8899651375
 20
99.6683326834
 30
0.0
 10
231.4766513589
 20
99.8807776773
 30
0.0
 10
232.059976767
 20
100.1102730535
 30
0.0
 10
232.3477668699
 20
100.2331467244
 30
0.0
 10
232.4891671975
 20
100.297341898
 30
0.0
  0
SPLINE
  5
2F9
100
AcDbEntity
  8
0
100
AcDbSpline
 62
7
  6
CONTINUOUS
 70
0
 71
3
 72
13
 73
9
 74
0
 42
0.0000001
 43
0.0000001
 44
0.0000000001
 40
0.0
 40
0.0
 40
0.0
 40
0.0
 40
0.1020981449
 40
0.2174784965
 40
0.3412096677
 40
0.4701776424
 40
0.7354097205
 40
1.0
 40
1.0
 40
1.0
 40
1.0
 10
234.5417534617
 20
145.8584866177
 30
0.0
 10
234.4397074391
 20
145.8282519045
 30
0.0
 10
234.2198957362
 20
145.7722327138
 30
0.0
 10
233.8726735379
 20
145.6951110608
 30
0.0
 10
233.4969551068
 20
145.6172022262
 30
0.0
 10
232.9678343508
 20
145.5098010492
 30
0.0
 10
232.2956386989
 20
145.3692720778
 30
0.0
 10
231.7587459819
 20
145.2382392556
 30
0.0
 10
231.4934717648
 20
145.162704405
 30
0.0
  0
SPLINE
  5
2FA
100
AcDbEntity
  8
0
100
AcDbSpline
 62
7
  6
CONTINUOUS
 70
0
 71
3
 72
12
 73
8
 74
0
 42
0.0000001
 43
0.0000001
 44
0.0000000001
 40
0.0
 40
0.0
 40
0.0
 40
0.0
 40
0.0833227698
 40
0.1838096543
 40
0.4241656127
 40
0.7009765744
 40
1.0
 40
1.0
 40
1.0
 40
1.0
 10
233.7335630906
 20
146.2743334721
 30
0.0
 10
233.7003779131
 20
146.2903551754
 30
0.0
 10
233.6243655844
 20
146.3197831161
 30
0.0
 10
233.4446022351
 20
146.3736113169
 30
0.0
 10
233.1773755059
 20
146.4317943469
 30
0.0
 10
232.8214531059
 20
146.4920220271
 30
0.0
 10
232.5691118042
 20
146.5267331313
 30
0.0
 10
232.4379130843
 20
146.5433458429
 30
0.0
  0
LINE
  5
2FB
100
AcDbEntity
  8
0
100
AcDbLine
 62
7
  6
CONTINUOUS
 10
232.4379130843
 20
146.5433458429
 11
232.4313239683
 21
146.544178927
  0
SPLINE
  5
2FC
100
AcDbEntity
  8
0
100
AcDbSpline
 62
7
  6
CONTINUOUS
 70
0
 71
3
 72
9
 73
5
 74
0
 42
0.0000001
 43
0.0000001
 44
0.0000000001
 40
0.0
 40
0.0
 40
0.0
 40
0.0
 40
0.2450140439
 40
1.0
 40
1.0
 40
1.0
 40
1.0
 10
232.4313239683
 20
146.544178927
 30
0.0
 10
232.3429993279
 20
146.5553294329
 30
0.0
 10
231.9821735312
 20
146.5981466873
 30
0.0
 10
231.6203173507
 20
146.6320751599
 30
0.0
 10
231.3468393556
 20
146.6535988992
 30
0.0
  0
SPLINE
  5
2FD
100
AcDbEntity
  8
BEZUGSACHSEN
100
AcDbSpline
 62
7
  6
CONTINUOUS
 70
0
 71
3
 72
27
 73
23
 74
0
 42
0.0000001
 43
0.0000001
 44
0.0000000001
 40
0.0
 40
0.0
 40
0.0
 40
0.0
 40
0.011848983
 40
0.0250657814
 40
0.040683387
 40
0.0592736321
 40
0.106106174
 40
0.1656813566
 40
0.2365581734
 40
0.31652769
 40
0.4029054574
 40
0.4927207029
 40
0.5828571674
 40
0.6702032859
 40
0.7517880386
 40
0.8248861524
 40
0.8871611778
 40
0.936911553
 40
0.9568919837
 40
0.9737254149
 40
0.9878198247
 40
1.0
 40
1.0
 40
1.0
 40
1.0
 10
196.4539845554
 20
148.4885054251
 30
0.0
 10
196.4539845554
 20
148.4760605326
 30
0.0
 10
196.4486057697
 20
148.4495452074
 30
0.0
 10
196.4259109277
 20
148.4126265245
 30
0.0
 10
196.3898945192
 20
148.3777065363
 30
0.0
 10
196.3191117271
 20
148.329901991
 30
0.0
 10
196.1972663871
 20
148.2784689269
 30
0.0
 10
196.017143257
 20
148.230312759
 30
0.0
 10
195.7986790493
 20
148.1947567644
 30
0.0
 10
195.5501854111
 20
148.1740947034
 30
0.0
 10
195.2809806629
 20
148.1699501341
 30
0.0
 10
195.0013897899
 20
148.182971049
 30
0.0
 10
194.7220698634
 20
148.2128066638
 30
0.0
 10
194.4535868042
 20
148.2581041526
 30
0.0
 10
194.2060217846
 20
148.3166201515
 30
0.0
 10
193.9884578302
 20
148.3853484753
 30
0.0
 10
193.8090124011
 20
148.4608135426
 30
0.0
 10
193.6881879255
 20
148.5304145505
 30
0.0
 10
193.6179779754
 20
148.5885483655
 30
0.0
 10
193.582211141
 20
148.6286717591
 30
0.0
 10
193.5596803408
 20
148.6684740552
 30
0.0
 10
193.5539845554
 20
148.6961707164
 30
0.0
 10
193.5539845554
 20
148.7089634576
 30
0.0
  0
SPLINE
  5
2FE
100
AcDbEntity
  8
BEZUGSACHSEN
100
AcDbSpline
 62
7
  6
CONTINUOUS
 70
0
 71
3
 72
19
 73
15
 74
0
 42
0.0000001
 43
0.0000001
 44
0.0000000001
 40
0.0
 40
0.0
 40
0.0
 40
0.0
 40
0.0520150155
 40
0.1069865828
 40
0.1658561476
 40
0.2288304087
 40
0.3647681864
 40
0.508242973
 40
0.6496745467
 40
0.780209301
 40
0.8399739732
 40
0.8958984422
 40
0.9487601363
 40
1.0
 40
1.0
 40
1.0
 40
1.0
 10
193.5539845554
 20
103.5864356618
 30
0.0
 10
193.5539845554
 20
103.6547272792
 30
0.0
 10
193.574224128
 20
103.7957779365
 30
0.0
 10
193.659848451
 20
103.9981425968
 30
0.0
 10
193.7965000818
 20
104.187952091
 30
0.0
 10
194.0449896278
 20
104.4202645204
 30
0.0
 10
194.4489944978
 20
104.6357931455
 30
0.0
 10
194.9976473373
 20
104.7464863304
 30
0.0
 10
195.5486363897
 20
104.7004757005
 30
0.0
 10
195.959840006
 20
104.5294110241
 30
0.0
 10
196.2112166636
 20
104.3227900141
 30
0.0
 10
196.3488068804
 20
104.1468399633
 30
0.0
 10
196.4345154191
 20
103.9524982242
 30
0.0
 10
196.4539845554
 20
103.8150960467
 30
0.0
 10
196.4539845554
 20
103.7478221425
 30
0.0
  0
SPLINE
  5
2FF
100
AcDbEntity
  8
0
100
AcDbSpline
 62
7
  6
CONTINUOUS
 70
0
 71
3
 72
13
 73
9
 74
0
 42
0.0000001
 43
0.0000001
 44
0.0000000001
 40
0.0
 40
0.0
 40
0.0
 40
0.0
 40
0.1249627067
 40
0.249990766
 40
0.375103808
 40
0.5002817825
 40
0.7500272298
 40
1.0
 40
1.0
 40
1.0
 40
1.0
 10
163.1289845554
 20
89.1350793044
 30
0.0
 10
163.0516270767
 20
89.1350793044
 30
0.0
 10
162.8958630009
 20
89.1096878955
 30
0.0
 10
162.6855591738
 20
89.0047424289
 30
0.0
 10
162.5084147516
 20
88.8512613324
 30
0.0
 10
162.3198494677
 20
88.6036746686
 30
0.0
 10
162.1682769214
 20
88.2408588877
 30
0.0
 10
162.1289845554
 20
87.9302604084
 30
0.0
 10
162.1289845554
 20
87.775516135
 30
0.0
  0
SPLINE
  5
300
100
AcDbEntity
  8
BEZUGSACHSEN
100
AcDbSpline
 62
7
  6
CONTINUOUS
 70
0
 71
3
 72
27
 73
23
 74
0
 42
0.0000001
 43
0.0000001
 44
0.0000000001
 40
0.0
 40
0.0
 40
0.0
 40
0.0
 40
0.0624047442
 40
0.0937178196
 40
0.125044075
 40
0.1876766066
 40
0.2503035394
 40
0.2815837936
 40
0.3128118716
 40
0.3750834694
 40
0.4372988673
 40
0.4997138336
 40
0.5622731689
 40
0.6249433191
 40
0.6878071312
 40
0.7193142671
 40
0.7508132395
 40
0.8135993257
 40
0.876015599
 40
0.9071260264
 40
0.9381824302
 40
1.0
 40
1.0
 40
1.0
 40
1.0
 10
122.5045689611
 20
122.6574598687
 30
0.0
 10
122.5044032306
 20
123.0814807484
 30
0.0
 10
122.5676248495
 20
123.7205439224
 30
0.0
 10
122.7743318699
 20
124.5456517458
 30
0.0
 10
123.0616896471
 20
125.34820222
 30
0.0
 10
123.5673250621
 20
126.2926411156
 30
0.0
 10
124.2483443014
 20
127.1192258001
 30
0.0
 10
124.8805337744
 20
127.6895861323
 30
0.0
 10
125.5635139104
 20
128.1939297731
 30
0.0
 10
126.5038907417
 20
128.6946299572
 30
0.0
 10
127.7268722146
 20
129.0649683514
 30
0.0
 10
129.000634459
 20
129.1915532055
 30
0.0
 10
130.2778683737
 20
129.0679624799
 30
0.0
 10
131.5092812173
 20
128.6968136559
 30
0.0
 10
132.4573591565
 20
128.1908669875
 30
0.0
 10
133.1449197795
 20
127.6802009344
 30
0.0
 10
133.7782637835
 20
127.1044200091
 30
0.0
 10
134.456136916
 20
126.2737407049
 30
0.0
 10
134.9564233316
 20
125.3286430695
 30
0.0
 10
135.2391266568
 20
124.5294364149
 30
0.0
 10
135.4417075746
 20
123.7107461741
 30
0.0
 10
135.5035330539
 20
123.0774910948
 30
0.0
 10
135.5034103848
 20
122.6574598688
 30
0.0
  0
SPLINE
  5
301
100
AcDbEntity
  8
0
100
AcDbSpline
 62
7
  6
CONTINUOUS
 70
0
 71
3
 72
28
 73
24
 74
0
 42
0.0000001
 43
0.0000001
 44
0.0000000001
 40
0.0
 40
0.0
 40
0.0
 40
0.0
 40
0.178382713
 40
0.3529857347
 40
0.4372172345
 40
0.5182394063
 40
0.5948585234
 40
0.665378523
 40
0.7276604083
 40
0.7549513331
 40
0.7791795315
 40
0.7999955474
 40
0.8171668292
 40
0.830722366
 40
0.8414045528
 40
0.8510918399
 40
0.8622800279
 40
0.8765911942
 40
0.8946036685
 40
0.9162571672
 40
0.9412727799
 40
0.9693112055
 40
1.0
 40
1.0
 40
1.0
 40
1.0
 10
232.4410945418
 20
146.5674793294
 30
0.0
 10
232.6225863457
 20
146.5531996816
 30
0.0
 10
232.9814440516
 20
146.5212657401
 30
0.0
 10
233.4249845243
 20
146.4720550475
 30
0.0
 10
233.768835476
 20
146.4264469358
 30
0.0
 10
234.0129540988
 20
146.3897392593
 30
0.0
 10
234.2424311344
 20
146.3500460036
 30
0.0
 10
234.4518536338
 20
146.3071940557
 30
0.0
 10
234.61042412
 20
146.2673420593
 30
0.0
 10
234.7212589671
 20
146.2325150624
 30
0.0
 10
234.7904767261
 20
146.2067075788
 30
0.0
 10
234.8482125575
 20
146.1800986938
 30
0.0
 10
234.8933503318
 20
146.1527164294
 30
0.0
 10
234.9250956486
 20
146.1243387239
 30
0.0
 10
234.942636059
 20
146.093042631
 30
0.0
 10
234.941000499
 20
146.0591930372
 30
0.0
 10
234.921101686
 20
146.0280666969
 30
0.0
 10
234.8874005184
 20
145.9987791986
 30
0.0
 10
234.8402312856
 20
145.9699857402
 30
0.0
 10
234.7806596625
 20
145.9414123444
 30
0.0
 10
234.7098192285
 20
145.9131044472
 30
0.0
 10
234.6290484622
 20
145.8851079128
 30
0.0
 10
234.5717832777
 20
145.8673840039
 30
0.0
 10
234.5417534617
 20
145.8584866177
 30
0.0
  0
SPLINE
  5
302
100
AcDbEntity
  8
0
100
AcDbSpline
 62
7
  6
CONTINUOUS
 70
0
 71
3
 72
74
 73
70
 74
0
 42
0.0000001
 43
0.0000001
 44
0.0000000001
 40
0.0
 40
0.0
 40
0.0
 40
0.0
 40
0.0134352293
 40
0.0262492437
 40
0.038097934
 40
0.0435401048
 40
0.0486050243
 40
0.053276785
 40
0.0576151588
 40
0.0617782257
 40
0.0659919275
 40
0.0704649875
 40
0.0753211887
 40
0.0805890514
 40
0.0862404631
 40
0.0985027577
 40
0.1117261297
 40
0.1255904802
 40
0.1398803087
 40
0.1691418947
 40
0.1838979157
 40
0.1986138733
 40
0.2131926739
 40
0.2275283834
 40
0.241499912
 40
0.2549802093
 40
0.2679455892
 40
0.2743222371
 40
0.2807137188
 40
0.2872110375
 40
0.2938957191
 40
0.3079702816
 40
0.3229931001
 40
0.3387382822
 40
0.3549814441
 40
0.371560692
 40
0.3883688013
 40
0.4053282262
 40
0.4394869522
 40
0.4566021176
 40
0.4736856798
 40
0.4906916991
 40
0.5075631674
 40
0.5242369896
 40
0.5406789524
 40
0.5488452134
 40
0.5569973292
 40
0.5651655661
 40
0.573376894
 40
0.5899762834
 40
0.6068589673
 40
0.6239743739
 40
0.6412634339
 40
0.6761876255
 40
0.7114062266
 40
0.7467965414
 40
0.7645404659
 40
0.782313452
 40
0.8001190975
 40
0.81797208
 40
0.835896878
 40
0.8539284649
 40
0.8630034329
 40
0.8721014306
 40
0.8903329763
 40
0.9086062003
 40
0.9268942868
 40
0.9634585866
 40
1.0
 40
1.0
 40
1.0
 40
1.0
 10
232.4891671975
 20
100.297341898
 30
0.0
 10
232.6130581421
 20
100.3535878829
 30
0.0
 10
232.853015421
 20
100.4683184497
 30
0.0
 10
233.1906794827
 20
100.6554380783
 30
0.0
 10
233.4429678161
 20
100.8284487191
 30
0.0
 10
233.6119527995
 20
100.9796414834
 30
0.0
 10
233.7144692612
 20
101.0947788182
 30
0.0
 10
233.7919437658
 20
101.2153560585
 30
0.0
 10
233.8393689528
 20
101.341410171
 30
0.0
 10
233.8520909543
 20
101.4711811446
 30
0.0
 10
233.8287872534
 20
101.6007491501
 30
0.0
 10
233.7722232948
 20
101.7268832086
 30
0.0
 10
233.6869036541
 20
101.8483809133
 30
0.0
 10
233.5780090006
 20
101.9657481024
 30
0.0
 10
233.4019101907
 20
102.1214162576
 30
0.0
 10
233.1434676851
 20
102.3034152697
 30
0.0
 10
232.8005864057
 20
102.5067385257
 30
0.0
 10
232.4309796105
 20
102.7043835127
 30
0.0
 10
231.9116497341
 20
102.9659271686
 30
0.0
 10
231.3807447038
 20
103.2244697095
 30
0.0
 10
230.8515049937
 20
103.4960262405
 30
0.0
 10
230.4598867542
 20
103.709839028
 30
0.0
 10
230.0809218792
 20
103.9374009945
 30
0.0
 10
229.7226273032
 20
104.1835042941
 30
0.0
 10
229.3959780229
 20
104.4539517428
 30
0.0
 10
229.1183372487
 20
104.7570037092
 30
0.0
 10
228.9476204774
 20
105.047060152
 30
0.0
 10
228.8695279308
 20
105.2968461628
 30
0.0
 10
228.843088273
 20
105.4911122027
 30
0.0
 10
228.8498803777
 20
105.6901357868
 30
0.0
 10
228.9034408179
 20
105.9619972765
 30
0.0
 10
229.0496500547
 20
106.2977994121
 30
0.0
 10
229.3057249147
 20
106.6744770562
 30
0.0
 10
229.6185840871
 20
107.0343266978
 30
0.0
 10
229.9684614336
 20
107.3803867796
 30
0.0
 10
230.3421881709
 20
107.7166450301
 30
0.0
 10
230.7311246619
 20
108.0463946487
 30
0.0
 10
231.2620788168
 20
108.4837558594
 30
0.0
 10
231.796941348
 20
108.9213821248
 30
0.0
 10
232.3183538637
 20
109.376901326
 30
0.0
 10
232.6960315828
 20
109.7325005391
 30
0.0
 10
233.051410365
 20
110.1072653677
 30
0.0
 10
233.3715875465
 20
110.5079334112
 30
0.0
 10
233.6358221455
 20
110.9417835044
 30
0.0
 10
233.7856212365
 20
111.3362025394
 30
0.0
 10
233.8423885511
 20
111.6640279008
 30
0.0
 10
233.8512684483
 20
111.9126365113
 30
0.0
 10
233.826039535
 20
112.1605665944
 30
0.0
 10
233.7484257451
 20
112.4862843815
 30
0.0
 10
233.5783648337
 20
112.8762753628
 30
0.0
 10
233.2984670012
 20
113.3071200549
 30
0.0
 10
232.9681211051
 20
113.7088577908
 30
0.0
 10
232.4840308573
 20
114.2178961231
 30
0.0
 10
231.8308078893
 20
114.8165496449
 30
0.0
 10
231.0275073286
 20
115.5210774809
 30
0.0
 10
230.3705132367
 20
116.1294580756
 30
0.0
 10
229.8775132413
 20
116.6520666688
 30
0.0
 10
229.5334951204
 20
117.0690406587
 30
0.0
 10
229.2306654692
 20
117.5189145201
 30
0.0
 10
228.9918234436
 20
118.0088389613
 30
0.0
 10
228.849275649
 20
118.5392609739
 30
0.0
 10
228.8381218622
 20
119.0000069885
 30
0.0
 10
228.893724332
 20
119.3630740526
 30
0.0
 10
228.9897415659
 20
119.7197293464
 30
0.0
 10
229.1744271495
 20
120.1456958465
 30
0.0
 10
229.4654879508
 20
120.619509564
 30
0.0
 10
229.9145325868
 20
121.2094476302
 30
0.0
 10
230.5462391966
 20
121.8880535452
 30
0.0
 10
231.0797729332
 20
122.4012025013
 30
0.0
 10
231.3467514633
 20
122.6574598882
 30
0.0
  0
SPLINE
  5
303
100
AcDbEntity
  8
BEZUGSACHSEN
100
AcDbSpline
 62
7
  6
CONTINUOUS
 70
0
 71
3
 72
27
 73
23
 74
0
 42
0.0000001
 43
0.0000001
 44
0.0000000001
 40
0.0
 40
0.0
 40
0.0
 40
0.0
 40
0.0617823826
 40
0.0928305613
 40
0.1239363934
 40
0.1863496463
 40
0.2491372129
 40
0.2806321488
 40
0.3121322135
 40
0.3749845463
 40
0.437670344
 40
0.5002618424
 40
0.5626954162
 40
0.6249198538
 40
0.687183564
 40
0.7184080805
 40
0.7496851315
 40
0.8123076268
 40
0.8749370714
 40
0.9062619162
 40
0.9375766059
 40
1.0
 40
1.0
 40
1.0
 40
1.0
 10
135.5033981932
 20
122.6574599069
 30
0.0
 10
135.5035522969
 20
122.2376678034
 30
0.0
 10
135.4417626044
 20
121.6047107596
 30
0.0
 10
135.2393725698
 20
120.7863117758
 30
0.0
 10
134.9568176423
 20
119.987166721
 30
0.0
 10
134.4566979892
 20
119.0420300131
 30
0.0
 10
133.7789825945
 20
118.2112706175
 30
0.0
 10
133.1457811571
 20
117.6354307172
 30
0.0
 10
132.4584342881
 20
117.1247357567
 30
0.0
 10
131.5104844958
 20
116.6185979955
 30
0.0
 10
130.2789037514
 20
116.2471316604
 30
0.0
 10
129.0012253677
 20
116.1233241807
 30
0.0
 10
127.7270461273
 20
116.2498996781
 30
0.0
 10
126.5039315135
 20
116.6202709882
 30
0.0
 10
125.5635700385
 20
117.1209609482
 30
0.0
 10
124.8806614407
 20
117.6252331172
 30
0.0
 10
124.2485114461
 20
118.1955228395
 30
0.0
 10
123.5675028936
 20
119.0220197302
 30
0.0
 10
123.0618463524
 20
119.9663777274
 30
0.0
 10
122.7744477799
 20
120.7688918345
 30
0.0
 10
122.5676482986
 20
121.5941103537
 30
0.0
 10
122.5044226086
 20
122.2333123237
 30
0.0
 10
122.5045558526
 20
122.6574599086
 30
0.0
  0
SPLINE
  5
304
100
AcDbEntity
  8
0
100
AcDbSpline
 62
7
  6
CONTINUOUS
 70
0
 71
3
 72
13
 73
9
 74
0
 42
0.0000001
 43
0.0000001
 44
0.0000000001
 40
0.0
 40
0.0
 40
0.0
 40
0.0
 40
0.2499727005
 40
0.4997185549
 40
0.6248967789
 40
0.7500099093
 40
0.8750377495
 40
1.0
 40
1.0
 40
1.0
 40
1.0
 10
165.8789845554
 20
87.775516135
 30
0.0
 10
165.8789845554
 20
87.9302603653
 30
0.0
 10
165.8396921814
 20
88.2408590483
 30
0.0
 10
165.6881194468
 20
88.6036751832
 30
0.0
 10
165.4995536856
 20
88.8512620775
 30
0.0
 10
165.3224090291
 20
89.0047430278
 30
0.0
 10
165.1121053988
 20
89.1096880553
 30
0.0
 10
164.9563417517
 20
89.1350793044
 30
0.0
 10
164.8789845554
 20
89.1350793044
 30
0.0
  0
SPLINE
  5
305
100
AcDbEntity
  8
0
100
AcDbSpline
 62
7
  6
CONTINUOUS
 70
0
 71
3
 72
80
 73
76
 74
0
 42
0.0000001
 43
0.0000001
 44
0.0000000001
 40
0.0
 40
0.0
 40
0.0
 40
0.0
 40
0.0129543169
 40
0.0253646353
 40
0.0369491708
 40
0.0473576356
 40
0.05205186
 40
0.0564126428
 40
0.0605446728
 40
0.0646414251
 40
0.0689302921
 40
0.0735914262
 40
0.0787139007
 40
0.0842944721
 40
0.090289205
 40
0.0966396092
 40
0.1101776883
 40
0.1245168441
 40
0.1393883493
 40
0.1546098933
 40
0.1700465578
 40
0.185595626
 40
0.2011680461
 40
0.2166731572
 40
0.2320059636
 40
0.2470410374
 40
0.2616079487
 40
0.2686655085
 40
0.2755485421
 40
0.2822538555
 40
0.288807048
 40
0.2952727524
 40
0.3017432929
 40
0.3083129146
 40
0.3150476328
 40
0.3219795605
 40
0.329105093
 40
0.3438693295
 40
0.3591811677
 40
0.3748759884
 40
0.390836822
 40
0.4069778535
 40
0.4395613076
 40
0.4722426098
 40
0.4885266346
 40
0.5047231822
 40
0.5208091041
 40
0.5368163138
 40
0.5448455333
 40
0.5529236995
 40
0.5610807776
 40
0.5693396559
 40
0.5861737065
 40
0.6034123247
 40
0.6209376821
 40
0.6386525989
 40
0.6744114964
 40
0.7104130697
 40
0.7284601036
 40
0.7465237908
 40
0.7645955682
 40
0.7826676634
 40
0.8007304644
 40
0.8187748235
 40
0.8367923423
 40
0.8458103858
 40
0.8548299789
 40
0.8638542588
 40
0.8728851778
 40
0.8909576106
 40
0.9090725612
 40
0.927219312
 40
0.9453900861
 40
0.9635790864
 40
1.0
 40
1.0
 40
1.0
 40
1.0
 10
231.4934717648
 20
145.162704405
 30
0.0
 10
231.3663530749
 20
145.1265083082
 30
0.0
 10
231.118753559
 20
145.0509273022
 30
0.0
 10
230.764578309
 20
144.9207698849
 30
0.0
 10
230.4462974458
 20
144.7717487655
 30
0.0
 10
230.2168376604
 20
144.6212511606
 30
0.0
 10
230.0749423502
 20
144.4812277112
 30
0.0
 10
229.997260913
 20
144.370187811
 30
0.0
 10
229.9496267955
 20
144.2493555194
 30
0.0
 10
229.9364926224
 20
144.1206858209
 30
0.0
 10
229.958450833
 20
143.9880293627
 30
0.0
 10
230.0128598654
 20
143.8541714167
 30
0.0
 10
230.0959247962
 20
143.7206018403
 30
0.0
 10
230.2028037965
 20
143.587561267
 30
0.0
 10
230.3296634423
 20
143.4555686099
 30
0.0
 10
230.5249690912
 20
143.2776089054
 30
0.0
 10
230.8002778549
 20
143.0621159965
 30
0.0
 10
231.1579207808
 20
142.8123240303
 30
0.0
 10
231.5378732402
 20
142.5649387439
 30
0.0
 10
231.9314688276
 20
142.3182031015
 30
0.0
 10
232.3321663075
 20
142.0697994303
 30
0.0
 10
232.7346261813
 20
141.8174433016
 30
0.0
 10
233.1337850821
 20
141.5585624368
 30
0.0
 10
233.52399089
 20
141.2901551039
 30
0.0
 10
233.89790019
 20
141.0082567587
 30
0.0
 10
234.2457666216
 20
140.7090416417
 30
0.0
 10
234.5043697579
 20
140.4371771297
 30
0.0
 10
234.6787119404
 20
140.2039063917
 30
0.0
 10
234.7878639671
 20
140.0232625096
 30
0.0
 10
234.8723325334
 20
139.8352266695
 30
0.0
 10
234.9265577502
 20
139.6405201969
 30
0.0
 10
234.9471341246
 20
139.441726091
 30
0.0
 10
234.9324070865
 20
139.2422217285
 30
0.0
 10
234.8833535499
 20
139.0456023122
 30
0.0
 10
234.8036505814
 20
138.8544339402
 30
0.0
 10
234.6981924336
 20
138.6698706996
 30
0.0
 10
234.5278841806
 20
138.429698573
 30
0.0
 10
234.2724412699
 20
138.147374418
 30
0.0
 10
233.9272065387
 20
137.8324228277
 30
0.0
 10
233.5548232215
 20
137.5305249863
 30
0.0
 10
233.165398208
 20
137.236920458
 30
0.0
 10
232.6316531054
 20
136.8486969493
 30
0.0
 10
231.9578994164
 20
136.3632003413
 30
0.0
 10
231.3043581232
 20
135.8465296239
 30
0.0
 10
230.8202656054
 20
135.3900578156
 30
0.0
 10
230.489463801
 20
135.0199101648
 30
0.0
 10
230.2092981344
 20
134.6125573376
 30
0.0
 10
230.0404613983
 20
134.2357520418
 30
0.0
 10
229.9633614021
 20
133.9164030421
 30
0.0
 10
229.9376119279
 20
133.6694132446
 30
0.0
 10
229.9453231171
 20
133.4188716606
 30
0.0
 10
230.0000594932
 20
133.0831856654
 30
0.0
 10
230.1468230055
 20
132.6732005922
 30
0.0
 10
230.4079149194
 20
132.2142214145
 30
0.0
 10
230.726438753
 20
131.7827751
 30
0.0
 10
231.2013489447
 20
131.2351572102
 30
0.0
 10
231.8512600811
 20
130.5928459822
 30
0.0
 10
232.5240928598
 20
129.9710387172
 30
0.0
 10
233.0586419844
 20
129.4654216864
 30
0.0
 10
233.4522021032
 20
129.0770987503
 30
0.0
 10
233.831201994
 20
128.6740286764
 30
0.0
 10
234.1866218399
 20
128.2497220896
 30
0.0
 10
234.5041211455
 20
127.7959545662
 30
0.0
 10
234.7615319586
 20
127.3051825943
 30
0.0
 10
234.8990634388
 20
126.8621706713
 30
0.0
 10
234.9433616308
 20
126.4960930369
 30
0.0
 10
234.9422077858
 20
126.2192557234
 30
0.0
 10
234.9066570365
 20
125.9445964283
 30
0.0
 10
234.8158799205
 20
125.5865784585
 30
0.0
 10
234.6330991901
 20
125.1599165304
 30
0.0
 10
234.3403635373
 20
124.6876443784
 30
0.0
 10
234.0002402541
 20
124.2477706873
 30
0.0
 10
233.6308484606
 20
123.8317066493
 30
0.0
 10
233.1135678327
 20
123.2987324453
 30
0.0
 10
232.710114656
 20
122.9142997802
 30
0.0
 10
232.4415649606
 20
122.6574598882
 30
0.0
  0
SPLINE
  5
306
100
AcDbEntity
  8
0
100
AcDbSpline
 62
7
  6
CONTINUOUS
 70
0
 71
3
 72
27
 73
23
 74
0
 42
0.0000001
 43
0.0000001
 44
0.0000000001
 40
0.0
 40
0.0
 40
0.0
 40
0.0
 40
0.1802131612
 40
0.3557161924
 40
0.440031965
 40
0.5209162085
 40
0.5971948306
 40
0.6672736964
 40
0.7290512584
 40
0.7801389515
 40
0.8008697211
 40
0.8180461419
 40
0.8317292007
 40
0.8425404398
 40
0.8522046963
 40
0.8631382964
 40
0.8770469477
 40
0.8946302168
 40
0.9159917064
 40
0.9408959532
 40
0.9690126636
 40
1.0
 40
1.0
 40
1.0
 40
1.0
 10
231.3468393556
 20
98.6613208771
 30
0.0
 10
231.1672483632
 20
98.6471863954
 30
0.0
 10
230.8124681619
 20
98.6228850789
 30
0.0
 10
230.3730222755
 20
98.6024612507
 30
0.0
 10
230.0325361054
 20
98.5940733506
 30
0.0
 10
229.7911352349
 20
98.5923895475
 30
0.0
 10
229.5639868632
 20
98.5959353712
 30
0.0
 10
229.3560844662
 20
98.6055118892
 30
0.0
 10
229.1739445138
 20
98.6223062824
 30
0.0
 10
229.0418471952
 20
98.6439170232
 30
0.0
 10
228.956097918
 20
98.6680159266
 30
0.0
 10
228.9081846168
 20
98.6875595733
 30
0.0
 10
228.8726971543
 20
98.7099087586
 30
0.0
 10
228.8500973923
 20
98.7369533456
 30
0.0
 10
228.8447425042
 20
98.7694982736
 30
0.0
 10
228.8574723675
 20
98.802710376
 30
0.0
 10
228.8839743558
 20
98.8361696695
 30
0.0
 10
228.9237115855
 20
98.871273679
 30
0.0
 10
228.9759883564
 20
98.9080133912
 30
0.0
 10
229.0397485334
 20
98.9463526563
 30
0.0
 10
229.1138072204
 20
98.9859931275
 30
0.0
 10
229.1668770894
 20
99.0119849751
 30
0.0
 10
229.194868689
 20
99.0252504776
 30
0.0
  0
SPLINE
  5
307
100
AcDbEntity
  8
BEZUGSACHSEN
100
AcDbSpline
 62
7
  6
CONTINUOUS
 70
0
 71
3
 72
26
 73
22
 74
0
 42
0.0000001
 43
0.0000001
 44
0.0000000001
 40
0.0
 40
0.0
 40
0.0
 40
0.0
 40
0.011817827
 40
0.0246584382
 40
0.0397502475
 40
0.0578089761
 40
0.1038378741
 40
0.1631305833
 40
0.2342775701
 40
0.3150257049
 40
0.4025982066
 40
0.493876938
 40
0.5855361495
 40
0.6742091723
 40
0.7566722606
 40
0.8300161632
 40
0.8625040068
 40
0.8918751418
 40
0.9179632586
 40
0.9406834995
 40
1.0
 40
1.0
 40
1.0
 40
1.0
 10
193.5539845554
 20
148.7089634576
 30
0.0
 10
193.5539845554
 20
148.7211692715
 30
0.0
 10
193.5591347158
 20
148.7468953956
 30
0.0
 10
193.5819743262
 20
148.781879986
 30
0.0
 10
193.61817207
 20
148.8132723454
 30
0.0
 10
193.6893072948
 20
148.8542752866
 30
0.0
 10
193.8113102706
 20
148.8943883985
 30
0.0
 10
193.9906156898
 20
148.9279046093
 30
0.0
 10
194.207970593
 20
148.9490045773
 30
0.0
 10
194.4552492495
 20
148.957584755
 30
0.0
 10
194.7234403257
 20
148.9538016556
 30
0.0
 10
195.0024679191
 20
148.9381759495
 30
0.0
 10
195.2817914352
 20
148.9114092592
 30
0.0
 10
195.5507641345
 20
148.8743787294
 30
0.0
 10
195.7991009895
 20
148.8280487345
 30
0.0
 10
195.9879743355
 20
148.7810822117
 30
0.0
 10
196.1211090251
 20
148.7385162745
 30
0.0
 10
196.2059331934
 20
148.7064756974
 30
0.0
 10
196.2800252471
 20
148.6725249599
 30
0.0
 10
196.3747311851
 20
148.6195081622
 30
0.0
 10
196.4539845554
 20
148.5497693247
 30
0.0
 10
196.4539845554
 20
148.4885054251
 30
0.0
  0
SPLINE
  5
308
100
AcDbEntity
  8
BEZUGSACHSEN
100
AcDbSpline
 62
7
  6
CONTINUOUS
 70
0
 71
3
 72
15
 73
11
 74
0
 42
0.0000001
 43
0.0000001
 44
0.0000000001
 40
0.0
 40
0.0
 40
0.0
 40
0.0
 40
0.1299002449
 40
0.2494798322
 40
0.3607919885
 40
0.4699150991
 40
0.5850362653
 40
0.7115743554
 40
0.8504605058
 40
1.0
 40
1.0
 40
1.0
 40
1.0
 10
94.8546156353
 20
107.8124441913
 30
0.0
 10
94.7972405371
 20
107.7912355192
 30
0.0
 10
94.6838223685
 20
107.7581838994
 30
0.0
 10
94.5129010771
 20
107.7444488454
 30
0.0
 10
94.3532738423
 20
107.7773540812
 30
0.0
 10
94.2165681948
 20
107.8635054338
 30
0.0
 10
94.1143213719
 20
107.9968047884
 30
0.0
 10
94.0471785834
 20
108.1646260891
 30
0.0
 10
94.0106755263
 20
108.3574304791
 30
0.0
 10
94.0039845554
 20
108.4934404186
 30
0.0
 10
94.0039845554
 20
108.5638579799
 30
0.0
  0
SPLINE
  5
309
100
AcDbEntity
  8
0
100
AcDbSpline
 62
7
  6
CONTINUOUS
 70
0
 71
3
 72
100
 73
96
 74
0
 42
0.0000001
 43
0.0000001
 44
0.0000000001
 40
0.0
 40
0.0
 40
0.0
 40
0.0
 40
0.0192372708
 40
0.0384870642
 40
0.0577453215
 40
0.0770045343
 40
0.0962465641
 40
0.1058595792
 40
0.1154558774
 40
0.1250241263
 40
0.1345594555
 40
0.1440573099
 40
0.1535194343
 40
0.172330789
 40
0.191082856
 40
0.20979645
 40
0.2284749954
 40
0.2471151189
 40
0.2657064311
 40
0.2842330374
 40
0.3026710973
 40
0.3209839736
 40
0.3391163735
 40
0.3569856224
 40
0.3658046066
 40
0.3745332945
 40
0.3831800206
 40
0.3917743958
 40
0.4003597794
 40
0.4089803224
 40
0.4176658039
 40
0.4264233825
 40
0.4441204776
 40
0.4620133548
 40
0.4800102268
 40
0.4980407291
 40
0.5160422557
 40
0.5339523311
 40
0.5516937094
 40
0.5691553963
 40
0.5861720369
 40
0.6024735514
 40
0.6102558428
 40
0.6177317411
 40
0.6248913944
 40
0.6317827432
 40
0.6385186801
 40
0.6452368902
 40
0.6520522063
 40
0.6590199112
 40
0.673436447
 40
0.6884023208
 40
0.7037214847
 40
0.719229342
 40
0.7347786063
 40
0.7502307521
 40
0.7654290021
 40
0.7801604383
 40
0.7872631566
 40
0.7941225501
 40
0.800673491
 40
0.8068394518
 40
0.8125448534
 40
0.817735987
 40
0.8224370741
 40
0.826840192
 40
0.8312753569
 40
0.8360514551
 40
0.8413149477
 40
0.847059852
 40
0.853227783
 40
0.8597428875
 40
0.8735182199
 40
0.8879311778
 40
0.9026715132
 40
0.9175017532
 40
0.9322175898
 40
0.9465923635
 40
0.9535619407
 40
0.9603251815
 40
0.9668234934
 40
0.9729773778
 40
0.9786821287
 40
0.9838086858
 40
0.9882044523
 40
0.9900760385
 40
0.9917034241
 40
0.9930726768
 40
0.9941876531
 40
0.9950833321
 40
0.9958430113
 40
0.996607144
 40
0.9975122651
 40
0.9986351207
 40
1.0
 40
1.0
 40
1.0
 40
1.0
 10
232.4415649606
 20
122.6574598882
 30
0.0
 10
232.2818960305
 20
122.5047531398
 30
0.0
 10
231.9627109738
 20
122.1989640961
 30
0.0
 10
231.4928334545
 20
121.7308184916
 30
0.0
 10
231.0426294959
 20
121.2430446132
 30
0.0
 10
230.6263356144
 20
120.725727508
 30
0.0
 10
230.3278887297
 20
120.2582368074
 30
0.0
 10
230.1390163951
 20
119.8583744738
 30
0.0
 10
230.0291227457
 20
119.5459135553
 30
0.0
 10
229.9589101409
 20
119.2228687499
 30
0.0
 10
229.9341162873
 20
118.8942096761
 30
0.0
 10
229.9565344135
 20
118.5665606412
 30
0.0
 10
230.0473065592
 20
118.1410451418
 30
0.0
 10
230.260584272
 20
117.6395429902
 30
0.0
 10
230.6168443873
 20
117.0978868972
 30
0.0
 10
231.0323267764
 20
116.6035424145
 30
0.0
 10
231.4819648902
 20
116.1426884791
 30
0.0
 10
231.951413889
 20
115.7044019635
 30
0.0
 10
232.429684481
 20
115.278547439
 30
0.0
 10
232.9084458511
 20
114.8567683499
 30
0.0
 10
233.3792896247
 20
114.4308546055
 30
0.0
 10
233.8315015038
 20
113.9913639019
 30
0.0
 10
234.2504742933
 20
113.5284702971
 30
0.0
 10
234.5530780189
 20
113.1095020375
 30
0.0
 10
234.745066717
 20
112.750141146
 30
0.0
 10
234.8561122781
 20
112.4696860562
 30
0.0
 10
234.926616561
 20
112.1786985815
 30
0.0
 10
234.9495580011
 20
111.88161985
 30
0.0
 10
234.923291544
 20
111.5851152378
 30
0.0
 10
234.8496608331
 20
111.2958381262
 30
0.0
 10
234.7361272374
 20
111.0180163187
 30
0.0
 10
234.5418242509
 20
110.6635212362
 30
0.0
 10
234.2373201153
 20
110.2526202708
 30
0.0
 10
233.817093159
 20
109.8021493521
 30
0.0
 10
233.3642598567
 20
109.3792640717
 30
0.0
 10
232.8933957905
 20
108.9750045024
 30
0.0
 10
232.4150819841
 20
108.5812614565
 30
0.0
 10
231.9377352991
 20
108.1915967136
 30
0.0
 10
231.4700217546
 20
107.7999559708
 30
0.0
 10
231.0231126728
 20
107.3996667117
 30
0.0
 10
230.6120597626
 20
106.9854111785
 30
0.0
 10
230.3145766384
 20
106.6165813282
 30
0.0
 10
230.1269857149
 20
106.3057113821
 30
0.0
 10
230.0206862335
 20
106.0703479128
 30
0.0
 10
229.9543864511
 20
105.8309148756
 30
0.0
 10
229.9341390643
 20
105.5914922556
 30
0.0
 10
229.962040375
 20
105.3578240397
 30
0.0
 10
230.0361025619
 20
105.1356028012
 30
0.0
 10
230.1492616832
 20
104.9279881634
 30
0.0
 10
230.3434258276
 20
104.6677351781
 30
0.0
 10
230.6473760828
 20
104.3778929444
 30
0.0
 10
231.0627975985
 20
104.0751470274
 30
0.0
 10
231.511812992
 20
103.8005429937
 30
0.0
 10
231.9799481983
 20
103.5462526376
 30
0.0
 10
232.4565912104
 20
103.3050696682
 30
0.0
 10
232.9330333922
 20
103.0715365233
 30
0.0
 10
233.4003506265
 20
102.8407448404
 30
0.0
 10
233.7774720021
 20
102.6438627429
 30
0.0
 10
234.0637443831
 20
102.4805295441
 30
0.0
 10
234.2641075506
 20
102.3564729334
 30
0.0
 10
234.4491529617
 20
102.2285430793
 30
0.0
 10
234.6143305348
 20
102.0959190648
 30
0.0
 10
234.7541816517
 20
101.957998601
 30
0.0
 10
234.8625007165
 20
101.8141187779
 30
0.0
 10
234.9305756039
 20
101.6626175021
 30
0.0
 10
234.9494887106
 20
101.5054414532
 30
0.0
 10
234.9151746163
 20
101.350142608
 30
0.0
 10
234.8340116433
 20
101.2031629073
 30
0.0
 10
234.7154757316
 20
101.0649273001
 30
0.0
 10
234.5674440611
 20
100.9339016389
 30
0.0
 10
234.395794107
 20
100.8096770907
 30
0.0
 10
234.1374585645
 20
100.6493430481
 30
0.0
 10
233.7831724178
 20
100.4656990341
 30
0.0
 10
233.3328837209
 20
100.2646128028
 30
0.0
 10
232.8642205793
 20
100.0759032404
 30
0.0
 10
232.3881642806
 20
99.8967647655
 30
0.0
 10
231.9137074006
 20
99.7254659904
 30
0.0
 10
231.523482727
 20
99.5867503558
 30
0.0
 10
231.2196963614
 20
99.477561247
 30
0.0
 10
231.0014576916
 20
99.3978108334
 30
0.0
 10
230.7926827438
 20
99.3194717543
 30
0.0
 10
230.5963149025
 20
99.2427178388
 30
0.0
 10
230.4161595885
 20
99.167826851
 30
0.0
 10
230.2569595626
 20
99.0953833666
 30
0.0
 10
230.1406441511
 20
99.0351313675
 30
0.0
 10
230.0633762421
 20
98.9875971229
 30
0.0
 10
230.0177896506
 20
98.9551314662
 30
0.0
 10
229.9821127622
 20
98.9240081898
 30
0.0
 10
229.9569681739
 20
98.8941766757
 30
0.0
 10
229.9425228429
 20
98.865245427
 30
0.0
 10
229.9407662129
 20
98.8364878727
 30
0.0
 10
229.9531358221
 20
98.8103788412
 30
0.0
 10
229.9771585997
 20
98.7884225313
 30
0.0
 10
230.0112937342
 20
98.7692596
 30
0.0
 10
230.0380231181
 20
98.7589524666
 30
0.0
 10
230.0528812384
 20
98.7539567769
 30
0.0
  0
SPLINE
  5
30A
100
AcDbEntity
  8
BEZUGSACHSEN
100
AcDbSpline
 62
7
  6
CONTINUOUS
 70
0
 71
3
 72
11
 73
7
 74
0
 42
0.0000001
 43
0.0000001
 44
0.0000000001
 40
0.0
 40
0.0
 40
0.0
 40
0.0
 40
0.2496250566
 40
0.4995780431
 40
0.7497383209
 40
1.0
 40
1.0
 40
1.0
 40
1.0
 10
95.9039100707
 20
106.9809275019
 30
0.0
 10
95.806034554
 20
106.9920623311
 30
0.0
 10
95.6130109667
 20
107.0479068404
 30
0.0
 10
95.3599496262
 20
107.2060283086
 30
0.0
 10
95.1440113341
 20
107.4107082196
 30
0.0
 10
95.0217432707
 20
107.5665294648
 30
0.0
 10
94.9651444601
 20
107.6474598882
 30
0.0
  0
SPLINE
  5
30B
100
AcDbEntity
  8
0
100
AcDbSpline
 62
7
  6
CONTINUOUS
 70
0
 71
3
 72
98
 73
94
 74
0
 42
0.0000001
 43
0.0000001
 44
0.0000000001
 40
0.0
 40
0.0
 40
0.0
 40
0.0
 40
0.0192291293
 40
0.0384412521
 40
0.0576325874
 40
0.0767968867
 40
0.0959210272
 40
0.1054737503
 40
0.1150147059
 40
0.1245430201
 40
0.134064104
 40
0.1435816972
 40
0.1531002243
 40
0.1626232868
 40
0.1721520788
 40
0.1912092129
 40
0.2102829914
 40
0.229357175
 40
0.2484194498
 40
0.2674563019
 40
0.286451228
 40
0.3053804586
 40
0.3242058159
 40
0.3428649307
 40
0.3612494248
 40
0.3703006965
 40
0.3792245894
 40
0.3880083655
 40
0.3966556682
 40
0.4051951797
 40
0.413669748
 40
0.4305615519
 40
0.4475692743
 40
0.4647091195
 40
0.4819331365
 40
0.4991869575
 40
0.5164110769
 40
0.5335417101
 40
0.550502169
 40
0.5671849298
 40
0.5834369009
 40
0.5990303595
 40
0.606506345
 40
0.6137377056
 40
0.6207381408
 40
0.6275836294
 40
0.6344042011
 40
0.6413350654
 40
0.6484648343
 40
0.6558153503
 40
0.6711014629
 40
0.6869803825
 40
0.7032065774
 40
0.7196024799
 40
0.7360219754
 40
0.7523335273
 40
0.7683895457
 40
0.783989869
 40
0.7988456781
 40
0.8058605724
 40
0.8124979189
 40
0.8186722624
 40
0.8243043466
 40
0.8293552577
 40
0.8339147573
 40
0.8382324355
 40
0.8426377057
 40
0.8473825632
 40
0.8525616358
 40
0.8581623346
 40
0.8641343486
 40
0.8769273202
 40
0.8904892938
 40
0.9044960415
 40
0.9186917787
 40
0.9328604106
 40
0.9467796481
 40
0.9601639757
 40
0.9665338321
 40
0.9726017455
 40
0.9782695062
 40
0.9834165746
 40
0.9879007064
 40
0.9898431765
 40
0.9915580573
 40
0.9930285447
 40
0.9942464427
 40
0.9952275163
 40
0.9960350143
 40
0.9967914424
 40
0.9976458805
 40
0.9987006136
 40
1.0
 40
1.0
 40
1.0
 40
1.0
 10
231.3467514633
 20
122.6574598882
 30
0.0
 10
231.5058280155
 20
122.8101483518
 30
0.0
 10
231.8240326441
 20
123.115192115
 30
0.0
 10
232.2936122458
 20
123.5802953732
 30
0.0
 10
232.7444579322
 20
124.0628824357
 30
0.0
 10
233.1622216664
 20
124.5734971461
 30
0.0
 10
233.4621546293
 20
125.0353055552
 30
0.0
 10
233.6519324861
 20
125.4310318727
 30
0.0
 10
233.7620254773
 20
125.7410094457
 30
0.0
 10
233.8318594042
 20
126.0623872817
 30
0.0
 10
233.8546390663
 20
126.3903653528
 30
0.0
 10
233.8289441981
 20
126.7180091853
 30
0.0
 10
233.7565166915
 20
127.0384337546
 30
0.0
 10
233.6442703682
 20
127.3469982547
 30
0.0
 10
233.4522647785
 20
127.7402488219
 30
0.0
 10
233.1506440686
 20
128.1984331348
 30
0.0
 10
232.7317732763
 20
128.7040733545
 30
0.0
 10
232.2802199001
 20
129.1803837011
 30
0.0
 10
231.8103845782
 20
129.6377242849
 30
0.0
 10
231.3329338128
 20
130.0856796392
 30
0.0
 10
230.8561732038
 20
130.5321359327
 30
0.0
 10
230.388497543
 20
130.9847045643
 30
0.0
 10
229.9408215737
 20
131.4520550394
 30
0.0
 10
229.5276730696
 20
131.9423873582
 30
0.0
 10
229.2303720435
 20
132.3817167769
 30
0.0
 10
229.042212713
 20
132.7544518157
 30
0.0
 10
228.9334101677
 20
133.0421103521
 30
0.0
 10
228.8637395932
 20
133.3372145725
 30
0.0
 10
228.8393506488
 20
133.6352223638
 30
0.0
 10
228.8619054387
 20
133.9298765269
 30
0.0
 10
228.9524131643
 20
134.3094873207
 30
0.0
 10
229.1659838171
 20
134.7520056048
 30
0.0
 10
229.5205237843
 20
135.2203302231
 30
0.0
 10
229.9336795137
 20
135.6416522637
 30
0.0
 10
230.3809346442
 20
136.0298971063
 30
0.0
 10
230.8480517296
 20
136.3952150214
 30
0.0
 10
231.3241932104
 20
136.7466818331
 30
0.0
 10
231.8008097042
 20
137.0917574979
 30
0.0
 10
232.2695363775
 20
137.4371358685
 30
0.0
 10
232.7197116855
 20
137.7905907509
 30
0.0
 10
233.1366873635
 20
138.1596097427
 30
0.0
 10
233.4423352581
 20
138.4936767318
 30
0.0
 10
233.6382378127
 20
138.7814315171
 30
0.0
 10
233.7523354422
 20
139.0036016377
 30
0.0
 10
233.8268760621
 20
139.2348878827
 30
0.0
 10
233.8547469763
 20
139.4719041696
 30
0.0
 10
233.8327951919
 20
139.7087686512
 30
0.0
 10
233.7636085812
 20
139.9394551903
 30
0.0
 10
233.6537022264
 20
140.160040328
 30
0.0
 10
233.4623786701
 20
140.4435850614
 30
0.0
 10
233.1608046433
 20
140.7692500679
 30
0.0
 10
232.7466295517
 20
141.1218649459
 30
0.0
 10
232.2983348221
 20
141.4515666983
 30
0.0
 10
231.830941129
 20
141.7644233052
 30
0.0
 10
231.3553307181
 20
142.0663593176
 30
0.0
 10
230.8802100846
 20
142.3616880944
 30
0.0
 10
230.4143320493
 20
142.6541369588
 30
0.0
 10
229.9688342883
 20
142.94745044
 30
0.0
 10
229.620164925
 20
143.1991250389
 30
0.0
 10
229.3677726089
 20
143.4070864321
 30
0.0
 10
229.2011712485
 20
143.5620588373
 30
0.0
 10
229.0586806209
 20
143.718795737
 30
0.0
 10
228.9460898622
 20
143.8767132718
 30
0.0
 10
228.8704720922
 20
144.0357167697
 30
0.0
 10
228.8393861853
 20
144.1946161482
 30
0.0
 10
228.8582633446
 20
144.348494368
 30
0.0
 10
228.9254659905
 20
144.4900232119
 30
0.0
 10
229.0320979584
 20
144.6166742128
 30
0.0
 10
229.1696394097
 20
144.7306846921
 30
0.0
 10
229.3319543445
 20
144.8340724305
 30
0.0
 10
229.5805105232
 20
144.9622594408
 30
0.0
 10
229.9257455253
 20
145.0992256596
 30
0.0
 10
230.3673200699
 20
145.238402583
 30
0.0
 10
230.8304593531
 20
145.3607877042
 30
0.0
 10
231.3036755057
 20
145.4710725675
 30
0.0
 10
231.7778169508
 20
145.5725317359
 30
0.0
 10
232.2437097978
 20
145.6679007037
 30
0.0
 10
232.6219452016
 20
145.7455935046
 30
0.0
 10
232.911346335
 20
145.8082328686
 30
0.0
 10
233.1137491455
 20
145.8544786482
 30
0.0
 10
233.3016591649
 20
145.9011284437
 30
0.0
 10
233.4706024121
 20
145.9484828561
 30
0.0
 10
233.5967171825
 20
145.9901558828
 30
0.0
 10
233.6833373922
 20
146.0250737466
 30
0.0
 10
233.7365351496
 20
146.0502320053
 30
0.0
 10
233.7803037848
 20
146.0755641127
 30
0.0
 10
233.8139291835
 20
146.1011489397
 30
0.0
 10
233.8368366303
 20
146.1273657588
 30
0.0
 10
233.8482036138
 20
146.1552010477
 30
0.0
 10
233.8452080942
 20
146.1838733626
 30
0.0
 10
233.8288324219
 20
146.2104924363
 30
0.0
 10
233.8015094542
 20
146.2354957091
 30
0.0
 10
233.7786768791
 20
146.2500845711
 30
0.0
 10
233.765743148
 20
146.2574821693
 30
0.0
  0
SPLINE
  5
30C
100
AcDbEntity
  8
0
100
AcDbSpline
 62
7
  6
CONTINUOUS
 70
0
 71
3
 72
9
 73
5
 74
0
 42
0.0000001
 43
0.0000001
 44
0.0000000001
 40
0.0
 40
0.0
 40
0.0
 40
0.0
 40
0.2393144822
 40
1.0
 40
1.0
 40
1.0
 40
1.0
 10
233.765743148
 20
146.2574821693
 30
0.0
 10
233.7632275064
 20
146.2589210199
 30
0.0
 10
233.7526544681
 20
146.2648263269
 30
0.0
 10
233.741858645
 20
146.2703284034
 30
0.0
 10
233.7335630906
 20
146.2743334721
 30
0.0
  0
SPLINE
  5
30D
100
AcDbEntity
  8
BEZUGSACHSEN
100
AcDbSpline
 62
7
  6
CONTINUOUS
 70
0
 71
3
 72
9
 73
5
 74
0
 42
0.0000001
 43
0.0000001
 44
0.0000000001
 40
0.0
 40
0.0
 40
0.0
 40
0.0
 40
0.4974022
 40
1.0
 40
1.0
 40
1.0
 40
1.0
 10
103.5578305023
 20
137.6674598882
 30
0.0
 10
103.689922072
 20
137.3282085844
 30
0.0
 10
103.9130268522
 20
136.6282065926
 30
0.0
 10
104.0039845554
 20
135.8949781173
 30
0.0
 10
104.0039845554
 20
135.5271154139
 30
0.0
  0
SPLINE
  5
30E
100
AcDbEntity
  8
BEZUGSACHSEN
100
AcDbSpline
 62
7
  6
CONTINUOUS
 70
0
 71
3
 72
9
 73
5
 74
0
 42
0.0000001
 43
0.0000001
 44
0.0000000001
 40
0.0
 40
0.0
 40
0.0
 40
0.0
 40
0.2480232794
 40
1.0
 40
1.0
 40
1.0
 40
1.0
 10
195.4424658897
 20
104.6921536328
 30
0.0
 10
195.3798617922
 20
104.6755744607
 30
0.0
 10
195.1236521291
 20
104.6239441131
 30
0.0
 10
194.8557348254
 20
104.6308914135
 30
0.0
 10
194.6632108421
 20
104.6694699254
 30
0.0
  0
SPLINE
  5
30F
100
AcDbEntity
  8
BEZUGSACHSEN
100
AcDbSpline
 62
7
  6
CONTINUOUS
 70
0
 71
3
 72
13
 73
9
 74
0
 42
0.0000001
 43
0.0000001
 44
0.0000000001
 40
0.0
 40
0.0
 40
0.0
 40
0.0
 40
0.1322095501
 40
0.2620624044
 40
0.3888552319
 40
0.5132038218
 40
0.7574388321
 40
1.0
 40
1.0
 40
1.0
 40
1.0
 10
102.0039845554
 20
139.0161074756
 30
0.0
 10
102.1007368248
 20
139.0267461093
 30
0.0
 10
102.2967831738
 20
139.0202668583
 30
0.0
 10
102.571833695
 20
138.9298680532
 30
0.0
 10
102.8117030879
 20
138.7803633749
 30
0.0
 10
103.0809705959
 20
138.5320847144
 30
0.0
 10
103.3422367011
 20
138.1602742484
 30
0.0
 10
103.4930369878
 20
137.8338693292
 30
0.0
 10
103.5578305023
 20
137.6674598882
 30
0.0
  0
SPLINE
  5
310
100
AcDbEntity
  8
BEZUGSACHSEN
100
AcDbSpline
 62
7
  6
CONTINUOUS
 70
0
 71
3
 72
9
 73
5
 74
0
 42
0.0000001
 43
0.0000001
 44
0.0000000001
 40
0.0
 40
0.0
 40
0.0
 40
0.0
 40
0.5025977992
 40
1.0
 40
1.0
 40
1.0
 40
1.0
 10
104.0039845554
 20
109.7878043624
 30
0.0
 10
104.0039845554
 20
109.4199416596
 30
0.0
 10
103.9130268524
 20
108.6867131843
 30
0.0
 10
103.6899220722
 20
107.9867111924
 30
0.0
 10
103.5578305023
 20
107.6474598882
 30
0.0
  0
SPLINE
  5
311
100
AcDbEntity
  8
BEZUGSACHSEN
100
AcDbSpline
 62
7
  6
CONTINUOUS
 70
0
 71
3
 72
13
 73
9
 74
0
 42
0.0000001
 43
0.0000001
 44
0.0000000001
 40
0.0
 40
0.0
 40
0.0
 40
0.0
 40
0.2425643618
 40
0.4868026593
 40
0.6111552302
 40
0.737954624
 40
0.8678043413
 40
1.0
 40
1.0
 40
1.0
 40
1.0
 10
103.5578305023
 20
107.6474598882
 30
0.0
 10
103.4930360862
 20
107.4810481315
 30
0.0
 10
103.3422343307
 20
107.1546381637
 30
0.0
 10
103.0809608248
 20
106.7828229171
 30
0.0
 10
102.8116836731
 20
106.5345388813
 30
0.0
 10
102.5718057453
 20
106.3850369613
 30
0.0
 10
102.2967601563
 20
106.294645755
 30
0.0
 10
102.1007267313
 20
106.2881747768
 30
0.0
 10
102.0039845554
 20
106.2988123007
 30
0.0
  0
SPLINE
  5
312
100
AcDbEntity
  8
BEZUGSACHSEN
100
AcDbSpline
 62
7
  6
CONTINUOUS
 70
0
 71
3
 72
11
 73
7
 74
0
 42
0.0000001
 43
0.0000001
 44
0.0000000001
 40
0.0
 40
0.0
 40
0.0
 40
0.0
 40
0.2434741034
 40
0.4974510453
 40
0.7527676292
 40
1.0
 40
1.0
 40
1.0
 40
1.0
 10
195.8093404452
 20
104.5822844082
 30
0.0
 10
195.6952600094
 20
104.5284105583
 30
0.0
 10
195.4486668009
 20
104.4456036256
 30
0.0
 10
195.0592040292
 20
104.3976548394
 30
0.0
 10
194.6658097989
 20
104.4247672032
 30
0.0
 10
194.4124086462
 20
104.493832354
 30
0.0
 10
194.2933642689
 20
104.5411646678
 30
0.0
  0
SPLINE
  5
313
100
AcDbEntity
  8
BEZUGSACHSEN
100
AcDbSpline
 62
7
  6
CONTINUOUS
 70
0
 71
3
 72
20
 73
16
 74
0
 42
0.0000001
 43
0.0000001
 44
0.0000000001
 40
0.0
 40
0.0
 40
0.0
 40
0.0
 40
0.0522920206
 40
0.1067303683
 40
0.1647452992
 40
0.2270358494
 40
0.3632166202
 40
0.5087666197
 40
0.6519621051
 40
0.7193551575
 40
0.7825858642
 40
0.8413971705
 40
0.8962760819
 40
0.9485052869
 40
1.0
 40
1.0
 40
1.0
 40
1.0
 10
196.4539845554
 20
103.7478221425
 30
0.0
 10
196.4539845554
 20
103.6802210774
 30
0.0
 10
196.4342451247
 20
103.541562357
 30
0.0
 10
196.3483776037
 20
103.3442812873
 30
0.0
 10
196.2108277391
 20
103.162709039
 30
0.0
 10
195.95962317
 20
102.9434602577
 30
0.0
 10
195.5521306001
 20
102.7460668245
 30
0.0
 10
195.0067072017
 20
102.6459777221
 30
0.0
 10
194.5411164474
 20
102.678525913
 30
0.0
 10
194.2007691137
 20
102.7803790205
 30
0.0
 10
193.9798377912
 20
102.8890942343
 30
0.0
 10
193.7966270768
 20
103.028796138
 30
0.0
 10
193.6586798207
 20
103.1959325436
 30
0.0
 10
193.5729105114
 20
103.3849496761
 30
0.0
 10
193.5539845554
 20
103.5198653244
 30
0.0
 10
193.5539845554
 20
103.5864356618
 30
0.0
  0
SPLINE
  5
314
100
AcDbEntity
  8
BEZUGSACHSEN
100
AcDbSpline
 62
7
  6
CONTINUOUS
 70
0
 71
3
 72
11
 73
7
 74
0
 42
0.0000001
 43
0.0000001
 44
0.0000000001
 40
0.0
 40
0.0
 40
0.0
 40
0.0
 40
0.2502616133
 40
0.5004220348
 40
0.750375009
 40
1.0
 40
1.0
 40
1.0
 40
1.0
 10
94.9651444601
 20
137.6674598882
 30
0.0
 10
95.0217432557
 20
137.74839029
 30
0.0
 10
95.1440113284
 20
137.9042115651
 30
0.0
 10
95.3599496451
 20
138.1088914939
 30
0.0
 10
95.6130110303
 20
138.2670129329
 30
0.0
 10
95.80603458
 20
138.3228574481
 30
0.0
 10
95.9039100707
 20
138.3339922744
 30
0.0
  0
SPLINE
  5
315
100
AcDbEntity
  8
BEZUGSACHSEN
100
AcDbSpline
 62
7
  6
CONTINUOUS
 70
0
 71
3
 72
15
 73
11
 74
0
 42
0.0000001
 43
0.0000001
 44
0.0000000001
 40
0.0
 40
0.0
 40
0.0
 40
0.0
 40
0.1495394815
 40
0.2884256235
 40
0.4149637167
 40
0.5300848587
 40
0.6392079133
 40
0.7505200562
 40
0.8700997241
 40
1.0
 40
1.0
 40
1.0
 40
1.0
 10
94.0039845554
 20
136.7510617965
 30
0.0
 10
94.0039845554
 20
136.821479352
 30
0.0
 10
94.0106755256
 20
136.9574892818
 30
0.0
 10
94.0471785783
 20
137.1502936644
 30
0.0
 10
94.1143213553
 20
137.3181149548
 30
0.0
 10
94.2165681427
 20
137.4514142893
 30
0.0
 10
94.3532737298
 20
137.5375656457
 30
0.0
 10
94.5129009596
 20
137.57047094
 30
0.0
 10
94.6838223035
 20
137.5567358941
 30
0.0
 10
94.7972405232
 20
137.5236842623
 30
0.0
 10
94.8546156353
 20
137.5024755851
 30
0.0
  0
ELLIPSE
  5
316
100
AcDbEntity
  8
BEZUGSACHSEN
100
AcDbEllipse
 62
7
  6
CONTINUOUS
 10
90.5039845554
 20
107.6474598882
 30
0.0
 11
4.360722432
 21
4.360722432
 31
0.0
 40
0.560971726
 41
-1.0265657173
 42
-0.5112277582
  0
ELLIPSE
  5
317
100
AcDbEntity
  8
BEZUGSACHSEN
100
AcDbEllipse
 62
7
  6
CONTINUOUS
 10
90.5039845554
 20
137.6674598882
 30
0.0
 11
4.360722432
 21
-4.360722432
 31
0.0
 40
0.560971726
 41
0.5112277582
 42
1.0265657173
  0
ENDSEC
  0
SECTION
  2
OBJECTS
  0
DICTIONARY
  5
C
100
AcDbDictionary
280
0
281
1
  3
ACAD_GROUP
350
D
  3
ACAD_MLINESTYLE
350
17
  3
ACAD_LAYOUT
350
1A
  3
ACAD_PLOTSETTINGS
350
19
  3
ACAD_PLOTSTYLENAME
350
E
  0
DICTIONARY
  5
D
102
{ACAD_REACTORS
330
C
102
}
100
AcDbDictionary
280
0
281
1
  0
ACDBDICTIONARYWDFLT
  5
E
102
{ACAD_REACTORS
330
C
102
}
100
AcDbDictionary
281
1
  3
Normal
350
F
100
AcDbDictionaryWithDefault
340
F
  0
DICTIONARY
  5
17
102
{ACAD_REACTORS
330
C
102
}
100
AcDbDictionary
280
0
281
1
  3
Standard
350
18
  0
DICTIONARY
  5
19
102
{ACAD_REACTORS
330
C
102
}
100
AcDbDictionary
281
1
  0
DICTIONARY
  5
1A
102
{ACAD_REACTORS
330
C
102
}
100
AcDbDictionary
281
1
  3
Model
350
318
  3
Layout1
350
319
  0
ACDBPLACEHOLDER
  5
F
102
{ACAD_REACTORS
330
E
102
}
  0
MLINESTYLE
  5
18
102
{ACAD_REACTORS
330
17
102
}
100
AcDbMlineStyle
  2
STANDARD
 70
0
  3

 62
256
 51
90.0
 52
90.0
 71
2
 49
0.5
 62
256
  6
BYLAYER
 49
-0.5
 62
256
  6
BYLAYER
  0
LAYOUT
  5
318
102
{ACAD_REACTORS
330
1A
102
}
100
AcDbPlotSettings
  1

  2
none_device
  4
ISO_A4_(297.00_x_210.00_MM)
  6

 40
0.0
 41
0.0
 42
0.0
 43
0.0
 44
297.0
 45
210.0
 46
0.0
 47
0.0
 48
0.0
 49
0.0
140
0.0
141
0.0
142
1.0
143
1.0
 70
1024
 72
1
 73
0
 74
0
  7

 75
0
147
1.0
148
0.0
149
0.0
100
AcDbLayout
  1
Model
 70
0
 71
0
 10
0.0
 20
0.0
 11
297.0
 21
210.0
 12
0.0
 22
0.0
 32
0.0
 14
0.0
 24
0.0
 34
0.0
 15
0.0
 25
0.0
 35
0.0
146
0.0
 13
0.0
 23
0.0
 33
0.0
 16
1.0
 26
0.0
 36
0.0
 17
0.0
 27
1.0
 37
0.0
 76
0
330
217
345
0
346
0
  0
LAYOUT
  5
319
102
{ACAD_REACTORS
330
1A
102
}
100
AcDbPlotSettings
  1

  2
none_device
  4
ISO_A4_(297.00_x_210.00_MM)
  6

 40
0.0
 41
0.0
 42
0.0
 43
0.0
 44
297.0
 45
210.0
 46
0.0
 47
0.0
 48
0.0
 49
0.0
140
0.0
141
0.0
142
1.0
143
1.0
 70
0
 72
1
 73
0
 74
0
  7

 75
0
147
1.0
148
0.0
149
0.0
100
AcDbLayout
  1
Layout1
 70
0
 71
1
 10
0.0
 20
0.0
 11
297.0
 21
210.0
 12
0.0
 22
0.0
 32
0.0
 14
0.0
 24
0.0
 34
0.0
 15
0.0
 25
0.0
 35
0.0
146
0.0
 13
0.0
 23
0.0
 33
0.0
 16
1.0
 26
0.0
 36
0.0
 17
0.0
 27
1.0
 37
0.0
 76
0
330
218
345
0
346
0
  0
ENDSEC
  0
EOF
