999
DXF file: 200_a32-025-16-3-bmg.dxf
999
Pro/ENGINEER 2010430 by Parametric Technology Corporation
  0
SECTION
  2
HEADER
  9
$ACADVER
  1
AC1021
  9
$DWGCODEPAGE
  3
ANSI_1252
  9
$EXTMAX
 10
420.0
 20
297.0
 30
0.0
  9
$EXTMIN
 10
0.0
 20
0.0
 30
0.0
  9
$LIMMIN
 10
0.0
 20
0.0
  9
$LIMMAX
 10
420.0
 20
297.0
  9
$VIEWCTR
 10
210.0
 20
148.5
  9
$VIEWSIZE
 40
297.0
  9
$CLAYER
  8
0
  9
$LTSCALE
 40
23.1
  9
$CELTYPE
  6
BYLAYER
  9
$DIMSCALE
 40
1.0
  9
$DIMASZ
 40
3.5
  9
$DIMEXO
 40
2.625
  9
$DIMDLI
 40
15.96
  9
$DIMEXE
 40
7.56
  9
$DIMCEN
 40
3.78
  9
$DIMLFAC
 40
1.0
  9
$DIMBLK
  1
_FILLED
  9
$DIMTXT
 40
3.5
  9
$DIMTOL
 70
0
  9
$DIMLIM
 70
0
  9
$DIMTFAC
 40
1.0
  9
$PDMODE
 70
3
  9
$PDSIZE
 40
0.3125
  9
$HANDSEED
  5
31D
  9
$TILEMODE
 70
1
  9
$MEASUREMENT
 70
1
  9
$INSUNITS
 70
4
  0
ENDSEC
  0
SECTION
  2
CLASSES
  0
CLASS
  1
ACDBDICTIONARYWDFLT
  2
AcDbDictionaryWithDefault
  3
AutoCAD 2000
 90
0
 91
1
280
0
281
0
  0
CLASS
  1
ACDBPLACEHOLDER
  2
AcDbPlaceHolder
  3
AutoCAD 2000
 90
0
 91
1
280
0
281
0
  0
CLASS
  1
LAYOUT
  2
AcDbLayout
  3
AutoCAD 2000
 90
0
 91
0
280
0
281
0
  0
ENDSEC
  0
SECTION
  2
TABLES
  0
TABLE
  2
VPORT
  5
8
100
AcDbSymbolTable
 70
2
  0
VPORT
  5
1F4
100
AcDbSymbolTableRecord
100
AcDbViewportTableRecord
  2
*ACTIVE
 70
0
 10
0.0
 20
0.0
 11
1.0
 21
1.0
 12
210.0
 22
148.5
 13
0.0
 23
0.0
 14
1.0
 24
1.0
 15
0.0
 25
0.0
 16
0.0
 26
0.0
 36
1.0
 17
0.0
 27
0.0
 37
0.0
 40
297.0
 41
1.4141414141
 42
50.0
 43
0.0
 44
0.0
 50
0.0
 51
0.0
 71
0
 72
100
 73
1
 74
1
 75
0
 76
0
 77
0
 78
0
  0
ENDTAB
  0
TABLE
  2
LTYPE
  5
5
100
AcDbSymbolTable
 70
6
  0
LTYPE
  5
14
100
AcDbSymbolTableRecord
100
AcDbLinetypeTableRecord
  2
BYBLOCK
 70
0
  3

 72
65
 73
0
 40
0.0
  0
LTYPE
  5
15
100
AcDbSymbolTableRecord
100
AcDbLinetypeTableRecord
  2
BYLAYER
 70
0
  3

 72
65
 73
0
 40
0.0
  0
LTYPE
  5
16
100
AcDbSymbolTableRecord
100
AcDbLinetypeTableRecord
  2
CONTINUOUS
 70
64
  3
Solid line
 72
65
 73
0
 40
0.0
  0
LTYPE
  5
1F5
100
AcDbSymbolTableRecord
100
AcDbLinetypeTableRecord
  2
CENTER
 70
64
  3
____ _ ____ _ ____ _ ____ _ ____ _ ____ _ ____
 72
65
 73
4
 40
0.6
 49
0.375
 74
0
 49
-0.075
 74
0
 49
0.075
 74
0
 49
-0.075
 74
0
  0
LTYPE
  5
1F6
100
AcDbSymbolTableRecord
100
AcDbLinetypeTableRecord
  2
HIDDEN
 70
64
  3
- - - - - - - - - - - - - - - - - - - -
 72
65
 73
2
 40
0.2
 49
0.1
 74
0
 49
-0.1
 74
0
  0
LTYPE
  5
1F7
100
AcDbSymbolTableRecord
100
AcDbLinetypeTableRecord
  2
PHANTOM
 70
64
  3
_____ _ _ _____ _ _ _____ _ _ _____
 72
65
 73
6
 40
0.8
 49
0.45
 74
0
 49
-0.05
 74
0
 49
0.1
 74
0
 49
-0.05
 74
0
 49
0.1
 74
0
 49
-0.05
 74
0
  0
LTYPE
  5
1F8
100
AcDbSymbolTableRecord
100
AcDbLinetypeTableRecord
  2
DOT
 70
64
  3
. . . . . . . . . . . . . . . . . . . .
 72
65
 73
2
 40
0.2
 49
0.1
 74
0
 49
-0.1
 74
0
  0
LTYPE
  5
1F9
100
AcDbSymbolTableRecord
100
AcDbLinetypeTableRecord
  2
DASHED
 70
64
  3
- - - - - - - - - - - - - - - - - - - -
 72
65
 73
2
 40
0.2
 49
0.1
 74
0
 49
-0.1
 74
0
  0
ENDTAB
  0
TABLE
  2
LAYER
  5
2
100
AcDbSymbolTable
 70
36
  0
LAYER
  5
10
100
AcDbSymbolTableRecord
100
AcDbLayerTableRecord
  2
0
 70
0
 62
7
  6
CONTINUOUS
370
-3
390
F
  0
LAYER
  5
1FA
100
AcDbSymbolTableRecord
100
AcDbLayerTableRecord
  2
DEFAULT_1
 70
0
 62
7
  6
CENTER
370
-3
390
F
  0
LAYER
  5
1FB
100
AcDbSymbolTableRecord
100
AcDbLayerTableRecord
  2
DEFAULT_2
 70
0
 62
8
  6
HIDDEN
370
-3
390
F
  0
LAYER
  5
1FC
100
AcDbSymbolTableRecord
100
AcDbLayerTableRecord
  2
DEFAULT_3
 70
0
 62
7
  6
PHANTOM
370
-3
390
F
  0
LAYER
  5
1FD
100
AcDbSymbolTableRecord
100
AcDbLayerTableRecord
  2
1
 70
0
 62
7
  6
CONTINUOUS
370
-3
390
F
  0
LAYER
  5
1FE
100
AcDbSymbolTableRecord
100
AcDbLayerTableRecord
  2
2
 70
0
 62
7
  6
CONTINUOUS
370
-3
390
F
  0
LAYER
  5
1FF
100
AcDbSymbolTableRecord
100
AcDbLayerTableRecord
  2
4
 70
0
 62
7
  6
CONTINUOUS
370
-3
390
F
  0
LAYER
  5
200
100
AcDbSymbolTableRecord
100
AcDbLayerTableRecord
  2
5
 70
0
 62
7
  6
CONTINUOUS
370
-3
390
F
  0
LAYER
  5
201
100
AcDbSymbolTableRecord
100
AcDbLayerTableRecord
  2
6
 70
0
 62
7
  6
CONTINUOUS
370
-3
390
F
  0
LAYER
  5
202
100
AcDbSymbolTableRecord
100
AcDbLayerTableRecord
  2
ACHSEN
 70
0
 62
7
  6
CONTINUOUS
370
-3
390
F
  0
LAYER
  5
203
100
AcDbSymbolTableRecord
100
AcDbLayerTableRecord
  2
ANALYSEN
 70
0
 62
7
  6
CONTINUOUS
370
-3
390
F
  0
LAYER
  5
204
100
AcDbSymbolTableRecord
100
AcDbLayerTableRecord
  2
AUFMASS_EINFUEHRFASE
 70
0
 62
7
  6
CONTINUOUS
370
-3
390
F
  0
LAYER
  5
205
100
AcDbSymbolTableRecord
100
AcDbLayerTableRecord
  2
AUFMASS_WEICHBEARBEITUNG
 70
0
 62
7
  6
CONTINUOUS
370
-3
390
F
  0
LAYER
  5
206
100
AcDbSymbolTableRecord
100
AcDbLayerTableRecord
  2
AUFMASS_WEICHBEARBEITUNG_FERTIG
 70
0
 62
7
  6
CONTINUOUS
370
-3
390
F
  0
LAYER
  5
207
100
AcDbSymbolTableRecord
100
AcDbLayerTableRecord
  2
AUFMASS_WEICHBE_INNENKONTUR
 70
0
 62
7
  6
CONTINUOUS
370
-3
390
F
  0
LAYER
  5
208
100
AcDbSymbolTableRecord
100
AcDbLayerTableRecord
  2
AUSFORMSCHRAEGEN
 70
0
 62
7
  6
CONTINUOUS
370
-3
390
F
  0
LAYER
  5
209
100
AcDbSymbolTableRecord
100
AcDbLayerTableRecord
  2
AUSSENKONTUR
 70
0
 62
7
  6
CONTINUOUS
370
-3
390
F
  0
LAYER
  5
20A
100
AcDbSymbolTableRecord
100
AcDbLayerTableRecord
  2
BEZUG
 70
0
 62
7
  6
CONTINUOUS
370
-3
390
F
  0
LAYER
  5
20B
100
AcDbSymbolTableRecord
100
AcDbLayerTableRecord
  2
BEZUGSACHSEN
 70
0
 62
7
  6
CONTINUOUS
370
-3
390
F
  0
LAYER
  5
20C
100
AcDbSymbolTableRecord
100
AcDbLayerTableRecord
  2
BEZUGSACHSENKENNZEICHEN
 70
0
 62
7
  6
CONTINUOUS
370
-3
390
F
  0
LAYER
  5
20D
100
AcDbSymbolTableRecord
100
AcDbLayerTableRecord
  2
BEZUGSEBENEN
 70
0
 62
7
  6
CONTINUOUS
370
-3
390
F
  0
LAYER
  5
20E
100
AcDbSymbolTableRecord
100
AcDbLayerTableRecord
  2
BEZUGSEBENE_B
 70
0
 62
7
  6
CONTINUOUS
370
-3
390
F
  0
LAYER
  5
20F
100
AcDbSymbolTableRecord
100
AcDbLayerTableRecord
  2
BEZUGSPUNKTE
 70
0
 62
7
  6
CONTINUOUS
370
-3
390
F
  0
LAYER
  5
210
100
AcDbSymbolTableRecord
100
AcDbLayerTableRecord
  2
BG_STARTBEZUEGE
 70
0
 62
7
  6
CONTINUOUS
370
-3
390
F
  0
LAYER
  5
211
100
AcDbSymbolTableRecord
100
AcDbLayerTableRecord
  2
BOHRUNGEN
 70
0
 62
7
  6
CONTINUOUS
370
-3
390
F
  0
LAYER
  5
212
100
AcDbSymbolTableRecord
100
AcDbLayerTableRecord
  2
EBENEN
 70
0
 62
7
  6
CONTINUOUS
370
-3
390
F
  0
LAYER
  5
213
100
AcDbSymbolTableRecord
100
AcDbLayerTableRecord
  2
FASEN
 70
0
 62
7
  6
CONTINUOUS
370
-3
390
F
  0
LAYER
  5
214
100
AcDbSymbolTableRecord
100
AcDbLayerTableRecord
  2
FLAECHEN
 70
0
 62
7
  6
CONTINUOUS
370
-3
390
F
  0
LAYER
  5
215
100
AcDbSymbolTableRecord
100
AcDbLayerTableRecord
  2
FORM_LAGE_TOLERANZEN
 70
0
 62
7
  6
CONTINUOUS
370
-3
390
F
  0
LAYER
  5
216
100
AcDbSymbolTableRecord
100
AcDbLayerTableRecord
  2
GEOMTOL
 70
0
 62
7
  6
CONTINUOUS
370
-3
390
F
  0
LAYER
  5
217
100
AcDbSymbolTableRecord
100
AcDbLayerTableRecord
  2
GEWINDE
 70
0
 62
7
  6
CONTINUOUS
370
-3
390
F
  0
LAYER
  5
218
100
AcDbSymbolTableRecord
100
AcDbLayerTableRecord
  2
HILFEN
 70
0
 62
7
  6
CONTINUOUS
370
-3
390
F
  0
LAYER
  5
219
100
AcDbSymbolTableRecord
100
AcDbLayerTableRecord
  2
INNENKONTUR
 70
0
 62
7
  6
CONTINUOUS
370
-3
390
F
  0
LAYER
  5
21A
100
AcDbSymbolTableRecord
100
AcDbLayerTableRecord
  2
KOORDINATENSYSTEME
 70
0
 62
7
  6
CONTINUOUS
370
-3
390
F
  0
LAYER
  5
21B
100
AcDbSymbolTableRecord
100
AcDbLayerTableRecord
  2
KOORDSYS
 70
0
 62
7
  6
CONTINUOUS
370
-3
390
F
  0
LAYER
  5
21C
100
AcDbSymbolTableRecord
100
AcDbLayerTableRecord
  2
KURVEN
 70
0
 62
7
  6
CONTINUOUS
370
-3
390
F
  0
LAYER
  5
21D
100
AcDbSymbolTableRecord
100
AcDbLayerTableRecord
  2
KURVE_FUER_GTOL_DETAILANSICHT
 70
0
 62
7
  6
CONTINUOUS
370
-3
390
F
  0
LAYER
  5
21E
100
AcDbSymbolTableRecord
100
AcDbLayerTableRecord
  2
KURVE_GAUGE2_POLIGON_INNENEINST
 70
0
 62
7
  6
CONTINUOUS
370
-3
390
F
  0
LAYER
  5
21F
100
AcDbSymbolTableRecord
100
AcDbLayerTableRecord
  2
KURVE_PHANTOM1_GAUGE_PIN_1
 70
0
 62
7
  6
CONTINUOUS
370
-3
390
F
  0
LAYER
  5
220
100
AcDbSymbolTableRecord
100
AcDbLayerTableRecord
  2
KURVE_PHANTOM2_GAUGE_PIN1
 70
0
 62
7
  6
CONTINUOUS
370
-3
390
F
  0
LAYER
  5
221
100
AcDbSymbolTableRecord
100
AcDbLayerTableRecord
  2
KURVE_POLIGON_BEMASUNG
 70
0
 62
7
  6
CONTINUOUS
370
-3
390
F
  0
LAYER
  5
222
100
AcDbSymbolTableRecord
100
AcDbLayerTableRecord
  2
NOCUT
 70
0
 62
7
  6
CONTINUOUS
370
-3
390
F
  0
LAYER
  5
223
100
AcDbSymbolTableRecord
100
AcDbLayerTableRecord
  2
PLATZIERUNG
 70
0
 62
7
  6
CONTINUOUS
370
-3
390
F
  0
LAYER
  5
224
100
AcDbSymbolTableRecord
100
AcDbLayerTableRecord
  2
PUNKTE
 70
0
 62
7
  6
CONTINUOUS
370
-3
390
F
  0
LAYER
  5
225
100
AcDbSymbolTableRecord
100
AcDbLayerTableRecord
  2
RUNDUNGEN
 70
0
 62
7
  6
CONTINUOUS
370
-3
390
F
  0
LAYER
  5
226
100
AcDbSymbolTableRecord
100
AcDbLayerTableRecord
  2
SK1
 70
0
 62
7
  6
CONTINUOUS
370
-3
390
F
  0
LAYER
  5
227
100
AcDbSymbolTableRecord
100
AcDbLayerTableRecord
  2
SK2
 70
0
 62
7
  6
CONTINUOUS
370
-3
390
F
  0
LAYER
  5
228
100
AcDbSymbolTableRecord
100
AcDbLayerTableRecord
  2
SK4
 70
0
 62
7
  6
CONTINUOUS
370
-3
390
F
  0
LAYER
  5
229
100
AcDbSymbolTableRecord
100
AcDbLayerTableRecord
  2
SKELETTE
 70
0
 62
7
  6
CONTINUOUS
370
-3
390
F
  0
LAYER
  5
22A
100
AcDbSymbolTableRecord
100
AcDbLayerTableRecord
  2
S_ACHSEN
 70
0
 62
7
  6
CONTINUOUS
370
-3
390
F
  0
LAYER
  5
22B
100
AcDbSymbolTableRecord
100
AcDbLayerTableRecord
  2
S_EBENEN
 70
0
 62
7
  6
CONTINUOUS
370
-3
390
F
  0
LAYER
  5
22C
100
AcDbSymbolTableRecord
100
AcDbLayerTableRecord
  2
S_KOORDSYS
 70
0
 62
7
  6
CONTINUOUS
370
-3
390
F
  0
LAYER
  5
22D
100
AcDbSymbolTableRecord
100
AcDbLayerTableRecord
  2
TEIL_STARTBEZUEGE
 70
0
 62
7
  6
CONTINUOUS
370
-3
390
F
  0
LAYER
  5
22E
100
AcDbSymbolTableRecord
100
AcDbLayerTableRecord
  2
TOL_BEZUEGE
 70
0
 62
7
  6
CONTINUOUS
370
-3
390
F
  0
LAYER
  5
22F
100
AcDbSymbolTableRecord
100
AcDbLayerTableRecord
  2
VERBFLAECHE
 70
0
 62
7
  6
CONTINUOUS
370
-3
390
F
  0
LAYER
  5
230
100
AcDbSymbolTableRecord
100
AcDbLayerTableRecord
  2
VERERBUNG
 70
0
 62
7
  6
CONTINUOUS
370
-3
390
F
  0
LAYER
  5
231
100
AcDbSymbolTableRecord
100
AcDbLayerTableRecord
  2
VERPACKUNG
 70
0
 62
7
  6
CONTINUOUS
370
-3
390
F
  0
LAYER
  5
232
100
AcDbSymbolTableRecord
100
AcDbLayerTableRecord
  2
VOLGEOM
 70
0
 62
7
  6
CONTINUOUS
370
-3
390
F
  0
LAYER
  5
233
100
AcDbSymbolTableRecord
100
AcDbLayerTableRecord
  2
VOLUMEN
 70
0
 62
7
  6
CONTINUOUS
370
-3
390
F
  0
LAYER
  5
234
100
AcDbSymbolTableRecord
100
AcDbLayerTableRecord
  2
XSEC_DATUMS
 70
0
 62
7
  6
CONTINUOUS
370
-3
390
F
  0
LAYER
  5
235
100
AcDbSymbolTableRecord
100
AcDbLayerTableRecord
  2
ZEICHNUNG
 70
0
 62
7
  6
CONTINUOUS
370
-3
390
F
  0
ENDTAB
  0
TABLE
  2
STYLE
  5
3
100
AcDbSymbolTable
 70
1
  0
STYLE
  5
11
100
AcDbSymbolTableRecord
100
AcDbTextStyleTableRecord
  2
STANDARD
 70
0
 40
0.0
 41
0.7
 50
0.0
 71
0
 42
0.2
  3
txt
  4

  0
STYLE
  5
236
100
AcDbSymbolTableRecord
100
AcDbTextStyleTableRecord
  2
TEXTSTYLE_1
 70
0
 40
0.0
 41
0.8
 50
0.0
 71
0
 42
0.2
  3
gdt
  4

  0
STYLE
  5
237
100
AcDbSymbolTableRecord
100
AcDbTextStyleTableRecord
  2
TEXTSTYLE_2
 70
0
 40
0.0
 41
0.7
 50
0.0
 71
0
 42
0.2
  3
gdt
  4

  0
ENDTAB
  0
TABLE
  2
VIEW
  5
6
100
AcDbSymbolTable
 70
0
  0
ENDTAB
  0
TABLE
  2
UCS
  5
7
100
AcDbSymbolTable
 70
0
  0
ENDTAB
  0
TABLE
  2
APPID
  5
9
100
AcDbSymbolTable
 70
1
  0
APPID
  5
238
100
AcDbSymbolTableRecord
100
AcDbRegAppTableRecord
  2
ACAD
 70
0
  0
ENDTAB
  0
TABLE
  2
BLOCK_RECORD
  5
1
100
AcDbSymbolTable
 70
0
  0
BLOCK_RECORD
  5
239
100
AcDbSymbolTableRecord
100
AcDbBlockTableRecord
  2
*Model_Space
  0
BLOCK_RECORD
  5
23A
100
AcDbSymbolTableRecord
100
AcDbBlockTableRecord
  2
*Paper_Space
  0
BLOCK_RECORD
  5
23B
100
AcDbSymbolTableRecord
100
AcDbBlockTableRecord
  2
_FILLED
  0
BLOCK_RECORD
  5
23C
100
AcDbSymbolTableRecord
100
AcDbBlockTableRecord
  2
*D0
  0
BLOCK_RECORD
  5
23D
100
AcDbSymbolTableRecord
100
AcDbBlockTableRecord
  2
*D1
  0
BLOCK_RECORD
  5
23E
100
AcDbSymbolTableRecord
100
AcDbBlockTableRecord
  2
*D2
  0
BLOCK_RECORD
  5
23F
100
AcDbSymbolTableRecord
100
AcDbBlockTableRecord
  2
*D3
  0
BLOCK_RECORD
  5
240
100
AcDbSymbolTableRecord
100
AcDbBlockTableRecord
  2
*D4
  0
BLOCK_RECORD
  5
241
100
AcDbSymbolTableRecord
100
AcDbBlockTableRecord
  2
*D5
  0
ENDTAB
  0
TABLE
  2
DIMSTYLE
  5
A
100
AcDbSymbolTable
 70
1
100
AcDbDimStyleTable
 71
0
  0
DIMSTYLE
105
242
100
AcDbSymbolTableRecord
100
AcDbDimStyleTableRecord
  2
STANDARD
 70
0
  3

  4

 40
1.0
 41
3.5
 42
0.0625
 43
0.38
 44
0.18
 45
0.0
 46
0.0
 47
0.005
 48
0.005
140
3.5
141
0.09
142
0.0
143
25.4
144
1.0
145
0.0
146
1.0
147
0.09
 71
0.0
 72
0.0
 73
0
 74
0
 75
0
 76
0
 77
1
 78
8
170
0
171
2
172
0
173
0
174
0
175
0
176
0
177
0
178
5
270
2
271
3
272
3
273
2
274
2
275
0
280
0
281
0
282
0
283
1
284
8
285
0
286
0
287
3
288
0
340
11
341
23B
342
23B
343
23B
344
23B
  0
DIMSTYLE
105
243
100
AcDbSymbolTableRecord
100
AcDbDimStyleTableRecord
  2
DIMSTYLE_1
 70
0
  3

  4

 40
1.0
 41
3.5
 42
0.0625
 43
0.38
 44
0.18
 45
0.0
 46
0.0
 47
0.0
 48
0.0
140
3.5
141
0.09
142
0.0
143
25.4
144
1.0
145
0.0
146
1.0
147
0.09
 71
0.0
 72
0.0
 73
0
 74
0
 75
0
 76
0
 77
1
 78
8
170
0
171
2
172
0
173
0
174
0
175
0
176
0
177
0
178
5
270
2
271
3
272
3
273
2
274
2
275
0
280
0
281
0
282
0
283
1
284
8
285
0
286
0
287
3
288
0
340
11
341
23B
342
23B
343
23B
344
23B
  0
DIMSTYLE
105
244
100
AcDbSymbolTableRecord
100
AcDbDimStyleTableRecord
  2
DIMSTYLE_2
 70
0
  3

  4

 40
1.0
 41
3.5
 42
0.0625
 43
0.38
 44
0.18
 45
0.0
 46
0.0
 47
0.0
 48
0.0
140
3.5
141
0.09
142
0.0
143
25.4
144
1.0
145
0.0
146
1.0
147
0.09
 71
0.0
 72
0.0
 73
0
 74
0
 75
0
 76
0
 77
1
 78
8
170
0
171
2
172
0
173
0
174
0
175
0
176
0
177
0
178
5
270
2
271
2
272
2
273
2
274
2
275
0
280
0
281
0
282
0
283
1
284
8
285
0
286
0
287
3
288
0
340
11
341
23B
342
23B
343
23B
344
23B
  0
ENDTAB
  0
ENDSEC
  0
SECTION
  2
BLOCKS
  0
BLOCK
  5
20
100
AcDbEntity
  8
0
100
AcDbBlockBegin
  2
*Model_Space
 70
0
 10
0.0
 20
0.0
 30
0.0
  3
*Model_Space
  1

  0
ENDBLK
  5
21
100
AcDbEntity
  8
0
100
AcDbBlockEnd
  0
BLOCK
  5
1C
100
AcDbEntity
  8
0
100
AcDbBlockBegin
  2
*Paper_Space
 70
0
 10
0.0
 20
0.0
 30
0.0
  3
*Paper_Space
  1

  0
ENDBLK
  5
1D
100
AcDbEntity
  8
0
100
AcDbBlockEnd
  0
BLOCK
  5
245
100
AcDbEntity
  8
0
100
AcDbBlockBegin
  2
_FILLED
 70
64
 10
0.0
 20
0.0
  3
_FILLED
  1

  0
SOLID
  5
246
100
AcDbEntity
  8
0
  6
BYBLOCK
 62
0
100
AcDbTrace
 10
0.0
 20
0.0
 11
-1.0
 21
0.125
 12
-1.0
 22
-0.125
 13
-1.0
 23
-0.125
  0
ENDBLK
  5
247
100
AcDbEntity
  8
0
  6
BYBLOCK
 62
0
100
AcDbBlockEnd
  0
BLOCK
  5
248
100
AcDbEntity
  8
2
100
AcDbBlockBegin
 62
2
  6
CONTINUOUS
  2
*D0
 70
65
 10
0.0
 20
0.0
  3
*D0
  1

  0
MTEXT
  5
249
100
AcDbEntity
  8
2
100
AcDbMText
 62
5
  6
CONTINUOUS
  7
STANDARD
 71
2
 72
1
 10
211.6175
 20
201.375
 30
0.0
 11
1.0
 21
0.0
 31
0.0
 44
0.9
  1
43.235
 40
3.5
 41
15.0
  0
LINE
  5
24A
100
AcDbEntity
  8
2
100
AcDbLine
 62
2
  6
CONTINUOUS
 10
190.0
 20
176.0
 11
190.0
 21
198.5
  0
LINE
  5
24B
100
AcDbEntity
  8
2
100
AcDbLine
 62
2
  6
CONTINUOUS
 10
233.235
 20
171.5
 11
233.235
 21
198.5
  0
LINE
  5
24C
100
AcDbEntity
  8
2
100
AcDbLine
 62
2
  6
CONTINUOUS
 10
190.0
 20
197.0
 11
211.6175
 21
197.0
  0
LINE
  5
24D
100
AcDbEntity
  8
2
100
AcDbLine
 62
2
  6
CONTINUOUS
 10
233.235
 20
197.0
 11
211.6175
 21
197.0
  0
INSERT
  5
24E
100
AcDbEntity
  8
2
100
AcDbBlockReference
 62
2
  6
CONTINUOUS
  2
_FILLED
 10
190.0
 20
197.0
 41
3.5
 42
3.5
 43
3.5
 50
180.0
  0
INSERT
  5
24F
100
AcDbEntity
  8
2
100
AcDbBlockReference
 62
2
  6
CONTINUOUS
  2
_FILLED
 10
233.235
 20
197.0
 41
3.5
 42
3.5
 43
3.5
  0
ENDBLK
  5
250
100
AcDbEntity
  8
0
  6
BYBLOCK
 62
0
100
AcDbBlockEnd
  0
BLOCK
  5
251
100
AcDbEntity
  8
SK2
100
AcDbBlockBegin
 62
2
  6
CONTINUOUS
  2
*D1
 70
65
 10
0.0
 20
0.0
  3
*D1
  1

  0
MTEXT
  5
252
100
AcDbEntity
  8
SK2
100
AcDbMText
 62
5
  6
CONTINUOUS
  7
STANDARD
 71
2
 72
1
 10
203.6175
 20
221.375
 30
0.0
 11
1.0
 21
0.0
 31
0.0
 44
0.9
  1
59.235
 40
3.5
 41
15.0
  0
LINE
  5
253
100
AcDbEntity
  8
SK2
100
AcDbLine
 62
2
  6
CONTINUOUS
 10
174.0
 20
160.0
 11
174.0
 21
218.5
  0
LINE
  5
254
100
AcDbEntity
  8
SK2
100
AcDbLine
 62
2
  6
CONTINUOUS
 10
233.235
 20
160.0
 11
233.235
 21
204.0
  0
LINE
  5
255
100
AcDbEntity
  8
SK2
100
AcDbLine
 62
2
  6
CONTINUOUS
 10
233.235
 20
210.0
 11
233.235
 21
218.5
  0
LINE
  5
256
100
AcDbEntity
  8
SK2
100
AcDbLine
 62
2
  6
CONTINUOUS
 10
174.0
 20
217.0
 11
203.6175
 21
217.0
  0
LINE
  5
257
100
AcDbEntity
  8
SK2
100
AcDbLine
 62
2
  6
CONTINUOUS
 10
233.235
 20
217.0
 11
203.6175
 21
217.0
  0
INSERT
  5
258
100
AcDbEntity
  8
SK2
100
AcDbBlockReference
 62
2
  6
CONTINUOUS
  2
_FILLED
 10
174.0
 20
217.0
 41
3.5
 42
3.5
 43
3.5
 50
180.0
  0
INSERT
  5
259
100
AcDbEntity
  8
SK2
100
AcDbBlockReference
 62
2
  6
CONTINUOUS
  2
_FILLED
 10
233.235
 20
217.0
 41
3.5
 42
3.5
 43
3.5
  0
ENDBLK
  5
25A
100
AcDbEntity
  8
0
  6
BYBLOCK
 62
0
100
AcDbBlockEnd
  0
BLOCK
  5
25B
100
AcDbEntity
  8
SK2
100
AcDbBlockBegin
 62
2
  6
CONTINUOUS
  2
*D2
 70
65
 10
0.0
 20
0.0
  3
*D2
  1

  0
MTEXT
  5
25C
100
AcDbEntity
  8
SK2
100
AcDbMText
 62
5
  6
CONTINUOUS
  7
STANDARD
 71
2
 72
1
 10
221.6175
 20
191.375
 30
0.0
 11
1.0
 21
0.0
 31
0.0
 44
0.9
  1
23.235
 40
3.5
 41
15.0
  0
LINE
  5
25D
100
AcDbEntity
  8
SK2
100
AcDbLine
 62
2
  6
CONTINUOUS
 10
210.0
 20
176.0
 11
210.0
 21
188.5
  0
LINE
  5
25E
100
AcDbEntity
  8
SK2
100
AcDbLine
 62
2
  6
CONTINUOUS
 10
233.235
 20
160.0
 11
233.235
 21
188.5
  0
LINE
  5
25F
100
AcDbEntity
  8
SK2
100
AcDbLine
 62
2
  6
CONTINUOUS
 10
210.0
 20
187.0
 11
221.6175
 21
187.0
  0
LINE
  5
260
100
AcDbEntity
  8
SK2
100
AcDbLine
 62
2
  6
CONTINUOUS
 10
233.235
 20
187.0
 11
221.6175
 21
187.0
  0
INSERT
  5
261
100
AcDbEntity
  8
SK2
100
AcDbBlockReference
 62
2
  6
CONTINUOUS
  2
_FILLED
 10
210.0
 20
187.0
 41
3.5
 42
3.5
 43
3.5
 50
180.0
  0
INSERT
  5
262
100
AcDbEntity
  8
SK2
100
AcDbBlockReference
 62
2
  6
CONTINUOUS
  2
_FILLED
 10
233.235
 20
187.0
 41
3.5
 42
3.5
 43
3.5
  0
ENDBLK
  5
263
100
AcDbEntity
  8
0
  6
BYBLOCK
 62
0
100
AcDbBlockEnd
  0
BLOCK
  5
264
100
AcDbEntity
  8
2
100
AcDbBlockBegin
 62
2
  6
CONTINUOUS
  2
*D3
 70
65
 10
0.0
 20
0.0
  3
*D3
  1

  0
MTEXT
  5
265
100
AcDbEntity
  8
2
100
AcDbMText
 62
5
  6
CONTINUOUS
  7
TEXTSTYLE_2
 71
2
 72
1
 10
248.495
 20
160.0
 30
0.0
 11
0.0
 21
1.0
 31
0.0
 44
0.9
  1
{\Fgdt;n}\Ftxt;16
 40
3.5
 41
9.4166666667
  0
LINE
  5
266
100
AcDbEntity
  8
2
100
AcDbLine
 62
2
  6
CONTINUOUS
 10
233.235
 20
152.0
 11
254.37
 21
152.0
  0
LINE
  5
267
100
AcDbEntity
  8
2
100
AcDbLine
 62
2
  6
CONTINUOUS
 10
233.235
 20
168.0
 11
254.37
 21
168.0
  0
LINE
  5
268
100
AcDbEntity
  8
2
100
AcDbLine
 62
2
  6
CONTINUOUS
 10
252.87
 20
152.0
 11
252.87
 21
160.0
  0
LINE
  5
269
100
AcDbEntity
  8
2
100
AcDbLine
 62
2
  6
CONTINUOUS
 10
252.87
 20
168.0
 11
252.87
 21
160.0
  0
INSERT
  5
26A
100
AcDbEntity
  8
2
100
AcDbBlockReference
 62
2
  6
CONTINUOUS
  2
_FILLED
 10
252.87
 20
152.0
 41
3.5
 42
3.5
 43
3.5
 50
270.0
  0
INSERT
  5
26B
100
AcDbEntity
  8
2
100
AcDbBlockReference
 62
2
  6
CONTINUOUS
  2
_FILLED
 10
252.87
 20
168.0
 41
3.5
 42
3.5
 43
3.5
 50
90.0
  0
ENDBLK
  5
26C
100
AcDbEntity
  8
0
  6
BYBLOCK
 62
0
100
AcDbBlockEnd
  0
BLOCK
  5
26D
100
AcDbEntity
  8
2
100
AcDbBlockBegin
 62
2
  6
CONTINUOUS
  2
*D4
 70
65
 10
0.0
 20
0.0
  3
*D4
  1

  0
MTEXT
  5
26E
100
AcDbEntity
  8
2
100
AcDbMText
 62
5
  6
CONTINUOUS
  7
STANDARD
 71
2
 72
1
 10
215.0
 20
211.375
 30
0.0
 11
1.0
 21
0.0
 31
0.0
 44
0.9
  1
50
 40
3.5
 41
5.25
  0
LINE
  5
26F
100
AcDbEntity
  8
2
100
AcDbLine
 62
2
  6
CONTINUOUS
 10
190.0
 20
176.0
 11
190.0
 21
208.5
  0
LINE
  5
270
100
AcDbEntity
  8
2
100
AcDbLine
 62
2
  6
CONTINUOUS
 10
240.0
 20
160.0
 11
240.0
 21
165.0
  0
LINE
  5
271
100
AcDbEntity
  8
2
100
AcDbLine
 62
2
  6
CONTINUOUS
 10
240.0
 20
171.0
 11
240.0
 21
208.5
  0
LINE
  5
272
100
AcDbEntity
  8
2
100
AcDbLine
 62
2
  6
CONTINUOUS
 10
190.0
 20
207.0
 11
215.0
 21
207.0
  0
LINE
  5
273
100
AcDbEntity
  8
2
100
AcDbLine
 62
2
  6
CONTINUOUS
 10
240.0
 20
207.0
 11
215.0
 21
207.0
  0
INSERT
  5
274
100
AcDbEntity
  8
2
100
AcDbBlockReference
 62
2
  6
CONTINUOUS
  2
_FILLED
 10
190.0
 20
207.0
 41
3.5
 42
3.5
 43
3.5
 50
180.0
  0
INSERT
  5
275
100
AcDbEntity
  8
2
100
AcDbBlockReference
 62
2
  6
CONTINUOUS
  2
_FILLED
 10
240.0
 20
207.0
 41
3.5
 42
3.5
 43
3.5
  0
ENDBLK
  5
276
100
AcDbEntity
  8
0
  6
BYBLOCK
 62
0
100
AcDbBlockEnd
  0
BLOCK
  5
277
100
AcDbEntity
  8
0
100
AcDbBlockBegin
 62
2
  6
CONTINUOUS
  2
*D5
 70
65
 10
0.0
 20
0.0
  3
*D5
  1

  0
MTEXT
  5
278
100
AcDbEntity
  8
0
100
AcDbMText
 62
5
  6
CONTINUOUS
  7
TEXTSTYLE_2
 71
2
 72
1
 10
258.495
 20
160.0
 30
0.0
 11
0.0
 21
1.0
 31
0.0
 44
0.9
  1
{\Fgdt;n}\Ftxt;28
 40
3.5
 41
10.1666666667
  0
LINE
  5
279
100
AcDbEntity
  8
0
100
AcDbLine
 62
2
  6
CONTINUOUS
 10
236.0
 20
146.0
 11
264.37
 21
146.0
  0
LINE
  5
27A
100
AcDbEntity
  8
0
100
AcDbLine
 62
2
  6
CONTINUOUS
 10
236.0
 20
174.0
 11
264.37
 21
174.0
  0
LINE
  5
27B
100
AcDbEntity
  8
0
100
AcDbLine
 62
2
  6
CONTINUOUS
 10
262.87
 20
146.0
 11
262.87
 21
160.0
  0
LINE
  5
27C
100
AcDbEntity
  8
0
100
AcDbLine
 62
2
  6
CONTINUOUS
 10
262.87
 20
174.0
 11
262.87
 21
160.0
  0
INSERT
  5
27D
100
AcDbEntity
  8
0
100
AcDbBlockReference
 62
2
  6
CONTINUOUS
  2
_FILLED
 10
262.87
 20
146.0
 41
3.5
 42
3.5
 43
3.5
 50
270.0
  0
INSERT
  5
27E
100
AcDbEntity
  8
0
100
AcDbBlockReference
 62
2
  6
CONTINUOUS
  2
_FILLED
 10
262.87
 20
174.0
 41
3.5
 42
3.5
 43
3.5
 50
90.0
  0
ENDBLK
  5
27F
100
AcDbEntity
  8
0
  6
BYBLOCK
 62
0
100
AcDbBlockEnd
  0
ENDSEC
  0
SECTION
  2
ENTITIES
  0
DIMENSION
  5
280
100
AcDbEntity
  8
2
100
AcDbDimension
 62
2
  6
CONTINUOUS
  2
*D0
 10
233.235
 20
197.0
 11
204.1175
 21
199.625
 70
160
 71
2
 42
43.235
  3
DIMSTYLE_1
100
AcDbAlignedDimension
 13
190.0
 23
176.0
 14
233.235
 24
171.5
100
AcDbRotatedDimension
  0
DIMENSION
  5
281
100
AcDbEntity
  8
SK2
100
AcDbDimension
 62
2
  6
CONTINUOUS
  2
*D1
 10
233.235
 20
217.0
 11
196.1175
 21
219.625
 70
160
 71
2
 42
59.235
  3
DIMSTYLE_1
100
AcDbAlignedDimension
 13
174.0
 23
160.0
 14
233.235
 24
160.0
100
AcDbRotatedDimension
  0
DIMENSION
  5
282
100
AcDbEntity
  8
SK2
100
AcDbDimension
 62
2
  6
CONTINUOUS
  2
*D2
 10
233.235
 20
187.0
 11
214.1175
 21
189.625
 70
160
 71
2
 42
23.235
  3
DIMSTYLE_1
100
AcDbAlignedDimension
 13
210.0
 23
176.0
 14
233.235
 24
160.0
100
AcDbRotatedDimension
  0
DIMENSION
  5
283
100
AcDbEntity
  8
2
100
AcDbDimension
 62
2
  6
CONTINUOUS
  2
*D3
 10
252.87
 20
168.0
 11
251.2998399713
 21
157.8953828544
 70
160
 71
2
 42
16.0
  1
%%c<>
  3
DIMSTYLE_2
100
AcDbAlignedDimension
 13
233.235
 23
152.0
 14
233.235
 24
168.0
 50
90.0
100
AcDbRotatedDimension
  0
DIMENSION
  5
284
100
AcDbEntity
  8
2
100
AcDbDimension
 62
2
  6
CONTINUOUS
  2
*D4
 10
240.0
 20
207.0
 11
212.375
 21
209.625
 70
160
 71
2
 42
50.0
  3
DIMSTYLE_1
100
AcDbAlignedDimension
 13
190.0
 23
176.0
 14
240.0
 24
160.0
100
AcDbRotatedDimension
  0
DIMENSION
  5
285
100
AcDbEntity
  8
0
100
AcDbDimension
 62
2
  6
CONTINUOUS
  2
*D5
 10
262.87
 20
174.0
 11
261.3838537743
 21
157.72775848
 70
160
 71
2
 42
28.0
  1
%%c<>
  3
DIMSTYLE_2
100
AcDbAlignedDimension
 13
236.0
 23
146.0
 14
236.0
 24
174.0
 50
90.0
100
AcDbRotatedDimension
  0
MTEXT
  5
286
100
AcDbEntity
  8
6
100
AcDbMText
 62
5
  6
CONTINUOUS
  7
STANDARD
 71
1
 72
1
 10
187.1438497029
 20
82.3507156451
 30
0.0
 11
1.0
 21
0.0
 31
0.0
 44
0.9
  3
Für diese Unterlage behalten wir das Ur-\Pheberrecht. Sie darf nur für den von uns\Pbestimmten Zweck benutzt und ohne unsere \PZustimmung weder vervielfältigt noch \PDritten zugänglich gemacht werden.\P \PWe own the copyright of this document. It\Pde
  1
termined and may neither be copied or\Pmade accessible to outsiders without our\Ppermission.\P \PCe plan reste notre propriété. Il ne peut\Pétre utilisé, copié ou reproduit sans notre\Paccord.
 40
3.5
 41
103.5833333333
  0
LINE
  5
287
100
AcDbEntity
  8
1
100
AcDbLine
 62
9
  6
CONTINUOUS
 10
174.1
 20
149.2034957645
 11
174.1
 21
154.8577167861
  0
LINE
  5
288
100
AcDbEntity
  8
1
100
AcDbLine
 62
6
  6
CONTINUOUS
 10
174.1
 20
154.8577167861
 11
174.1
 21
155.525
  0
LINE
  5
289
100
AcDbEntity
  8
1
100
AcDbLine
 62
6
  6
CONTINUOUS
 10
174.1
 20
164.475
 11
174.1
 21
165.1422832139
  0
LINE
  5
28A
100
AcDbEntity
  8
1
100
AcDbLine
 62
9
  6
CONTINUOUS
 10
174.1
 20
165.1422832139
 11
174.1
 21
170.7965042348
  0
LINE
  5
28B
100
AcDbEntity
  8
1
100
AcDbLine
 62
9
  6
CONTINUOUS
 10
174.6699760169
 20
171.3957525655
 11
174.6699760169
 21
165.1358419996
  0
LINE
  5
28C
100
AcDbEntity
  8
1
100
AcDbLine
 62
9
  6
CONTINUOUS
 10
174.6699760169
 20
154.8641580004
 11
174.6699760169
 21
148.6042474345
  0
LINE
  5
28D
100
AcDbEntity
  8
1
100
AcDbLine
 62
6
  6
CONTINUOUS
 10
175.05
 20
155.8575457012
 11
175.05
 21
156.475
  0
LINE
  5
28E
100
AcDbEntity
  8
1
100
AcDbLine
 62
6
  6
CONTINUOUS
 10
175.05
 20
163.525
 11
175.05
 21
164.1424542988
  0
LINE
  5
28F
100
AcDbEntity
  8
1
100
AcDbLine
 62
9
  6
CONTINUOUS
 10
176.3
 20
154.7377573073
 11
176.3
 21
156.475
  0
LINE
  5
290
100
AcDbEntity
  8
1
100
AcDbLine
 62
9
  6
CONTINUOUS
 10
176.3
 20
163.525
 11
176.3
 21
165.2622426927
  0
LINE
  5
291
100
AcDbEntity
  8
1
100
AcDbLine
 62
6
  6
CONTINUOUS
 10
177.2
 20
163.8718839709
 11
177.2
 21
156.1281160291
  0
LINE
  5
292
100
AcDbEntity
  8
1
100
AcDbLine
 62
6
  6
CONTINUOUS
 10
174.8201843564
 20
155.095
 11
174.7194991524
 21
154.9127872077
  0
LINE
  5
293
100
AcDbEntity
  8
1
100
AcDbLine
 62
6
  6
CONTINUOUS
 10
174.7194991524
 20
165.0872127923
 11
174.8201843564
 21
164.905
  0
LINE
  5
294
100
AcDbEntity
  8
1
100
AcDbLine
 62
9
  6
CONTINUOUS
 10
174.1
 20
155.525
 11
175.05
 21
156.475
  0
LINE
  5
295
100
AcDbEntity
  8
1
100
AcDbLine
 62
9
  6
CONTINUOUS
 10
175.05
 20
163.525
 11
174.1
 21
164.475
  0
LINE
  5
296
100
AcDbEntity
  8
1
100
AcDbLine
 62
6
  6
CONTINUOUS
 10
189.0
 20
172.1137260274
 11
189.0
 21
147.8862739726
  0
LINE
  5
297
100
AcDbEntity
  8
1
100
AcDbLine
 62
9
  6
CONTINUOUS
 10
189.3223384618
 20
147.9726443031
 11
189.3223384618
 21
172.0273556969
  0
LINE
  5
298
100
AcDbEntity
  8
1
100
AcDbLine
 62
9
  6
CONTINUOUS
 10
189.4258660798
 20
147.9862739726
 11
189.4258660798
 21
172.0137260274
  0
LINE
  5
299
100
AcDbEntity
  8
1
100
AcDbLine
 62
9
  6
CONTINUOUS
 10
189.8458228367
 20
147.9862739726
 11
189.8458228367
 21
172.0137260274
  0
LINE
  5
29A
100
AcDbEntity
  8
1
100
AcDbLine
 62
6
  6
CONTINUOUS
 10
190.0
 20
176.0
 11
190.0
 21
144.0
  0
LINE
  5
29B
100
AcDbEntity
  8
1
100
AcDbLine
 62
6
  6
CONTINUOUS
 10
203.9648403011
 20
144.0
 11
190.0
 21
144.0
  0
LINE
  5
29C
100
AcDbEntity
  8
1
100
AcDbLine
 62
6
  6
CONTINUOUS
 10
208.0351596989
 20
144.0
 11
209.95
 21
144.0
  0
LINE
  5
29D
100
AcDbEntity
  8
1
100
AcDbLine
 62
9
  6
CONTINUOUS
 10
174.1
 20
155.3326048199
 11
175.05
 21
155.8575457012
  0
LINE
  5
29E
100
AcDbEntity
  8
1
100
AcDbLine
 62
6
  6
CONTINUOUS
 10
236.0
 20
146.0
 11
223.45
 21
146.0
  0
LINE
  5
29F
100
AcDbEntity
  8
1
100
AcDbLine
 62
6
  6
CONTINUOUS
 10
205.2125
 20
146.775
 11
206.7875
 21
146.775
  0
LINE
  5
2A0
100
AcDbEntity
  8
1
100
AcDbLine
 62
6
  6
CONTINUOUS
 10
198.3528061093
 20
147.016260169
 11
203.9648403011
 21
147.016260169
  0
LINE
  5
2A1
100
AcDbEntity
  8
1
100
AcDbLine
 62
6
  6
CONTINUOUS
 10
208.0351596989
 20
147.016260169
 11
209.95
 21
147.016260169
  0
LINE
  5
2A2
100
AcDbEntity
  8
1
100
AcDbLine
 62
6
  6
CONTINUOUS
 10
236.0
 20
147.1819563197
 11
230.0
 21
147.1819563197
  0
LINE
  5
2A3
100
AcDbEntity
  8
1
100
AcDbLine
 62
6
  6
CONTINUOUS
 10
189.0
 20
147.8862739726
 11
174.6699760169
 21
148.6042474345
  0
LINE
  5
2A4
100
AcDbEntity
  8
1
100
AcDbLine
 62
9
  6
CONTINUOUS
 10
175.05
 20
164.1424542988
 11
174.1
 21
164.6673951801
  0
LINE
  5
2A5
100
AcDbEntity
  8
1
100
AcDbLine
 62
6
  6
CONTINUOUS
 10
189.8458228367
 20
147.9862739726
 11
189.4258660798
 21
147.9862739726
  0
LINE
  5
2A6
100
AcDbEntity
  8
1
100
AcDbLine
 62
8
  6
HIDDEN
 10
232.3112395693
 20
148.525
 11
222.2
 21
148.525
  0
LINE
  5
2A7
100
AcDbEntity
  8
1
100
AcDbLine
 62
6
  6
CONTINUOUS
 10
222.2
 20
148.525
 11
211.95
 21
148.525
  0
LINE
  5
2A8
100
AcDbEntity
  8
1
100
AcDbLine
 62
6
  6
CONTINUOUS
 10
236.0
 20
148.7151892844
 11
230.0
 21
148.7151892844
  0
LINE
  5
2A9
100
AcDbEntity
  8
1
100
AcDbLine
 62
6
  6
CONTINUOUS
 10
207.0375
 20
174.2720027129
 11
208.0351596989
 21
176.0
  0
LINE
  5
2AA
100
AcDbEntity
  8
1
100
AcDbLine
 62
6
  6
CONTINUOUS
 10
189.3223384618
 20
147.9726443031
 11
189.4258660798
 21
147.9862739726
  0
LINE
  5
2AB
100
AcDbEntity
  8
1
100
AcDbLine
 62
6
  6
CONTINUOUS
 10
209.95
 20
150.25
 11
207.0375
 21
150.25
  0
LINE
  5
2AC
100
AcDbEntity
  8
1
100
AcDbLine
 62
6
  6
CONTINUOUS
 10
204.9625
 20
150.25
 11
201.449914995
 21
150.25
  0
LINE
  5
2AD
100
AcDbEntity
  8
1
100
AcDbLine
 62
6
  6
CONTINUOUS
 10
201.449914995
 20
150.65
 11
204.9625
 21
150.65
  0
LINE
  5
2AE
100
AcDbEntity
  8
1
100
AcDbLine
 62
6
  6
CONTINUOUS
 10
207.0375
 20
150.65
 11
209.95
 21
150.65
  0
LINE
  5
2AF
100
AcDbEntity
  8
1
100
AcDbLine
 62
6
  6
CONTINUOUS
 10
207.0375
 20
145.7279972871
 11
208.0351596989
 21
144.0
  0
LINE
  5
2B0
100
AcDbEntity
  8
1
100
AcDbLine
 62
9
  6
CONTINUOUS
 10
201.449914995
 20
150.65
 11
201.449914995
 21
150.25
  0
LINE
  5
2B1
100
AcDbEntity
  8
1
100
AcDbLine
 62
6
  6
CONTINUOUS
 10
189.3223384618
 20
147.9726443031
 11
189.0
 21
147.8862739726
  0
LINE
  5
2B2
100
AcDbEntity
  8
1
100
AcDbLine
 62
8
  6
HIDDEN
 10
218.6316637684
 20
153.9575
 11
207.735
 21
153.9575
  0
LINE
  5
2B3
100
AcDbEntity
  8
1
100
AcDbLine
 62
9
  6
CONTINUOUS
 10
176.87596111
 20
155.095
 11
174.8201843564
 21
155.095
  0
LINE
  5
2B4
100
AcDbEntity
  8
1
100
AcDbLine
 62
8
  6
HIDDEN
 10
219.4263956234
 20
153.8879699721
 11
218.6316637684
 21
153.9575
  0
LINE
  5
2B5
100
AcDbEntity
  8
1
100
AcDbLine
 62
6
  6
CONTINUOUS
 10
203.9648403011
 20
176.0
 11
203.9648403011
 21
150.65
  0
LINE
  5
2B6
100
AcDbEntity
  8
1
100
AcDbLine
 62
6
  6
CONTINUOUS
 10
203.9648403011
 20
147.016260169
 11
203.9648403011
 21
144.0
  0
LINE
  5
2B7
100
AcDbEntity
  8
1
100
AcDbLine
 62
6
  6
CONTINUOUS
 10
204.9625
 20
145.728081369
 11
204.9625
 21
174.2719822358
  0
LINE
  5
2B8
100
AcDbEntity
  8
1
100
AcDbLine
 62
9
  6
CONTINUOUS
 10
205.2125
 20
173.225
 11
205.2125
 21
146.775
  0
LINE
  5
2B9
100
AcDbEntity
  8
1
100
AcDbLine
 62
6
  6
CONTINUOUS
 10
176.3
 20
156.475
 11
175.05
 21
156.475
  0
LINE
  5
2BA
100
AcDbEntity
  8
1
100
AcDbLine
 62
8
  6
HIDDEN
 10
232.86
 20
152.0
 11
219.4263956234
 21
153.8879699721
  0
LINE
  5
2BB
100
AcDbEntity
  8
1
100
AcDbLine
 62
9
  6
CONTINUOUS
 10
206.7875
 20
173.225
 11
206.7875
 21
146.775
  0
LINE
  5
2BC
100
AcDbEntity
  8
1
100
AcDbLine
 62
6
  6
CONTINUOUS
 10
207.0375
 20
145.728081369
 11
207.0375
 21
174.2719822358
  0
LINE
  5
2BD
100
AcDbEntity
  8
1
100
AcDbLine
 62
8
  6
HIDDEN
 10
207.735
 20
166.0425
 11
207.735
 21
153.9575
  0
LINE
  5
2BE
100
AcDbEntity
  8
1
100
AcDbLine
 62
6
  6
CONTINUOUS
 10
208.0351596989
 20
176.0
 11
208.0351596989
 21
150.65
  0
LINE
  5
2BF
100
AcDbEntity
  8
1
100
AcDbLine
 62
6
  6
CONTINUOUS
 10
208.0351596989
 20
147.016260169
 11
208.0351596989
 21
144.0
  0
LINE
  5
2C0
100
AcDbEntity
  8
1
100
AcDbLine
 62
6
  6
CONTINUOUS
 10
236.0
 20
158.4667670353
 11
230.0
 21
158.4667670353
  0
LINE
  5
2C1
100
AcDbEntity
  8
4
100
AcDbLine
 62
7
  6
CENTER
 10
238.235
 20
160.0
 11
171.1
 21
160.0
  0
LINE
  5
2C2
100
AcDbEntity
  8
1
100
AcDbLine
 62
9
  6
CONTINUOUS
 10
182.4006697547
 20
159.9999999336
 11
182.9999557557
 21
159.9999999746
  0
LINE
  5
2C3
100
AcDbEntity
  8
1
100
AcDbLine
 62
6
  6
CONTINUOUS
 10
209.95
 20
144.0000008644
 11
209.95
 21
175.9999315045
  0
LINE
  5
2C4
100
AcDbEntity
  8
1
100
AcDbLine
 62
6
  6
CONTINUOUS
 10
236.0
 20
161.5332329647
 11
230.0
 21
161.5332329647
  0
LINE
  5
2C5
100
AcDbEntity
  8
1
100
AcDbLine
 62
9
  6
CONTINUOUS
 10
211.95
 20
171.475
 11
211.95
 21
148.525
  0
LINE
  5
2C6
100
AcDbEntity
  8
1
100
AcDbLine
 62
6
  6
CONTINUOUS
 10
203.9648403011
 20
144.0
 11
204.9625
 21
145.7279972871
  0
LINE
  5
2C7
100
AcDbEntity
  8
1
100
AcDbLine
 62
8
  6
HIDDEN
 10
232.86
 20
168.0
 11
219.4263956234
 21
166.1120300279
  0
LINE
  5
2C8
100
AcDbEntity
  8
1
100
AcDbLine
 62
8
  6
HIDDEN
 10
219.4263956234
 20
166.1120300279
 11
218.6316637684
 21
166.0425
  0
LINE
  5
2C9
100
AcDbEntity
  8
1
100
AcDbLine
 62
9
  6
CONTINUOUS
 10
176.3
 20
163.525
 11
175.05
 21
163.525
  0
LINE
  5
2CA
100
AcDbEntity
  8
1
100
AcDbLine
 62
9
  6
CONTINUOUS
 10
174.8201843564
 20
164.905
 11
176.87596111
 21
164.905
  0
LINE
  5
2CB
100
AcDbEntity
  8
1
100
AcDbLine
 62
6
  6
CONTINUOUS
 10
203.9648403011
 20
176.0
 11
204.9625
 21
174.2720027129
  0
LINE
  5
2CC
100
AcDbEntity
  8
1
100
AcDbLine
 62
8
  6
HIDDEN
 10
218.6316637684
 20
166.0425
 11
207.735
 21
166.0425
  0
LINE
  5
2CD
100
AcDbEntity
  8
1
100
AcDbLine
 62
6
  6
CONTINUOUS
 10
189.3223384618
 20
172.0273556969
 11
189.0
 21
172.1137260274
  0
LINE
  5
2CE
100
AcDbEntity
  8
1
100
AcDbLine
 62
8
  6
HIDDEN
 10
218.6316637684
 20
166.0425
 11
218.6316637684
 21
153.9575
  0
LINE
  5
2CF
100
AcDbEntity
  8
1
100
AcDbLine
 62
6
  6
CONTINUOUS
 10
189.3223384618
 20
172.0273556969
 11
189.4258660798
 21
172.0137260274
  0
LINE
  5
2D0
100
AcDbEntity
  8
1
100
AcDbLine
 62
6
  6
CONTINUOUS
 10
189.0
 20
172.1137260274
 11
174.6699760169
 21
171.3957525655
  0
LINE
  5
2D1
100
AcDbEntity
  8
1
100
AcDbLine
 62
6
  6
CONTINUOUS
 10
236.0
 20
171.2848107156
 11
230.0
 21
171.2848107156
  0
LINE
  5
2D2
100
AcDbEntity
  8
1
100
AcDbLine
 62
8
  6
HIDDEN
 10
232.3112395693
 20
171.475
 11
222.2
 21
171.475
  0
LINE
  5
2D3
100
AcDbEntity
  8
1
100
AcDbLine
 62
6
  6
CONTINUOUS
 10
222.2
 20
171.475
 11
211.95
 21
171.475
  0
LINE
  5
2D4
100
AcDbEntity
  8
1
100
AcDbLine
 62
6
  6
CONTINUOUS
 10
189.8458228367
 20
172.0137260274
 11
189.4258660798
 21
172.0137260274
  0
LINE
  5
2D5
100
AcDbEntity
  8
1
100
AcDbLine
 62
6
  6
CONTINUOUS
 10
236.0
 20
172.8180436803
 11
230.0
 21
172.8180436803
  0
LINE
  5
2D6
100
AcDbEntity
  8
1
100
AcDbLine
 62
6
  6
CONTINUOUS
 10
222.2
 20
172.73
 11
222.2
 21
147.25
  0
LINE
  5
2D7
100
AcDbEntity
  8
1
100
AcDbLine
 62
9
  6
CONTINUOUS
 10
223.45
 20
174.0
 11
223.45
 21
146.0
  0
LINE
  5
2D8
100
AcDbEntity
  8
1
100
AcDbLine
 62
6
  6
CONTINUOUS
 10
206.7875
 20
173.225
 11
205.2125
 21
173.225
  0
LINE
  5
2D9
100
AcDbEntity
  8
1
100
AcDbLine
 62
6
  6
CONTINUOUS
 10
236.0
 20
174.0
 11
223.45
 21
174.0
  0
LINE
  5
2DA
100
AcDbEntity
  8
1
100
AcDbLine
 62
6
  6
CONTINUOUS
 10
203.9648403011
 20
176.0
 11
190.0
 21
176.0
  0
LINE
  5
2DB
100
AcDbEntity
  8
1
100
AcDbLine
 62
6
  6
CONTINUOUS
 10
208.0351596989
 20
176.0
 11
209.95
 21
176.0
  0
LINE
  5
2DC
100
AcDbEntity
  8
1
100
AcDbLine
 62
9
  6
CONTINUOUS
 10
230.0
 20
172.8180436803
 11
230.0
 21
171.2848107156
  0
LINE
  5
2DD
100
AcDbEntity
  8
1
100
AcDbLine
 62
9
  6
CONTINUOUS
 10
230.0
 20
161.5332329647
 11
230.0
 21
158.4667670353
  0
LINE
  5
2DE
100
AcDbEntity
  8
1
100
AcDbLine
 62
9
  6
CONTINUOUS
 10
230.0
 20
148.7151892844
 11
230.0
 21
147.1819563197
  0
LINE
  5
2DF
100
AcDbEntity
  8
1
100
AcDbLine
 62
8
  6
HIDDEN
 10
232.3112395693
 20
171.475
 11
232.3112395693
 21
148.525
  0
LINE
  5
2E0
100
AcDbEntity
  8
1
100
AcDbLine
 62
8
  6
HIDDEN
 10
233.235
 20
169.875
 11
233.235
 21
150.125
  0
LINE
  5
2E1
100
AcDbEntity
  8
1
100
AcDbLine
 62
9
  6
CONTINUOUS
 10
236.0
 20
174.0
 11
236.0
 21
172.8180436803
  0
LINE
  5
2E2
100
AcDbEntity
  8
1
100
AcDbLine
 62
9
  6
CONTINUOUS
 10
236.0
 20
171.2848107156
 11
236.0
 21
161.5332329647
  0
LINE
  5
2E3
100
AcDbEntity
  8
1
100
AcDbLine
 62
9
  6
CONTINUOUS
 10
236.0
 20
158.4667670353
 11
236.0
 21
148.7151892844
  0
LINE
  5
2E4
100
AcDbEntity
  8
1
100
AcDbLine
 62
9
  6
CONTINUOUS
 10
236.0
 20
147.1819563197
 11
236.0
 21
146.0
  0
LINE
  5
2E5
100
AcDbEntity
  8
1
100
AcDbLine
 62
8
  6
HIDDEN
 10
233.235
 20
150.125
 11
232.3112395693
 21
148.525
  0
LINE
  5
2E6
100
AcDbEntity
  8
1
100
AcDbLine
 62
8
  6
HIDDEN
 10
233.235
 20
169.875
 11
232.3112395693
 21
171.475
  0
LINE
  5
2E7
100
AcDbEntity
  8
1
100
AcDbLine
 62
9
  6
CONTINUOUS
 10
240.0
 20
170.0
 11
240.0
 21
150.0
  0
ARC
  5
2E8
100
AcDbEntity
  8
1
100
AcDbCircle
 62
6
  6
CONTINUOUS
 10
202.8598315291
 20
153.4754627254
 40
7.8762031334
100
AcDbArc
 50
231.4718710192
 51
235.0938947363
  0
ARC
  5
2E9
100
AcDbEntity
  8
1
100
AcDbCircle
 62
6
  6
CONTINUOUS
 10
201.449914995
 20
147.15
 40
3.5
100
AcDbArc
 50
90.0
 51
177.316106528
  0
ARC
  5
2EA
100
AcDbEntity
  8
1
100
AcDbCircle
 62
6
  6
CONTINUOUS
 10
201.449914995
 20
147.15
 40
3.0999951278
100
AcDbArc
 50
90.0
 51
182.4726190081
  0
ARC
  5
2EB
100
AcDbEntity
  8
1
100
AcDbCircle
 62
9
  6
CONTINUOUS
 10
176.3
 20
157.375
 40
0.9
100
AcDbArc
 50
270.0
 51
352.9880362121
  0
ARC
  5
2EC
100
AcDbEntity
  8
1
100
AcDbCircle
 62
6
  6
CONTINUOUS
 10
174.7
 20
149.203495764
 40
0.6
100
AcDbArc
 50
180.0
 51
267.131722931
  0
ARC
  5
2ED
100
AcDbEntity
  8
1
100
AcDbCircle
 62
6
  6
CONTINUOUS
 10
189.8458228367
 20
147.5862739726
 40
0.4
100
AcDbArc
 50
67.3015645404
 51
90.0
  0
ARC
  5
2EE
100
AcDbEntity
  8
1
100
AcDbCircle
 62
6
  6
CONTINUOUS
 10
205.2125
 20
146.525
 40
0.25
100
AcDbArc
 50
90.0
 51
180.0
  0
ARC
  5
2EF
100
AcDbEntity
  8
1
100
AcDbCircle
 62
6
  6
CONTINUOUS
 10
122.4083250032
 20
185.3105130693
 40
90.0994727661
100
AcDbArc
 50
334.8479477142
 51
336.3847181612
  0
CIRCLE
  5
2F0
100
AcDbEntity
  8
1
100
AcDbCircle
 62
6
  6
CONTINUOUS
 10
185.0
 20
160.0
 40
2.0
  0
ARC
  5
2F1
100
AcDbEntity
  8
1
100
AcDbCircle
 62
9
  6
CONTINUOUS
 10
176.3
 20
162.625
 40
0.9
100
AcDbArc
 50
7.0119620216
 51
90.0
  0
ARC
  5
2F2
100
AcDbEntity
  8
1
100
AcDbCircle
 62
6
  6
CONTINUOUS
 10
174.7
 20
170.796504236
 40
0.6
100
AcDbArc
 50
92.868277069
 51
180.0
  0
ARC
  5
2F3
100
AcDbEntity
  8
1
100
AcDbCircle
 62
6
  6
CONTINUOUS
 10
189.4258660798
 20
172.4137260274
 40
0.4
100
AcDbArc
 50
255.0
 51
270.0
  0
ARC
  5
2F4
100
AcDbEntity
  8
1
100
AcDbCircle
 62
6
  6
CONTINUOUS
 10
189.8458228367
 20
172.4137260274
 40
0.4
100
AcDbArc
 50
270.0
 51
292.6984354596
  0
ARC
  5
2F5
100
AcDbEntity
  8
1
100
AcDbCircle
 62
6
  6
CONTINUOUS
 10
205.2125
 20
173.475
 40
0.25
100
AcDbArc
 50
180.0
 51
270.0
  0
ARC
  5
2F6
100
AcDbEntity
  8
1
100
AcDbCircle
 62
6
  6
CONTINUOUS
 10
211.95
 20
146.525
 40
2.0
100
AcDbArc
 50
90.0
 51
180.0
  0
ARC
  5
2F7
100
AcDbEntity
  8
1
100
AcDbCircle
 62
6
  6
CONTINUOUS
 10
206.7875
 20
146.525
 40
0.25
100
AcDbArc
 50
0.0
 51
90.0
  0
ARC
  5
2F8
100
AcDbEntity
  8
1
100
AcDbCircle
 62
6
  6
CONTINUOUS
 10
234.9668221418
 20
-371.716131156
 40
540.1736480072
100
AcDbArc
 50
96.2350409531
 51
96.4037083111
  0
ARC
  5
2F9
100
AcDbEntity
  8
1
100
AcDbCircle
 62
6
  6
CONTINUOUS
 10
236.0
 20
150.0
 40
4.0
100
AcDbArc
 50
270.0
 51
360.0
  0
ARC
  5
2FA
100
AcDbEntity
  8
1
100
AcDbCircle
 62
6
  6
CONTINUOUS
 10
223.45
 20
147.25
 40
1.25
100
AcDbArc
 50
180.0
 51
270.0
  0
ARC
  5
2FB
100
AcDbEntity
  8
1
100
AcDbCircle
 62
6
  6
CONTINUOUS
 10
234.9668221418
 20
691.716131156
 40
540.1736480073
100
AcDbArc
 50
263.5962916889
 51
263.7649590469
  0
ARC
  5
2FC
100
AcDbEntity
  8
1
100
AcDbCircle
 62
6
  6
CONTINUOUS
 10
289.5916749967
 20
185.3105130693
 40
90.099472766
100
AcDbArc
 50
203.6152818388
 51
205.1520522858
  0
ARC
  5
2FD
100
AcDbEntity
  8
1
100
AcDbCircle
 62
6
  6
CONTINUOUS
 10
236.0
 20
170.0
 40
4.0
100
AcDbArc
 50
0.0
 51
90.0
  0
ARC
  5
2FE
100
AcDbEntity
  8
1
100
AcDbCircle
 62
6
  6
CONTINUOUS
 10
211.95
 20
173.475
 40
2.0
100
AcDbArc
 50
180.0
 51
270.0
  0
ARC
  5
2FF
100
AcDbEntity
  8
1
100
AcDbCircle
 62
6
  6
CONTINUOUS
 10
223.5869708393
 20
172.7207564799
 40
1.387507506
100
AcDbArc
 50
158.0547714479
 51
163.0312516963
  0
ARC
  5
300
100
AcDbEntity
  8
1
100
AcDbCircle
 62
6
  6
CONTINUOUS
 10
223.45
 20
172.75
 40
1.25
100
AcDbArc
 50
90.0
 51
156.6321188674
  0
ARC
  5
301
100
AcDbEntity
  8
1
100
AcDbCircle
 62
6
  6
CONTINUOUS
 10
206.7875
 20
173.475
 40
0.25
100
AcDbArc
 50
270.0
 51
360.0
  0
SPLINE
  5
302
100
AcDbEntity
  8
1
100
AcDbSpline
 62
6
  6
CONTINUOUS
 70
0
 71
3
 72
10
 73
6
 74
0
 42
0.0000001
 43
0.0000001
 44
0.0000000001
 40
0.0
 40
0.0
 40
0.0
 40
0.0
 40
0.2096450541
 40
0.4533742123
 40
1.0
 40
1.0
 40
1.0
 40
1.0
 10
228.5851525543
 20
148.2499313883
 30
0.0
 10
228.6606062841
 20
148.3245212844
 30
0.0
 10
228.8506597492
 20
148.4587218585
 30
0.0
 10
229.3180517916
 20
148.6576759087
 30
0.0
 10
229.7233598283
 20
148.7151892844
 30
0.0
 10
230.0
 20
148.7151892844
 30
0.0
  0
SPLINE
  5
303
100
AcDbEntity
  8
1
100
AcDbSpline
 62
6
  6
CONTINUOUS
 70
0
 71
3
 72
9
 73
5
 74
0
 42
0.0000001
 43
0.0000001
 44
0.0000000001
 40
0.0
 40
0.0
 40
0.0
 40
0.0
 40
0.1262225215
 40
1.0
 40
1.0
 40
1.0
 40
1.0
 10
222.3
 20
173.2392959075
 30
0.0
 10
222.2918354178
 20
173.2189956844
 30
0.0
 10
222.2307903606
 20
173.0568432407
 30
0.0
 10
222.2
 20
172.8814686239
 30
0.0
 10
222.2
 20
172.73
 30
0.0
  0
SPLINE
  5
304
100
AcDbEntity
  8
1
100
AcDbSpline
 62
6
  6
CONTINUOUS
 70
0
 71
3
 72
9
 73
5
 74
0
 42
0.0000001
 43
0.0000001
 44
0.0000000001
 40
0.0
 40
0.0
 40
0.0
 40
0.0
 40
0.3482433145
 40
1.0
 40
1.0
 40
1.0
 40
1.0
 10
222.3011819985
 20
173.2480328242
 30
0.0
 10
222.3013179915
 20
173.2476041713
 30
0.0
 10
222.3017088279
 20
173.2463443793
 30
0.0
 10
222.3019409397
 20
173.2450323608
 30
0.0
 10
222.3018978659
 20
173.2441794952
 30
0.0
  0
SPLINE
  5
305
100
AcDbEntity
  8
1
100
AcDbSpline
 62
6
  6
CONTINUOUS
 70
0
 71
3
 72
8
 73
4
 74
0
 42
0.0000001
 43
0.0000001
 44
0.0000000001
 40
0.0
 40
0.0
 40
0.0
 40
0.0
 40
1.0
 40
1.0
 40
1.0
 40
1.0
 10
222.3018978659
 20
173.2441794952
 30
0.0
 10
222.3018097733
 20
173.2424352513
 30
0.0
 10
222.3006298494
 20
173.2409248448
 30
0.0
 10
222.3
 20
173.2392959075
 30
0.0
  0
SPLINE
  5
306
100
AcDbEntity
  8
1
100
AcDbSpline
 62
6
  6
CONTINUOUS
 70
0
 71
3
 72
11
 73
7
 74
0
 42
0.0000001
 43
0.0000001
 44
0.0000000001
 40
0.0
 40
0.0
 40
0.0
 40
0.0
 40
0.2703647083
 40
0.5343990194
 40
0.7825736202
 40
1.0
 40
1.0
 40
1.0
 40
1.0
 10
236.0
 20
148.7151892844
 30
0.0
 10
236.1735798279
 20
148.7151892844
 30
0.0
 10
236.5167249529
 20
148.7246147167
 30
0.0
 10
237.0178953971
 20
148.762690368
 30
0.0
 10
237.4836462103
 20
148.8106686081
 30
0.0
 10
237.7820326101
 20
148.8359938025
 30
0.0
 10
237.9216242573
 20
148.8364232777
 30
0.0
  0
SPLINE
  5
307
100
AcDbEntity
  8
1
100
AcDbSpline
 62
6
  6
CONTINUOUS
 70
0
 71
3
 72
11
 73
7
 74
0
 42
0.0000001
 43
0.0000001
 44
0.0000000001
 40
0.0
 40
0.0
 40
0.0
 40
0.0
 40
0.2174406445
 40
0.4656168556
 40
0.7296413654
 40
1.0
 40
1.0
 40
1.0
 40
1.0
 10
237.9214034527
 20
171.1635733324
 30
0.0
 10
237.7818186491
 20
171.1640181835
 30
0.0
 10
237.483458083
 20
171.189351198
 30
0.0
 10
237.0177561427
 20
171.2373239752
 30
0.0
 10
236.5166519074
 20
171.275391243
 30
0.0
 10
236.1735560922
 20
171.2848107156
 30
0.0
 10
236.0
 20
171.2848107156
 30
0.0
  0
SPLINE
  5
308
100
AcDbEntity
  8
1
100
AcDbSpline
 62
6
  6
CONTINUOUS
 70
0
 71
3
 72
10
 73
6
 74
0
 42
0.0000001
 43
0.0000001
 44
0.0000000001
 40
0.0
 40
0.0
 40
0.0
 40
0.0
 40
0.5466320984
 40
0.7903580968
 40
1.0
 40
1.0
 40
1.0
 40
1.0
 10
230.0
 20
171.2848107156
 30
0.0
 10
229.72335134
 20
171.2848107156
 30
0.0
 10
229.3180329462
 20
171.3423259934
 30
0.0
 10
228.8506355715
 20
171.5412918414
 30
0.0
 10
228.6605827563
 20
171.6754962768
 30
0.0
 10
228.585131579
 20
171.750089375
 30
0.0
  0
SPLINE
  5
309
100
AcDbEntity
  8
1
100
AcDbSpline
 62
6
  6
CONTINUOUS
 70
0
 71
3
 72
15
 73
11
 74
0
 42
0.0000001
 43
0.0000001
 44
0.0000000001
 40
0.0
 40
0.0
 40
0.0
 40
0.0
 40
0.1253148805
 40
0.2503387171
 40
0.3751797661
 40
0.4999973332
 40
0.6248149301
 40
0.7496575949
 40
0.8746840308
 40
1.0
 40
1.0
 40
1.0
 40
1.0
 10
230.0
 20
158.4667670353
 30
0.0
 10
229.7956744092
 20
158.4667670353
 30
0.0
 10
229.3834338795
 20
158.5428332749
 30
0.0
 10
228.8522875668
 20
158.8745695061
 30
0.0
 10
228.4870481508
 20
159.3851464202
 30
0.0
 10
228.35651032
 20
159.9999863163
 30
0.0
 10
228.4870383034
 20
160.6148308008
 30
0.0
 10
228.8522736152
 20
161.125420087
 30
0.0
 10
229.3834261431
 20
161.4571645941
 30
0.0
 10
229.7956726341
 20
161.5332329647
 30
0.0
 10
230.0
 20
161.5332329647
 30
0.0
  0
SPLINE
  5
30A
100
AcDbEntity
  8
1
100
AcDbSpline
 62
6
  6
CONTINUOUS
 70
0
 71
3
 72
17
 73
13
 74
0
 42
0.0000001
 43
0.0000001
 44
0.0000000001
 40
0.0
 40
0.0
 40
0.0
 40
0.0
 40
0.1726063824
 40
0.3370401314
 40
0.4851283688
 40
0.6114998342
 40
0.7148732937
 40
0.760174423
 40
0.8034817078
 40
0.8472031956
 40
0.8936122323
 40
1.0
 40
1.0
 40
1.0
 40
1.0
 10
230.0
 20
147.1819563197
 30
0.0
 10
229.8671960473
 20
147.1819563197
 30
0.0
 10
229.6076840397
 20
147.1943170561
 30
0.0
 10
229.2378578058
 20
147.249831068
 30
0.0
 10
228.9117545702
 20
147.3425303702
 30
0.0
 10
228.6487127623
 20
147.4703601784
 30
0.0
 10
228.4873943922
 20
147.6158075666
 30
0.0
 10
228.418066226
 20
147.7480224222
 30
0.0
 10
228.3962385278
 20
147.8488189817
 30
0.0
 10
228.4032691704
 20
147.9525519186
 30
0.0
 10
228.4523007619
 20
148.0969839471
 30
0.0
 10
228.5269399793
 20
148.1923852613
 30
0.0
 10
228.5851525543
 20
148.2499313883
 30
0.0
  0
SPLINE
  5
30B
100
AcDbEntity
  8
1
100
AcDbSpline
 62
6
  6
CONTINUOUS
 70
0
 71
3
 72
17
 73
13
 74
0
 42
0.0000001
 43
0.0000001
 44
0.0000000001
 40
0.0
 40
0.0
 40
0.0
 40
0.0
 40
0.1063870162
 40
0.1527956035
 40
0.1965170604
 40
0.2398252946
 40
0.2851278816
 40
0.3885038255
 40
0.5148767323
 40
0.6629656679
 40
0.8273951315
 40
1.0
 40
1.0
 40
1.0
 40
1.0
 10
228.585131579
 20
171.750089375
 30
0.0
 10
228.5269223684
 20
171.8076365932
 30
0.0
 10
228.4522879203
 20
171.9030385281
 30
0.0
 10
228.4032639856
 20
172.0474704523
 30
0.0
 10
228.3962409617
 20
172.1512028255
 30
0.0
 10
228.418073048
 20
172.2519989923
 30
0.0
 10
228.4874117264
 20
172.3842105504
 30
0.0
 10
228.6487344205
 20
172.5296534046
 30
0.0
 10
228.9117787898
 20
172.6574780806
 30
0.0
 10
229.2378769714
 20
172.7501721497
 30
0.0
 10
229.6076946343
 20
172.805684485
 30
0.0
 10
229.8671989109
 20
172.8180436803
 30
0.0
 10
230.0
 20
172.8180436803
 30
0.0
  0
SPLINE
  5
30C
100
AcDbEntity
  8
1
100
AcDbSpline
 62
6
  6
CONTINUOUS
 70
0
 71
3
 72
20
 73
16
 74
0
 42
0.0000001
 43
0.0000001
 44
0.0000000001
 40
0.0
 40
0.0
 40
0.0
 40
0.0
 40
0.1554601844
 40
0.3107188024
 40
0.4645480142
 40
0.6127977136
 40
0.6815372414
 40
0.7434831487
 40
0.7957625645
 40
0.8371879949
 40
0.854690518
 40
0.8712340831
 40
0.9058444421
 40
0.9482963032
 40
1.0
 40
1.0
 40
1.0
 40
1.0
 10
236.0
 20
172.8180436803
 30
0.0
 10
236.1856361498
 20
172.8180436803
 30
0.0
 10
236.5573945417
 20
172.7874594091
 30
0.0
 10
237.0974495601
 20
172.6492710731
 30
0.0
 10
237.5962748937
 20
172.4194800517
 30
0.0
 10
237.9566315036
 20
172.1550774113
 30
0.0
 10
238.1847354227
 20
171.9112254311
 30
0.0
 10
238.3100026075
 20
171.7308858848
 30
0.0
 10
238.3868850454
 20
171.5606242338
 30
0.0
 10
238.4070728199
 20
171.4255140946
 30
0.0
 10
238.3862380256
 20
171.3367420656
 30
0.0
 10
238.345068103
 20
171.2643053094
 30
0.0
 10
238.2474976952
 20
171.1997187346
 30
0.0
 10
238.095780698
 20
171.1676915785
 30
0.0
 10
237.9831429038
 20
171.1633765712
 30
0.0
 10
237.9214034527
 20
171.1635733324
 30
0.0
  0
SPLINE
  5
30D
100
AcDbEntity
  8
1
100
AcDbSpline
 62
6
  6
CONTINUOUS
 70
0
 71
3
 72
21
 73
17
 74
0
 42
0.0000001
 43
0.0000001
 44
0.0000000001
 40
0.0
 40
0.0
 40
0.0
 40
0.0
 40
0.128138205
 40
0.1909468519
 40
0.2525130726
 40
0.3130996633
 40
0.3737404126
 40
0.4359434463
 40
0.5000028606
 40
0.5640567943
 40
0.626257617
 40
0.6868978265
 40
0.7474839212
 40
0.8090506923
 40
0.871860356
 40
1.0
 40
1.0
 40
1.0
 40
1.0
 10
236.0
 20
161.5332329647
 30
0.0
 10
236.2711510674
 20
161.5332329647
 30
0.0
 10
236.6768320997
 20
161.5033361357
 30
0.0
 10
237.1987603535
 20
161.3843127336
 30
0.0
 10
237.5666279736
 20
161.2459184327
 30
0.0
 10
237.8997197258
 20
161.0434557016
 30
0.0
 10
238.1749153779
 20
160.7625648932
 30
0.0
 10
238.3578298846
 20
160.4044828102
 30
0.0
 10
238.421396321
 20
159.9999924051
 30
0.0
 10
238.3578236876
 20
159.5955097811
 30
0.0
 10
238.1749222852
 20
159.2374412375
 30
0.0
 10
237.8997322205
 20
158.9565538802
 30
0.0
 10
237.5666422618
 20
158.7540913111
 30
0.0
 10
237.1987757146
 20
158.6156871534
 30
0.0
 10
236.6768395969
 20
158.496667977
 30
0.0
 10
236.2711541124
 20
158.4667670353
 30
0.0
 10
236.0
 20
158.4667670353
 30
0.0
  0
SPLINE
  5
30E
100
AcDbEntity
  8
1
100
AcDbSpline
 62
6
  6
CONTINUOUS
 70
0
 71
3
 72
20
 73
16
 74
0
 42
0.0000001
 43
0.0000001
 44
0.0000000001
 40
0.0
 40
0.0
 40
0.0
 40
0.0
 40
0.0516981422
 40
0.0941392164
 40
0.1287438992
 40
0.1452879405
 40
0.1627948209
 40
0.2042287562
 40
0.2565185099
 40
0.3184695662
 40
0.3872134051
 40
0.535461032
 40
0.6892873713
 40
0.844541363
 40
1.0
 40
1.0
 40
1.0
 40
1.0
 10
237.9216242573
 20
148.8364232777
 30
0.0
 10
237.9833533632
 20
148.8366131968
 30
0.0
 10
238.0959679522
 20
148.8323023118
 30
0.0
 10
238.2476333815
 20
148.8002123489
 30
0.0
 10
238.3451669309
 20
148.7356117677
 30
0.0
 10
238.3862848091
 20
148.6631500347
 30
0.0
 10
238.4070649888
 20
148.5743562086
 30
0.0
 10
238.3868372087
 20
148.4392386677
 30
0.0
 10
238.3099290479
 20
148.2689677826
 30
0.0
 10
238.1846170067
 20
148.0886475736
 30
0.0
 10
237.9565179983
 20
147.8448085072
 30
0.0
 10
237.596156241
 20
147.5804564148
 30
0.0
 10
237.0973659435
 20
147.3507028797
 30
0.0
 10
236.5573513948
 20
147.212535741
 30
0.0
 10
236.1856230742
 20
147.1819563197
 30
0.0
 10
236.0
 20
147.1819563197
 30
0.0
  0
SPLINE
  5
30F
100
AcDbEntity
  8
1
100
AcDbSpline
 62
6
  6
CONTINUOUS
 70
0
 71
3
 72
9
 73
5
 74
0
 42
0.0000001
 43
0.0000001
 44
0.0000000001
 40
0.0
 40
0.0
 40
0.0
 40
0.0
 40
0.4973651542
 40
1.0
 40
1.0
 40
1.0
 40
1.0
 10
176.87596111
 20
164.905
 30
0.0
 10
176.9698872966
 20
164.750046259
 30
0.0
 10
177.1326795915
 20
164.4208425886
 30
0.0
 10
177.2
 20
164.0550020125
 30
0.0
 10
177.2
 20
163.8718839709
 30
0.0
  0
SPLINE
  5
310
100
AcDbEntity
  8
1
100
AcDbSpline
 62
6
  6
CONTINUOUS
 70
0
 71
3
 72
9
 73
5
 74
0
 42
0.0000001
 43
0.0000001
 44
0.0000000001
 40
0.0
 40
0.0
 40
0.0
 40
0.0
 40
0.5026348603
 40
1.0
 40
1.0
 40
1.0
 40
1.0
 10
177.2
 20
156.1281160291
 30
0.0
 10
177.2
 20
155.9449979823
 30
0.0
 10
177.1326795823
 20
155.5791574083
 30
0.0
 10
176.9698872938
 20
155.2499537363
 30
0.0
 10
176.87596111
 20
155.095
 30
0.0
  0
SPLINE
  5
311
100
AcDbEntity
  8
1
100
AcDbSpline
 62
6
  6
CONTINUOUS
 70
0
 71
3
 72
11
 73
7
 74
0
 42
0.0000001
 43
0.0000001
 44
0.0000000001
 40
0.0
 40
0.0
 40
0.0
 40
0.0
 40
0.2600114566
 40
0.5125104374
 40
0.758049462
 40
1.0
 40
1.0
 40
1.0
 40
1.0
 10
176.3
 20
165.2622426927
 30
0.0
 10
176.361548373
 20
165.2689686096
 30
0.0
 10
176.4870649345
 20
165.257036711
 30
0.0
 10
176.6500242664
 20
165.1720845312
 30
0.0
 10
176.7787893857
 20
165.0495583054
 30
0.0
 10
176.8460961976
 20
164.954269326
 30
0.0
 10
176.87596111
 20
164.905
 30
0.0
  0
SPLINE
  5
312
100
AcDbEntity
  8
1
100
AcDbSpline
 62
6
  6
CONTINUOUS
 70
0
 71
3
 72
11
 73
7
 74
0
 42
0.0000001
 43
0.0000001
 44
0.0000000001
 40
0.0
 40
0.0
 40
0.0
 40
0.0
 40
0.2419570399
 40
0.4875040639
 40
0.7400050086
 40
1.0
 40
1.0
 40
1.0
 40
1.0
 10
176.87596111
 20
155.095
 30
0.0
 10
176.8460953993
 20
155.0457293571
 30
0.0
 10
176.778786525
 20
154.9504373972
 30
0.0
 10
176.6500160076
 20
154.8279112753
 30
0.0
 10
176.4870574538
 20
154.7429605583
 30
0.0
 10
176.3615444665
 20
154.7310318173
 30
0.0
 10
176.3
 20
154.7377573073
 30
0.0
  0
SPLINE
  5
313
100
AcDbEntity
  8
1
100
AcDbSpline
 62
6
  6
CONTINUOUS
 70
0
 71
3
 72
23
 73
19
 74
0
 42
0.0000001
 43
0.0000001
 44
0.0000000001
 40
0.0
 40
0.0
 40
0.0
 40
0.0
 40
0.0627086818
 40
0.12536429
 40
0.1879495867
 40
0.2504977023
 40
0.3130772317
 40
0.3757366284
 40
0.4384572037
 40
0.5011532034
 40
0.5637141098
 40
0.6260670036
 40
0.6882248761
 40
0.7502934048
 40
0.8124277425
 40
0.8747549615
 40
0.9373045416
 40
1.0
 40
1.0
 40
1.0
 40
1.0
 10
182.4007516705
 20
160.0
 30
0.0
 10
182.4006205813
 20
160.1701226176
 30
0.0
 10
182.4345842406
 20
160.5111672856
 30
0.0
 10
182.5841876716
 20
161.0019184569
 30
0.0
 10
182.8275907383
 20
161.4533472534
 30
0.0
 10
183.1551384996
 20
161.8476429241
 30
0.0
 10
183.5541497302
 20
162.1697200307
 30
0.0
 10
184.0087265124
 20
162.4078579493
 30
0.0
 10
184.5010227422
 20
162.5536526128
 30
0.0
 10
185.0118290987
 20
162.6023658103
 30
0.0
 10
185.5215310367
 20
162.5525187163
 30
0.0
 10
186.0107615143
 20
162.4058842676
 30
0.0
 10
186.4609098858
 20
162.1673498577
 30
0.0
 10
186.855156583
 20
161.8455451859
 30
0.0
 10
187.178249683
 20
161.4517635579
 30
0.0
 10
187.4183191841
 20
161.0010211981
 30
0.0
 10
187.5659217015
 20
160.5107845252
 30
0.0
 10
187.5992792468
 20
160.1700867916
 30
0.0
 10
187.5992483295
 20
160.0
 30
0.0
  0
SPLINE
  5
314
100
AcDbEntity
  8
1
100
AcDbSpline
 62
6
  6
CONTINUOUS
 70
0
 71
3
 72
23
 73
19
 74
0
 42
0.0000001
 43
0.0000001
 44
0.0000000001
 40
0.0
 40
0.0
 40
0.0
 40
0.0
 40
0.0626955232
 40
0.1252449674
 40
0.1875721641
 40
0.2497066721
 40
0.3117752986
 40
0.373933282
 40
0.4362861979
 40
0.4988471056
 40
0.5615430545
 40
0.6242635834
 40
0.686922835
 40
0.749502275
 40
0.8120501501
 40
0.8746353517
 40
0.937291194
 40
1.0
 40
1.0
 40
1.0
 40
1.0
 10
187.5992483295
 20
160.0
 30
0.0
 10
187.5993519029
 20
159.8299130588
 30
0.0
 10
187.5659031679
 20
159.4892126056
 30
0.0
 10
187.4183259174
 20
158.998984104
 30
0.0
 10
187.1782786422
 20
158.5482184743
 30
0.0
 10
186.8551248119
 20
158.1544926205
 30
0.0
 10
186.4609379097
 20
157.8326153146
 30
0.0
 10
186.0107581061
 20
157.5941270468
 30
0.0
 10
185.5215358166
 20
157.447481084
 30
0.0
 10
185.0118311041
 20
157.3976317877
 30
0.0
 10
184.5010289275
 20
157.4463536463
 30
0.0
 10
184.0087212153
 20
157.5921234632
 30
0.0
 10
183.5541794345
 20
157.8303167619
 30
0.0
 10
183.1551088026
 20
158.1523182861
 30
0.0
 10
182.827615119
 20
158.5466658887
 30
0.0
 10
182.5842017638
 20
158.9980762878
 30
0.0
 10
182.4345605858
 20
159.4888340385
 30
0.0
 10
182.4007067873
 20
159.8298769981
 30
0.0
 10
182.4007516705
 20
160.0
 30
0.0
  0
SPLINE
  5
315
100
AcDbEntity
  8
1
100
AcDbSpline
 62
6
  6
CONTINUOUS
 70
0
 71
3
 72
16
 73
12
 74
0
 42
0.0000001
 43
0.0000001
 44
0.0000000001
 40
0.0
 40
0.0
 40
0.0
 40
0.0
 40
0.1302387876
 40
0.2401355223
 40
0.290060395
 40
0.3395766556
 40
0.4454673393
 40
0.5667564193
 40
0.7017855377
 40
0.8471420442
 40
1.0
 40
1.0
 40
1.0
 40
1.0
 10
174.1
 20
165.1422832139
 30
0.0
 10
174.1
 20
165.1766092106
 30
0.0
 10
174.1054216084
 20
165.2402549729
 30
0.0
 10
174.1388781007
 20
165.3124572762
 30
0.0
 10
174.1817926488
 20
165.3484729261
 30
0.0
 10
174.2323958775
 20
165.3697198761
 30
0.0
 10
174.3078671806
 20
165.3689324899
 30
0.0
 10
174.3988420386
 20
165.3378426532
 30
0.0
 10
174.4913968792
 20
165.2855545021
 30
0.0
 10
174.5829450325
 20
165.2169633016
 30
0.0
 10
174.6411923064
 20
165.1640303786
 30
0.0
 10
174.6699760169
 20
165.1358419996
 30
0.0
  0
SPLINE
  5
316
100
AcDbEntity
  8
1
100
AcDbSpline
 62
6
  6
CONTINUOUS
 70
0
 71
3
 72
16
 73
12
 74
0
 42
0.0000001
 43
0.0000001
 44
0.0000000001
 40
0.0
 40
0.0
 40
0.0
 40
0.0
 40
0.1528585255
 40
0.2982157615
 40
0.4332454353
 40
0.5545351415
 40
0.6604254463
 40
0.7099415776
 40
0.7598661867
 40
0.8697621409
 40
1.0
 40
1.0
 40
1.0
 40
1.0
 10
174.6699760169
 20
154.8641580004
 30
0.0
 10
174.6411921942
 20
154.8359695116
 30
0.0
 10
174.5829446431
 20
154.7830363622
 30
0.0
 10
174.4913960264
 20
154.7144449256
 30
0.0
 10
174.3988406175
 20
154.6621566965
 30
0.0
 10
174.3078653757
 20
154.6310671993
 30
0.0
 10
174.2323940074
 20
154.6302803224
 30
0.0
 10
174.1817911369
 20
154.6515277056
 30
0.0
 10
174.1388774096
 20
154.6875438483
 30
0.0
 10
174.1054215823
 20
154.7597457018
 30
0.0
 10
174.1
 20
154.8233910282
 30
0.0
 10
174.1
 20
154.8577167861
 30
0.0
  0
ELLIPSE
  5
317
100
AcDbEntity
  8
1
100
AcDbEllipse
 62
6
  6
CONTINUOUS
 10
173.67
 20
155.095
 30
0.0
 11
1.215876858
 21
1.215876858
 31
0.0
 40
0.5368307223
 41
-1.078120075
 42
-0.4926762518
  0
ELLIPSE
  5
318
100
AcDbEntity
  8
1
100
AcDbEllipse
 62
6
  6
CONTINUOUS
 10
169.5873740253
 20
160.3084440157
 30
0.0
 11
9.8210760221
 21
9.8055914503
 31
0.0
 40
0.536457531
 41
-1.5888023205
 42
-1.5838007129
  0
ELLIPSE
  5
319
100
AcDbEntity
  8
1
100
AcDbEllipse
 62
6
  6
CONTINUOUS
 10
169.5873740253
 20
159.6915559843
 30
0.0
 11
9.8210760221
 21
-9.8055914503
 31
0.0
 40
0.536457531
 41
1.5838007129
 42
1.5888023205
  0
ELLIPSE
  5
31A
100
AcDbEntity
  8
1
100
AcDbEllipse
 62
6
  6
CONTINUOUS
 10
173.67
 20
164.905
 30
0.0
 11
1.215876858
 21
-1.215876858
 31
0.0
 40
0.5368307223
 41
0.4926762518
 42
1.078120075
  0
ENDSEC
  0
SECTION
  2
OBJECTS
  0
DICTIONARY
  5
C
100
AcDbDictionary
280
0
281
1
  3
ACAD_GROUP
350
D
  3
ACAD_MLINESTYLE
350
17
  3
ACAD_LAYOUT
350
1A
  3
ACAD_PLOTSETTINGS
350
19
  3
ACAD_PLOTSTYLENAME
350
E
  0
DICTIONARY
  5
D
102
{ACAD_REACTORS
330
C
102
}
100
AcDbDictionary
280
0
281
1
  0
ACDBDICTIONARYWDFLT
  5
E
102
{ACAD_REACTORS
330
C
102
}
100
AcDbDictionary
281
1
  3
Normal
350
F
100
AcDbDictionaryWithDefault
340
F
  0
DICTIONARY
  5
17
102
{ACAD_REACTORS
330
C
102
}
100
AcDbDictionary
280
0
281
1
  3
Standard
350
18
  0
DICTIONARY
  5
19
102
{ACAD_REACTORS
330
C
102
}
100
AcDbDictionary
281
1
  0
DICTIONARY
  5
1A
102
{ACAD_REACTORS
330
C
102
}
100
AcDbDictionary
281
1
  3
Model
350
31B
  3
Layout1
350
31C
  0
ACDBPLACEHOLDER
  5
F
102
{ACAD_REACTORS
330
E
102
}
  0
MLINESTYLE
  5
18
102
{ACAD_REACTORS
330
17
102
}
100
AcDbMlineStyle
  2
STANDARD
 70
0
  3

 62
256
 51
90.0
 52
90.0
 71
2
 49
0.5
 62
256
  6
BYLAYER
 49
-0.5
 62
256
  6
BYLAYER
  0
LAYOUT
  5
31B
102
{ACAD_REACTORS
330
1A
102
}
100
AcDbPlotSettings
  1

  2
none_device
  4
ISO_A3_(420.00_x_297.00_MM)
  6

 40
0.0
 41
0.0
 42
0.0
 43
0.0
 44
420.0
 45
297.0
 46
0.0
 47
0.0
 48
0.0
 49
0.0
140
0.0
141
0.0
142
1.0
143
1.0
 70
1024
 72
1
 73
0
 74
0
  7

 75
0
147
1.0
148
0.0
149
0.0
100
AcDbLayout
  1
Model
 70
0
 71
0
 10
0.0
 20
0.0
 11
420.0
 21
297.0
 12
0.0
 22
0.0
 32
0.0
 14
0.0
 24
0.0
 34
0.0
 15
0.0
 25
0.0
 35
0.0
146
0.0
 13
0.0
 23
0.0
 33
0.0
 16
1.0
 26
0.0
 36
0.0
 17
0.0
 27
1.0
 37
0.0
 76
0
330
239
345
0
346
0
  0
LAYOUT
  5
31C
102
{ACAD_REACTORS
330
1A
102
}
100
AcDbPlotSettings
  1

  2
none_device
  4
ISO_A3_(420.00_x_297.00_MM)
  6

 40
0.0
 41
0.0
 42
0.0
 43
0.0
 44
420.0
 45
297.0
 46
0.0
 47
0.0
 48
0.0
 49
0.0
140
0.0
141
0.0
142
1.0
143
1.0
 70
0
 72
1
 73
0
 74
0
  7

 75
0
147
1.0
148
0.0
149
0.0
100
AcDbLayout
  1
Layout1
 70
0
 71
1
 10
0.0
 20
0.0
 11
420.0
 21
297.0
 12
0.0
 22
0.0
 32
0.0
 14
0.0
 24
0.0
 34
0.0
 15
0.0
 25
0.0
 35
0.0
146
0.0
 13
0.0
 23
0.0
 33
0.0
 16
1.0
 26
0.0
 36
0.0
 17
0.0
 27
1.0
 37
0.0
 76
0
330
23A
345
0
346
0
  0
ENDSEC
  0
EOF
